Начать новую тему Ответить на тему
Статистика раздачи
Размер: 1.06 ГБ | Добавлен: 16 мар 2014, 00:09 | Скачали: 1
Сидеров: 4  [0 байт/сек]    Личеров: 2  [0 байт/сек]
Пред. тема | След. тема 

Автор
Сообщение

СообщениеДобавлено: 16 мар 2014, 00:09 

Ответить с цитатой 

Zucchero - Una Rosa Blanca (2 CD) (2013)

Год: 2013
Жанр: Pop Rock
Продолжительность: 01:53:21
Дата издания диска: 2013
Страна производитель диска: Italiy
Издатель (лейбл): Universal Music
Номер по каталогу: 0602537642588
Источник (релизер): rainbow.n
Наличие сканов в содержимом раздачи: Да
Кодек: FLAC
Тип рипа: image+.cue
Битрейт: Lossless
Треклист:
#777Треклист:
01. Una rosa blanca
02. Nena
03. Un kilo
04. Cuba libre
05. Never is a moment
06. Vedo nero
07. Baila (Sexy thing)
08. L’urlo
09. Everybody’s got to learn sometime
10. God bless the child
11. Così celeste
12. Love is all around
13. Guantanamera (Guajira)
14. Pana
15. Ave Maria no morro
16. Diamante
Пpодолжительность: 01:04:07
Код:
Код:
Exact Audio Copy V1.0 beta 3 from 29. August 2011

EAC extraction logfile from 13. January 2014, 18:18

Zucchero / Una Rosa Blanca - cd1

Used drive : PIONEER BD-RW BDR-206D Adapter: 1 ID: 1

Read mode : Secure
Utilize accurate stream : Yes
Defeat audio cache : Yes
Make use of C2 pointers : No

Read offset correction : 667
Overread into Lead-In and Lead-Out : No
Fill up missing offset samples with silence : Yes
Delete leading and trailing silent blocks : No
Null samples used in CRC calculations : Yes
Used interface : Native Win32 interface for Win NT & 2000

Used output format : User Defined Encoder
Selected bitrate : 1024 kBit/s
Quality : High
Add ID3 tag : No
Command line compressor : H:\Program Files\Exact Audio Copy\FLAC\FLAC.EXE
Additional command line options : -V -8 -T "Date=%year%" -T "Genre=%genre%" %source%

TOC of the extracted CD

Track | Start | Length | Start sector | End sector
---------------------------------------------------------
1 | 0:00.00 | 0:40.20 | 0 | 3019
2 | 0:40.20 | 4:44.13 | 3020 | 24332
3 | 5:24.33 | 3:34.37 | 24333 | 40419
4 | 8:58.70 | 3:35.11 | 40420 | 56555
5 | 12:34.06 | 3:52.32 | 56556 | 73987
6 | 16:26.38 | 4:24.70 | 73988 | 93857
7 | 20:51.33 | 4:06.30 | 93858 | 112337
8 | 24:57.63 | 3:16.71 | 112338 | 127108
9 | 28:14.59 | 4:52.69 | 127109 | 149077
10 | 33:07.53 | 3:43.49 | 149078 | 165851
11 | 36:51.27 | 5:06.73 | 165852 | 188874
12 | 41:58.25 | 4:12.01 | 188875 | 207775
13 | 46:10.26 | 3:56.08 | 207776 | 225483
14 | 50:06.34 | 4:26.32 | 225484 | 245465
15 | 54:32.66 | 3:39.56 | 245466 | 261946
16 | 58:12.47 | 5:53.70 | 261947 | 288491

Range status and errors

Selected range

Filename L:\Audio Lossless\Zucchero. 2013 Una Rosa Blanca\CD1\Zucchero - Una Rosa Blanca - cd1.wav

Peak level 100.0 %
Extraction speed 5.0 X
Range quality 99.9 %
Test CRC F6E1E221
Copy CRC F6E1E221
Copy OK

No errors occurred

AccurateRip summary

Track 1 accurately ripped (confidence 1) [B3206D6D] (AR v2)
Track 2 accurately ripped (confidence 1) [C1F2481C] (AR v2)
Track 3 accurately ripped (confidence 1) [D6F64A82] (AR v2)
Track 4 accurately ripped (confidence 1) [0F530243] (AR v2)
Track 5 accurately ripped (confidence 1) [5EC51719] (AR v2)
Track 6 accurately ripped (confidence 1) [887925EE] (AR v2)
Track 7 accurately ripped (confidence 1) [E7B0507E] (AR v2)
Track 8 accurately ripped (confidence 1) [2D0C1F41] (AR v2)
Track 9 accurately ripped (confidence 1) [C5B9B5B1] (AR v2)
Track 10 accurately ripped (confidence 1) [37739D73] (AR v2)
Track 11 accurately ripped (confidence 1) [F67EA334] (AR v2)
Track 12 accurately ripped (confidence 1) [7633CF33] (AR v2)
Track 13 accurately ripped (confidence 1) [84F1DC19] (AR v2)
Track 14 accurately ripped (confidence 1) [E67C277D] (AR v2)
Track 15 accurately ripped (confidence 1) [B95C74FF] (AR v2)
Track 16 accurately ripped (confidence 1) [9E617A0B] (AR v2)

All tracks accurately ripped

End of status report

==== Log checksum 7F1A2E57B07B0923EA431BC0DB496563A5964E1DBCA9E61430817CC10BE8275E ====
Код:
Код:
-----------------------

DON'T MODIFY THIS FILE

-----------------------

PERFORMER: auCDtect Task Manager, ver. 1.6.0 RC1 build 1.6.0.1
Copyright (c) 2008-2010 y-soft. All rights reserved
http:/y-soft.org

ANALYZER: auCDtect: CD records authenticity detector, version 0.8.2
Copyright (c) 2004 Oleg Berngardt. All rights reserved.
Copyright (c) 2004 Alexander Djourik. All rights reserved.

FILE: Zucchero - Una Rosa Blanca - cd1.flac
  Size: 459130271 Hash: BB1FA28005CB24CAEBCB5D7348DD40B9 Accuracy: -m0
  Conclusion: CDDA 100%
  Signature: 1E4BB484EFA802B7A14C5401AA7C3268B0166171
#777Треклист:
01. Pronto
02. Bacco perbacco
03. Like the sun (from out of nowhere)
04. Spicinfrin boy
05. Overdose (d’amore)
06. Con le mani
07. Diavolo in me
08. Sabor a ti
09. Senza una donna (without a woman)
10. X colpa di chi?
11. Quale senso abbiamo noi (previously unreleased)
Пpодолжительность: 00:49:14
Код:
Код:
Exact Audio Copy V1.0 beta 3 from 29. August 2011

EAC extraction logfile from 13. January 2014, 18:46

Zucchero / Una Rosa Blanca - cd2

Used drive : PIONEER BD-RW BDR-206D Adapter: 1 ID: 1

Read mode : Secure
Utilize accurate stream : Yes
Defeat audio cache : Yes
Make use of C2 pointers : No

Read offset correction : 667
Overread into Lead-In and Lead-Out : No
Fill up missing offset samples with silence : Yes
Delete leading and trailing silent blocks : No
Null samples used in CRC calculations : Yes
Used interface : Native Win32 interface for Win NT & 2000

Used output format : User Defined Encoder
Selected bitrate : 1024 kBit/s
Quality : High
Add ID3 tag : No
Command line compressor : H:\Program Files\Exact Audio Copy\FLAC\FLAC.EXE
Additional command line options : -V -8 -T "Date=%year%" -T "Genre=%genre%" %source%

TOC of the extracted CD

Track | Start | Length | Start sector | End sector
---------------------------------------------------------
1 | 0:00.00 | 4:11.20 | 0 | 18844
2 | 4:11.20 | 3:57.11 | 18845 | 36630
3 | 8:08.31 | 4:30.62 | 36631 | 56942
4 | 12:39.18 | 4:04.57 | 56943 | 75299
5 | 16:44.00 | 4:52.66 | 75300 | 97265
6 | 21:36.66 | 4:47.56 | 97266 | 118846
7 | 26:24.47 | 5:28.16 | 118847 | 143462
8 | 31:52.63 | 3:15.68 | 143463 | 158155
9 | 35:08.56 | 4:40.21 | 158156 | 179176
10 | 39:49.02 | 5:04.71 | 179177 | 202047
11 | 44:53.73 | 4:19.63 | 202048 | 221535

Range status and errors

Selected range

Filename L:\Audio Lossless\Zucchero. 2013 Una Rosa Blanca\CD2\Zucchero - Una Rosa Blanca - cd2.wav

Peak level 100.0 %
Extraction speed 6.2 X
Range quality 99.9 %
Test CRC 42F2D9B1
Copy CRC 42F2D9B1
Copy OK

No errors occurred

AccurateRip summary

Track 1 accurately ripped (confidence 1) [F1B32AFC] (AR v2)
Track 2 accurately ripped (confidence 1) [7C276100] (AR v2)
Track 3 accurately ripped (confidence 1) [4699250E] (AR v2)
Track 4 accurately ripped (confidence 1) [B1FD56A3] (AR v2)
Track 5 accurately ripped (confidence 1) [91FDAA6C] (AR v2)
Track 6 accurately ripped (confidence 1) [47FA9A6C] (AR v2)
Track 7 accurately ripped (confidence 1) [CC87BB6F] (AR v2)
Track 8 accurately ripped (confidence 1) [D3B01D24] (AR v2)
Track 9 accurately ripped (confidence 1) [4745978C] (AR v2)
Track 10 accurately ripped (confidence 1) [B805714E] (AR v2)
Track 11 accurately ripped (confidence 1) [0E896CCA] (AR v2)

All tracks accurately ripped

End of status report

==== Log checksum D7539EB91737EF82BEC7135C9ABA357953AD976730A681376B15996416149FE4 ====
Код:
Код:
-----------------------

DON'T MODIFY THIS FILE

-----------------------

PERFORMER: auCDtect Task Manager, ver. 1.6.0 RC1 build 1.6.0.1
Copyright (c) 2008-2010 y-soft. All rights reserved
http:/y-soft.org

ANALYZER: auCDtect: CD records authenticity detector, version 0.8.2
Copyright (c) 2004 Oleg Berngardt. All rights reserved.
Copyright (c) 2004 Alexander Djourik. All rights reserved.

FILE: Zucchero - Una Rosa Blanca - cd2.flac
  Size: 353995856 Hash: 2EBB72D118C80141EC7EB03D9D15266C Accuracy: -m0
  Conclusion: CDDA 100%
  Signature: 9E7CA693EC37BC0B0C8DD8E489E04201D81ECE7A
Правила, инструкции, FAQ!!!
Торрент  Добавлен [16 мар 2014, 00:09] Скачать торрент Магнет ссылка
Скачать торрент
[ Размер 12.55 КБ / Просмотров 33 ]

Статус  
 
Размер  1.06 ГБ
Приватный: Нет (DHT включён)
.torrent скачан  1
 


     Отправить личное сообщение
   
Страница 1 из 1
Показать сообщения за:  Поле сортировки  
Начать новую тему Ответить на тему


Сейчас этот форум просматривают: нет зарегистрированных пользователей и гости: 0


Вы не можете начинать темы
Вы не можете отвечать на сообщения
Вы не можете редактировать свои сообщения
Вы не можете удалять свои сообщения
Вы не можете добавлять вложения

Перейти:  
cron
cron