Начать новую тему Ответить на тему
Статистика раздачи
Размер: 737.82 МБ | Добавлен: 03 ноя 2019, 19:32 | Скачали: 11
Сидеров: 125  [0 байт/сек]    Личеров: 15  [0 байт/сек]
Пред. тема | След. тема 

Автор
Сообщение

СообщениеДобавлено: 03 ноя 2019, 19:32 

Ответить с цитатой 

Yoshio Kimura & Enkakurabu / Showa No Meikyoku Collection Vol.2
Формат записи/Источник записи: [SACD-R][OF]
Наличие водяных знаков: Нет
Год издания/переиздания диска: 2017
Жанр: Pop, Guitar, Easy Listening, Orchestral, Instrumental
Издатель (лейбл): New Century Workshop
Продолжительность: 00:44:03
Наличие сканов в содержимом раздачи: Да (сканы)
Треклист:
01. 兄弟船 / Kyoudai Sen
02. みちづれ / Michizure
03. 花街の母 / Hanamachi No Haha
04. なみだの操 / Na Mi Da No Misao
05. ふたり酒 / Futarizake
06. 夫婦舟 / Fuufu Fune
07. 無錫旅情 / Mu Suzu Ryojou
08. そして…めぐり逢い / Soshite... Meguri Eye
09. 浪花戀しぐれ / Naniwa Koi Shigure
10. みだれ髪 / Midaregami
11. 夕焼け雲 / Yuuyake Kumo
12. 釜山港へ帰れ / Busankou E Kaere
13. 夫婦坂 / Fuufu Zaka
14. 夢芝居 / Yume Shibai
Контейнер: ISO (*.iso)
Тип рипа: image
Разрядность: 64(2,8 MHz/1 Bit)
Формат: DST64
Количество каналов: 2.0
Код:
foobar2000 1.4.6 / Замер динамического диапазона (DR) 1.1.1
Дата отчёта:  2019-10-27 12:01:52
--------------------------------------------------------------------------------
Анализ:   Yoshio Kimura & Enkakurabu / Showa No Meikyoku Collection Vol.2
--------------------------------------------------------------------------------
DR         Пики         RMS           Продолжительность трека
--------------------------------------------------------------------------------
DR11      -5.90 дБ   -20.37 дБ      2:59 01-Kyoudai Sen
DR14      -5.50 дБ   -21.47 дБ      3:09 02-Michizure
DR13      -4.95 дБ   -21.03 дБ      2:39 03-Hanamachi No Haha
DR13      -5.60 дБ   -20.52 дБ      2:43 04-Na Mi Da No Misao
DR12      -5.54 дБ   -20.02 дБ      3:04 05-Futarizake
DR13      -5.61 дБ   -21.18 дБ      3:04 06-Fuufu Fune
DR13      -4.70 дБ   -20.51 дБ      3:16 07-Mu Suzu Ryojou
DR12      -5.65 дБ   -20.56 дБ      2:49 08-Soshite... Meguri Eye
DR13      -6.02 дБ   -21.42 дБ      3:14 09-Naniwa Koi Shigure
DR13      -5.13 дБ   -20.51 дБ      3:00 10-Midaregami
DR13      -5.59 дБ   -21.17 дБ      3:09 11-Yuuyake Kumo
DR11      -6.01 дБ   -19.54 дБ      3:47 12-Busankou E Kaere
DR12      -6.07 дБ   -19.44 дБ      3:20 13-Fuufu Zaka
DR12      -5.58 дБ   -20.05 дБ      3:50 14-Yume Shibai
--------------------------------------------------------------------------------
Количество треков: 14
Реальные значения DR: DR13
Частота:   2822400 Гц / Частота PCM: 88200 Гц
Каналов:   2
Разрядность:   1
Битрейт:   5645 кбит/с
Кодек:   DST64
================================================================================
Источник (релизер): https://www.headphone.com.hk/product/%E6%9C%A8%E6%9D%91%E5%A5%BD%E5%A4%AB-%E3%81%...3%A8-vol-2-sacd/
Правила, инструкции, FAQ!!!
Торрент  Добавлен [03 ноя 2019, 19:32] Скачать торрент Магнет ссылка
Скачать торрент
[ Размер 8.43 КБ / Просмотров 55 ]

Статус
Проверен 
 
Размер  737.82 МБ
Приватный: Нет (DHT включён)
.torrent скачан  11
 


     Отправить личное сообщение
   
Страница 1 из 1
Показать сообщения за:  Поле сортировки  
Начать новую тему Ответить на тему


Сейчас этот форум просматривают: нет зарегистрированных пользователей и гости: 0


Вы не можете начинать темы
Вы не можете отвечать на сообщения
Вы не можете редактировать свои сообщения
Вы не можете удалять свои сообщения
Вы не можете добавлять вложения

Перейти:  
cron
cron