Начать новую тему Ответить на тему
Статистика раздачи
Размер: 429.28 МБ | Добавлен: 16 мар 2014, 00:16 | Скачали: 0
Сидеров: 1  [0 байт/сек]    Личеров: 5  [0 байт/сек]
Пред. тема | След. тема 

Автор
Сообщение

СообщениеДобавлено: 16 мар 2014, 00:16 

Ответить с цитатой 

Yes - Close To The Edge (1972)

Год: 1972
Жанр: Progressive Rock, Symphonic Rock, Art Rock
Лейбл: Panegyric
Каталог #: GYRBD50012
Продолжительность: 01:06:31
Кодек: FLAC
Тип рипа: image + .cue
Битрейт: Lossless
Треклист:
01. Close To The Edge (18:42)
02. And You And I (10:12)
03. Siberian Khatru (9:11)
04. America (10:44)
05. Close To The Edge (early assembly) (17:42)


Код:
Код:
Exact Audio Copy V1.0 beta 3 from 29. August 2011

Отчёт EAC об извлечении, выполненном 11. ноября 2013, 19:52

Yes / Close To The Edge

Дисковод: ASUS    DRW-2014L1T   Adapter: 3  ID: 0

Режим чтения                 : Достоверность
Использование точного потока : Да
Отключение кэша аудио        : Да
Использование указателей C2  : Нет

Коррекция смещения при чтении                     : 6
Способность читать области Lead-in и Lead-out     : Нет
Заполнение пропущенных сэмплов тишиной            : Да
Удаление блоков с тишиной в начале и конце        : Нет
При вычислениях CRC использовались нулевые сэмплы : Да
Интерфейс                                         : Встроенный Win32-интерфейс для Win NT/2000

Выходной формат          : Пользовательский кодировщик
Выбранный битрейт        : 128 kBit/s
Качество                 : Высокий
Добавление ID3-тега      : Нет
Утилита сжатия           : C:\Program Files\Exact Audio Copy\Flac\flac.exe
Дополнительные параметры : -V -8 -T "Date=%year%" -T "Genre=%genre%" %source%

TOC извлечённого CD

     Трек |   Старт  | Длительность | Начальный сектор | Конечный сектор
    ---------------------------------------------------------------------
       1  |  0:00.00 |   18:42.00   |           0      |      84149
       2  | 18:42.00 |   10:12.00   |       84150      |     130049
       3  | 28:54.00 |    9:11.26   |      130050      |     171400
       4  | 38:05.26 |   10:44.00   |      171401      |     219700
       5  | 48:49.26 |   17:42.06   |      219701      |     299356

Характеристики диапазона извлечения и сообщения об ошибках

Выбранный диапазон

     Имя файла E:\Torrent Downloads\Music\Yes - Close To The Edge [GYRBD50012]\Yes - Close To The Edge [GYRBD50012].wav

     Пиковый уровень 99.6 %
     Скорость извлечения 5.9 X
     Качество диапазона 100.0 %
     CRC теста B3F1ECE1
     CRC копии B3F1ECE1
     Копирование... OK

Ошибок не произошло

AccurateRip: сводка

Трек  1  отсутствует в базе данных
Трек  2  отсутствует в базе данных
Трек  3  отсутствует в базе данных
Трек  4  отсутствует в базе данных
Трек  5  отсутствует в базе данных

Ни одного трека нет в базе AccurateRip

Конец отчёта

==== Контрольная сумма отчёта D85563FBB862C5332443101AD50F0164D18A4AA6E544008C365611AF1282163C ====

Код:
Код:
-----------------------

DON'T MODIFY THIS FILE

-----------------------

PERFORMER: auCDtect Task Manager, ver. 1.6.0 RC1 build 1.6.0.1
Copyright (c) 2008-2010 y-soft. All rights reserved
http:/y-soft.org

ANALYZER: auCDtect: CD records authenticity detector, version 0.8.2
Copyright (c) 2004 Oleg Berngardt. All rights reserved.
Copyright (c) 2004 Alexander Djourik. All rights reserved.

FILE: Yes - Close To The Edge [GYRBD50012].flac
  Size: 416756992 Hash: F65F4BFBBC397D5ACAF32E886B0D173C Accuracy: -m0
  Conclusion: CDDA 100%
  Signature: 529C11AF0E5E8EDAD01D8567929564658C72C74A

Код:
Код:
REM DISCID 3D0F9705
REM DATE 1972
REM COMMENT "ExactAudioCopy v1.0b3"
PERFORMER "Yes"
TITLE "Close To The Edge"
FILE "Yes - Close To The Edge [GYRBD50012].flac" WAVE
  TRACK 01 AUDIO
    TITLE "Close To The Edge"
    PERFORMER "Yes"
    INDEX 01 00:00:00
  TRACK 02 AUDIO
    TITLE "And You And I"
    PERFORMER "Yes"
    INDEX 01 18:42:00
  TRACK 03 AUDIO
    TITLE "Siberian Khatru"
    PERFORMER "Yes"
    INDEX 01 28:54:00
  TRACK 04 AUDIO
    TITLE "America"
    PERFORMER "Yes"
    INDEX 00 37:55:26
    INDEX 01 38:05:26
  TRACK 05 AUDIO
    TITLE "Close To The Edge (early assembly)"
    PERFORMER "Yes"
    INDEX 00 48:39:26
    INDEX 01 48:49:26

Код:
Код:
[CUETools log; Date: 06.01.2014 19:03:05; Version: 2.1.4]
[CTDB TOCID: AJiW_gV3ByC5iVwHGMPNWvyf4uY-] found.
Track | CTDB Status
  1   | (30/30) Accurately ripped
  2   | (30/30) Accurately ripped
  3   | (30/30) Accurately ripped
  4   | (30/30) Accurately ripped
  5   | (30/30) Accurately ripped
[AccurateRip ID: 000dcdd3-003f26ce-3d0f9705] found.
Track   [  CRC   |   V2   ] Status
 01     [d07db546|8084293a] (05+24/29) Accurately ripped
 02     [fe10a2f7|d93bd0e6] (05+24/29) Accurately ripped
 03     [06ff5801|752cee9d] (05+24/29) Accurately ripped
 04     [74e76e31|d51a50c6] (05+24/29) Accurately ripped
 05     [7458d90d|43d002d3] (04+23/27) Accurately ripped

Track Peak [ CRC32  ] [W/O NULL] [  LOG   ]
 --   99,6 [B3F1ECE1] [122921C4]   CRC32
 01   99,4 [EDA10B12] [19A9E987]
 02   99,6 [25089134] [32168F31]
 03   99,2 [3DC35B63] [75EAB864]
 04   99,3 [B0C08DD0] [7C2C5778]
 05   77,2 [049FB93C] [405F589E]

Правила, инструкции, FAQ!!!
Торрент  Добавлен [16 мар 2014, 00:16] Скачать торрент Магнет ссылка
Скачать торрент
[ Размер 18.59 КБ / Просмотров 29 ]

Статус  
 
Размер  429.28 МБ
Приватный: Нет (DHT включён)
.torrent скачан  0
 


     Отправить личное сообщение
   
Страница 1 из 1
Показать сообщения за:  Поле сортировки  
Начать новую тему Ответить на тему


Сейчас этот форум просматривают: нет зарегистрированных пользователей и гости: 0


Вы не можете начинать темы
Вы не можете отвечать на сообщения
Вы не можете редактировать свои сообщения
Вы не можете удалять свои сообщения
Вы не можете добавлять вложения

Перейти:  
cron
cron