Начать новую тему Ответить на тему
Статистика раздачи
Размер: 1.08 ГБ | Добавлен: 16 мар 2014, 00:54 | Скачали: 0
Сидеров: 2  [0 байт/сек]    Личеров: 0  [0 байт/сек]
Пред. тема | След. тема 

Автор
Сообщение

СообщениеДобавлено: 16 мар 2014, 00:54 

Ответить с цитатой 

Yeah Yeah Yeahs - 3 альбома + 3 EP (2001-2009)

Год: 2003-2009
Жанр: indie rock/alternative
Продолжительность: 02:00:16

Кодек: FLAC
Тип рипа: image/tracks+.cue
Битрейт: Lossless

Описание:
Yeah Yeah Yeahs — американская инди-рок группа. Участники группы — ведущая вокалистка Карен О, барабанщик Брайн Чайз и гитарист Ник Зиннер. Их музыка — это смесь ретро стилей с тяжело-роковыми/панковыми гитарами, синтетическими звуками, криками, эксцентричным и блюзовым вокалом. По словам участников группы название коллектива взято из нью-йоркского жаргона. Они образовались в 2000 как трио, для турне в 2006 году к ним присоединился второй гитарист Имаад Вазиф.

В 2003 году группа выпустила первый полноценный альбом, «Fever To Tell», который получил несколько сильных рецензий критиков и разошелся тиражом более чем в 750 000 копий по всему миру. Третий сингл альбома, «Maps», стал часто крутиться в эфире альтернативных радиостанций.

Их второй альбом, «Show Your Bones», был выпущен 27—28 марта 2006 года, а первый сингл с альбома, «Gold Lion» поднялся на 18-е место в Official UK Singles Chart. Группа постоянно гастролировала в течение 2006 года.

Третий студийный альбом, It’s Blitz!, был выпущен 31 марта 2009 в США и 6 апреля 2009 в остальной части мира.
61 396 118 прослушиваний (1 804 270 слушателей)

Список альбомов:
#777Продолжительность: 00:13:52
Тип рипа: tracks+.cue

Трэклист:
01. Bang! (3:09)
02. Mystery Girl (2:57)
03. Art Star (2:00)
04. Miles Away (2:20)
05. Our Time (3:23)
Код:
Код:
Exact Audio Copy V0.99 prebeta 4 from 23. January 2008

EAC extraction logfile from 20. February 2009, 11:51

Yeah Yeah Yeahs / Yeah Yeah Yeahs

Used drive  : TSSTcorpDVD+-RW TS-T633A   Adapter: 1  ID: 0

Read mode               : Secure
Utilize accurate stream : Yes
Defeat audio cache      : Yes
Make use of C2 pointers : No

Read offset correction                      : 6
Overread into Lead-In and Lead-Out          : No
Fill up missing offset samples with silence : Yes
Delete leading and trailing silent blocks   : No
Null samples used in CRC calculations       : Yes
Used interface                              : Native Win32 interface for Win NT & 2000
Gap handling                                : Appended to previous track

Used output format              : User Defined Encoder
Selected bitrate                : 128 kBit/s
Quality                         : High
Add ID3 tag                     : No
Command line compressor         : C:\Program Files\FLAC\flac.exe
Additional command line options : -V -8 -T "artist=%a" -T "title=%t" -T "album=%g" -T "date=%y" -T "tracknumber=%n" -T "genre=%m" %s

TOC of the extracted CD

     Track |   Start  |  Length  | Start sector | End sector
    ---------------------------------------------------------
        1  |  0:00.00 |  3:09.09 |         0    |    14183
        2  |  3:09.09 |  2:57.52 |     14184    |    27510
        3  |  6:06.61 |  2:00.58 |     27511    |    36568
        4  |  8:07.44 |  2:20.60 |     36569    |    47128
        5  | 10:28.29 |  3:23.66 |     47129    |    62419

Track  1

     Filename C:\EAC rips\Yeah Yeah Yeahs - 2001 - Yeah Yeah Yeahs\01 - Bang.wav

     Pre-gap length  0:00:02.00

     Peak level 91.3 %
     Track quality 100.0 %
     Test CRC B372F9D7
     Copy CRC B372F9D7
     Cannot be verified as accurate (confidence 8)  [FCAC8A88], AccurateRip returned [E4A1BF57]
     Copy OK

Track  2

     Filename C:\EAC rips\Yeah Yeah Yeahs - 2001 - Yeah Yeah Yeahs\02 - Mystery Girl.wav

     Pre-gap length  0:00:02.00

     Peak level 92.4 %
     Track quality 100.0 %
     Test CRC 903C6CC6
     Copy CRC 903C6CC6
     Cannot be verified as accurate (confidence 4)  [3DEEEB96], AccurateRip returned [E1870ABE]
     Copy OK

Track  3

     Filename C:\EAC rips\Yeah Yeah Yeahs - 2001 - Yeah Yeah Yeahs\03 - Art Star.wav

     Pre-gap length  0:00:00.32

     Peak level 91.3 %
     Track quality 100.0 %
     Test CRC C7F35CF0
     Copy CRC C7F35CF0
     Cannot be verified as accurate (confidence 4)  [EE0E5FE3], AccurateRip returned [0DEC5BEB]
     Copy OK

Track  4

     Filename C:\EAC rips\Yeah Yeah Yeahs - 2001 - Yeah Yeah Yeahs\04 - Miles Away.wav

     Pre-gap length  0:00:01.34

     Peak level 99.0 %
     Track quality 99.9 %
     Test CRC C3A97A39
     Copy CRC C3A97A39
     Cannot be verified as accurate (confidence 4)  [E232C609], AccurateRip returned [186335C1]
     Copy OK

Track  5

     Filename C:\EAC rips\Yeah Yeah Yeahs - 2001 - Yeah Yeah Yeahs\05 - Our Time.wav

     Pre-gap length  0:00:02.94

     Peak level 91.3 %
     Track quality 99.9 %
     Test CRC ED501378
     Copy CRC ED501378
     Cannot be verified as accurate (confidence 4)  [25EE9BF2], AccurateRip returned [5B7A00D2]
     Copy OK

No tracks could be verified as accurate
You may have a different pressing from the one(s) in the database

No errors occurred

End of status report
Код:
Код:
-----------------------

DON'T MODIFY THIS FILE

-----------------------

PERFORMER: auCDtect Task Manager, ver. 1.5.1RC6 build 1.5.1.7
Copyright (c) 2008-2010 y-soft. All rights reserved
http:/y-soft.org

ANALYZER: auCDtect: CD records authenticity detector, version 0.8.2
Copyright (c) 2004 Oleg Berngardt. All rights reserved.
Copyright (c) 2004 Alexander Djourik. All rights reserved.

FILE: 05 - Our Time.flac
  Size: 24320934 Hash: 164CFB6AAAABE12440F2D4F78A540935 Accuracy: -m0
  Conclusion: CDDA 100%
  Signature: 2B1C71434357D411C882D62A7990403C7BF8FF96
FILE: 04 - Miles Away.flac
  Size: 16365060 Hash: 72F30D0486ACE0643E9FDA989B83444F Accuracy: -m0
  Conclusion: CDDA 100%
  Signature: DA2346D25186645CA5C3722A44A5369735386457
FILE: 03 - Art Star.flac
  Size: 15236975 Hash: 3D7FB543F75F248A99685F4520B401AF Accuracy: -m0
  Conclusion: CDDA 100%
  Signature: 20DFF9F175C862D51B3DE860EBC6DE52917800E8
FILE: 02 - Mystery Girl.flac
  Size: 21277009 Hash: 641BECC6F1FF6EFEDE0216E282AEFA2F Accuracy: -m0
  Conclusion: CDDA 100%
  Signature: 3BE66B7BB78649A7A9266B9DE0B2129E4CD70B16
FILE: 01 - Bang.flac
  Size: 24411312 Hash: 6049A019952F12481DA6C4F86EE5052D Accuracy: -m0
  Conclusion: CDDA 100%
  Signature: E27122695BA133F7BA83886644AE6815D914AF7B
#777Продолжительность: 00:07:09
Тип рипа: tracks+.cue

Трэклист:
01. Machine (3:18)
02. Graveyard (1:33)
03. Pin [Remix] (2:18)
Код:
Код:
Exact Audio Copy V0.99 prebeta 3 from 28. July 2007

EAC extraction logfile from 9. March 2008, 12:34

Yeah Yeah Yeahs / Machine

Used drive  : TOSHIBA DVD-ROM SD-R5002   Adapter: 1  ID: 0

Read mode               : Secure
Utilize accurate stream : Yes
Defeat audio cache      : Yes
Make use of C2 pointers : No

Read offset correction                      : 116
Overread into Lead-In and Lead-Out          : No
Fill up missing offset samples with silence : Yes
Delete leading and trailing silent blocks   : No
Null samples used in CRC calculations       : Yes
Used interface                              : Native Win32 interface for Win NT & 2000
Gap handling                                : Appended to previous track

Used output format              : User Defined Encoder
Selected bitrate                : 192 kBit/s
Quality                         : High
Add ID3 tag                     : No
Command line compressor         : flac.exe
Additional command line options : -8 -A tukey(0.25) -A gauss(0.1875) -b 4096 -V -T "artist=%a" -T "title=%t" -T "album=%g" -T "date=%y" -T "tracknumber=%n" -T "genre=%m" %s --sector-align

TOC of the extracted CD

     Track |   Start  |  Length  | Start sector | End sector
    ---------------------------------------------------------
        1  |  0:00.00 |  3:18.60 |         0    |    14909
        2  |  3:18.60 |  1:33.07 |     14910    |    21891
        3  |  4:51.67 |  2:18.07 |     21892    |    32248

Track  1

     Filename 01 - Machine.wav

     Pre-gap length  0:00:02.00

     Peak level 91.8 %
     Track quality 100.0 %
     Test CRC 0B80C524
     Copy CRC 0B80C524
     Accurately ripped (confidence 2)  [D9D24914]
     Copy OK

Track  2

     Filename 02 - Graveyard.wav

     Pre-gap length  0:00:02.00

     Peak level 94.4 %
     Track quality 100.0 %
     Test CRC 0E2827D9
     Copy CRC 0E2827D9
     Accurately ripped (confidence 2)  [694E45F4]
     Copy OK

Track  3

     Filename 03 - Pin [Remix].wav

     Pre-gap length  0:00:02.00

     Peak level 89.2 %
     Track quality 100.0 %
     Test CRC 28D092A2
     Copy CRC 28D092A2
     Accurately ripped (confidence 2)  [22DC3B54]
     Copy OK

All tracks accurately ripped

No errors occurred

End of status report
Код:
Код:
-----------------------

DON'T MODIFY THIS FILE

-----------------------

PERFORMER: auCDtect Task Manager, ver. 1.5.1RC6 build 1.5.1.7
Copyright (c) 2008-2010 y-soft. All rights reserved
http:/y-soft.org

ANALYZER: auCDtect: CD records authenticity detector, version 0.8.2
Copyright (c) 2004 Oleg Berngardt. All rights reserved.
Copyright (c) 2004 Alexander Djourik. All rights reserved.

FILE: 03 - Pin [Remix].flac
  Size: 13850769 Hash: 0572AC156660BCDF9B79CC687574F45D Accuracy: -m0
  Conclusion: CDDA 100%
  Signature: 9FC2B466DBBB97ADFE47DF548CB1BB8BA2BA13F6
FILE: 02 - Graveyard.flac
  Size: 11722652 Hash: C76A25F8DFA4E93A0AF90E94EC555E49 Accuracy: -m0
  Conclusion: CDDA 100%
  Signature: C8EB8F574B6B91CE798713BA894F852D933409B7
FILE: 01 - Machine.flac
  Size: 23571538 Hash: A8872B62442150A67C38D957EAAE642E Accuracy: -m0
  Conclusion: CDDA 100%
  Signature: 9019C97B58159961FFF4C3E2D67C032670C3D44A
#777Продолжительность: 00:39:34
Тип рипа: image+.cue

Трэклист:
01. Rich (3:36)
02. Date with the Night (2:35)
03. Man (1:50)
04. Tick (1:49)
05. Black Tongue (2:59)
06. Pin (2:00)
07. Cold Light (2:16)
08. No No No (5:14)
09. Maps (3:39)
10. Y Control (4:00)
11. Modern Romance (Includes the Hidden Track "Poor Song") (7:28)
12. Yeah! New York (Bonus Track) (2:05)
Код:
Код:
Exact Audio Copy V0.99 prebeta 5 from 4. May 2009

EAC extraction logfile from 13. November 2010, 22:08

Yeah Yeah Yeahs / Fever To Tell

Used drive  : TEAC    DV-W516GD   Adapter: 1  ID: 0

Read mode               : Secure
Utilize accurate stream : Yes
Defeat audio cache      : Yes
Make use of C2 pointers : No

Read offset correction                      : 6
Overread into Lead-In and Lead-Out          : No
Fill up missing offset samples with silence : Yes
Delete leading and trailing silent blocks   : No
Null samples used in CRC calculations       : Yes
Used interface                              : Installed external ASPI interface

Used output format : Internal WAV Routines
Sample format      : 44.100 Hz; 16 Bit; Stereo

TOC of the extracted CD

     Track |   Start  |  Length  | Start sector | End sector
    ---------------------------------------------------------
        1  |  0:00.00 |  3:36.10 |         0    |    16209
        2  |  3:36.10 |  2:35.23 |     16210    |    27857
        3  |  6:11.33 |  1:49.37 |     27858    |    36069
        4  |  8:00.70 |  1:49.68 |     36070    |    44312
        5  |  9:50.63 |  2:59.07 |     44313    |    57744
        6  | 12:49.70 |  2:00.00 |     57745    |    66744
        7  | 14:49.70 |  2:16.00 |     66745    |    76944
        8  | 17:05.70 |  5:14.30 |     76945    |   100524
        9  | 22:20.25 |  3:39.58 |    100525    |   117007
       10  | 26:00.08 |  4:00.47 |    117008    |   135054
       11  | 30:00.55 |  7:28.13 |    135055    |   168667
       12  | 37:28.68 |  2:05.12 |    168668    |   178054
       13  | 42:06.05 |  8:49.30 |    189455    |   229159

Range status and errors

Selected range

     Filename H:\Yeah Yeah Yeahs - Fever To Tell\Yeah Yeah Yeahs - Fever To Tell.wav

     Peak level 98.0 %
     Range quality 100.0 %
     Copy CRC A6FB2698
     Copy OK

No errors occurred

AccurateRip summary

Track  1  accurately ripped (confidence 9)  [CC29899D]
Track  2  accurately ripped (confidence 9)  [FBFFE9CC]
Track  3  accurately ripped (confidence 10)  [82AEABF5]
Track  4  accurately ripped (confidence 9)  [E83A11DD]
Track  5  accurately ripped (confidence 9)  [BD799A92]
Track  6  accurately ripped (confidence 9)  [1C32A1BA]
Track  7  accurately ripped (confidence 8)  [D8E50EB9]
Track  8  accurately ripped (confidence 9)  [8F00F012]
Track  9  accurately ripped (confidence 9)  [D37BE53A]
Track 10  accurately ripped (confidence 9)  [87A35F70]
Track 11  accurately ripped (confidence 9)  [C6B7F4D9]
Track 12  accurately ripped (confidence 10)  [3DEB4B03]

All tracks accurately ripped

End of status report
Код:
Код:
-----------------------

DON'T MODIFY THIS FILE

-----------------------

PERFORMER: auCDtect Task Manager, ver. 1.5.1RC6 build 1.5.1.7
Copyright (c) 2008-2010 y-soft. All rights reserved
http:/y-soft.org

ANALYZER: auCDtect: CD records authenticity detector, version 0.8.2
Copyright (c) 2004 Oleg Berngardt. All rights reserved.
Copyright (c) 2004 Alexander Djourik. All rights reserved.

FILE: Yeah Yeah Yeahs - Fever To Tell.flac
  Size: 274719943 Hash: 2FEC41E36A043DFCAC50E6B60AB1BEC3 Accuracy: -m0
  Conclusion: CDDA 99%
  Signature: 1531357D1BEEBC7178048272323E028997346F0D
#777Продолжительность: 00:38:58
Тип рипа: tracks+.cue

Трэклист:
01. Gold Lion (3:07)
02. Way Out (2:51)
03. Fancy (4:24)
04. Phenomena (4:10)
05. Honeybear (2:25)
06. Cheated Hearts (3:58)
07. Dudley (3:41)
08. Mysteries (2:35)
09. The Sweets (3:55)
10. Warrior (3:42)
11. Turn Into (4:05)
Код:
Код:
Exact Audio Copy V1.0 beta 3 from 29. August 2011

EAC extraction logfile from 4. October 2011, 22:06

Yeah Yeah Yeahs / Show Your Bones

Used drive  : ASUS    DRW-2014L1   Adapter: 0  ID: 1

Read mode               : Secure
Utilize accurate stream : Yes
Defeat audio cache      : Yes
Make use of C2 pointers : No

Read offset correction                      : 6
Overread into Lead-In and Lead-Out          : No
Fill up missing offset samples with silence : Yes
Delete leading and trailing silent blocks   : No
Null samples used in CRC calculations       : Yes
Used interface                              : Native Win32 interface for Win NT & 2000
Gap handling                                : Appended to previous track

Used output format              : User Defined Encoder
Selected bitrate                : 128 kBit/s
Quality                         : High
Add ID3 tag                     : No
Command line compressor         : C:\Program Files (x86)\Exact Audio Copy\Flac\flac.exe
Additional command line options : -8 -V -T "ARTIST=%artist%" -T "TITLE=%title%" -T "ALBUM=%albumtitle%" -T "DATE=%year%" -T "TRACKNUMBER=%tracknr%" -T "GENRE=%genre%" -T "COMMENT=ripped by Andy aka yetiisyou" %source%

TOC of the extracted CD

     Track |   Start  |  Length  | Start sector | End sector
    ---------------------------------------------------------
        1  |  0:00.00 |  3:07.10 |         0    |    14034
        2  |  3:07.10 |  2:51.32 |     14035    |    26891
        3  |  5:58.42 |  4:24.65 |     26892    |    46756
        4  | 10:23.32 |  4:10.10 |     46757    |    65516
        5  | 14:33.42 |  2:25.50 |     65517    |    76441
        6  | 16:59.17 |  3:58.03 |     76442    |    94294
        7  | 20:57.20 |  3:41.72 |     94295    |   110941
        8  | 24:39.17 |  2:35.53 |    110942    |   122619
        9  | 27:14.70 |  3:55.02 |    122620    |   140246
       10  | 31:09.72 |  3:42.35 |    140247    |   156931
       11  | 34:52.32 |  4:05.48 |    156932    |   175354

Track  1

     Filename E:\!Rips\Yeah Yeah Yeahs – Show Your Bones [B0006337-02] (2006)\01. Yeah Yeah Yeahs - Gold Lion.wav

     Pre-gap length  0:00:02.00

     Peak level 99.9 %
     Extraction speed 5.2 X
     Track quality 100.0 %
     Test CRC AFF8396F
     Copy CRC AFF8396F
     Cannot be verified as accurate (confidence 103)  [E04EAAEC], AccurateRip returned [F481AC9E]  (AR v2)
     Copy OK

Track  2

     Filename E:\!Rips\Yeah Yeah Yeahs – Show Your Bones [B0006337-02] (2006)\02. Yeah Yeah Yeahs - Way Out.wav

     Peak level 99.9 %
     Extraction speed 5.6 X
     Track quality 100.0 %
     Test CRC 3DF294E1
     Copy CRC 3DF294E1
     Cannot be verified as accurate (confidence 103)  [F23942F8], AccurateRip returned [14F68A55]  (AR v2)
     Copy OK

Track  3

     Filename E:\!Rips\Yeah Yeah Yeahs – Show Your Bones [B0006337-02] (2006)\03. Yeah Yeah Yeahs - Fancy.wav

     Peak level 99.9 %
     Extraction speed 6.3 X
     Track quality 100.0 %
     Test CRC 57A54CFD
     Copy CRC 57A54CFD
     Cannot be verified as accurate (confidence 102)  [2A1D1143], AccurateRip returned [B5EDCCC3]  (AR v2)
     Copy OK

Track  4

     Filename E:\!Rips\Yeah Yeah Yeahs – Show Your Bones [B0006337-02] (2006)\04. Yeah Yeah Yeahs - Phenomena.wav

     Peak level 99.9 %
     Extraction speed 6.8 X
     Track quality 100.0 %
     Test CRC F6CB4AD2
     Copy CRC F6CB4AD2
     Cannot be verified as accurate (confidence 103)  [BC33E7A8], AccurateRip returned [6BA11FEA]  (AR v2)
     Copy OK

Track  5

     Filename E:\!Rips\Yeah Yeah Yeahs – Show Your Bones [B0006337-02] (2006)\05. Yeah Yeah Yeahs - Honeybear.wav

     Peak level 99.9 %
     Extraction speed 6.5 X
     Track quality 100.0 %
     Test CRC 76E9A395
     Copy CRC 76E9A395
     Cannot be verified as accurate (confidence 102)  [21496A92], AccurateRip returned [0A14AA56]  (AR v2)
     Copy OK

Track  6

     Filename E:\!Rips\Yeah Yeah Yeahs – Show Your Bones [B0006337-02] (2006)\06. Yeah Yeah Yeahs - Cheated Hearts.wav

     Peak level 99.9 %
     Extraction speed 5.5 X
     Track quality 99.9 %
     Test CRC 3912D0C0
     Copy CRC 3912D0C0
     Cannot be verified as accurate (confidence 102)  [7DCFED70], AccurateRip returned [184BADF7]  (AR v2)
     Copy OK

Track  7

     Filename E:\!Rips\Yeah Yeah Yeahs – Show Your Bones [B0006337-02] (2006)\07. Yeah Yeah Yeahs - Dudley.wav

     Peak level 99.9 %
     Extraction speed 6.4 X
     Track quality 100.0 %
     Test CRC 66E37DC3
     Copy CRC 66E37DC3
     Cannot be verified as accurate (confidence 101)  [F432A237], AccurateRip returned [289D3DC0]  (AR v2)
     Copy OK

Track  8

     Filename E:\!Rips\Yeah Yeah Yeahs – Show Your Bones [B0006337-02] (2006)\08. Yeah Yeah Yeahs - Mysteries.wav

     Peak level 99.9 %
     Extraction speed 5.3 X
     Track quality 99.9 %
     Test CRC CE12B025
     Copy CRC CE12B025
     Cannot be verified as accurate (confidence 100)  [42A280D4], AccurateRip returned [85B812B8]  (AR v2)
     Copy OK

Track  9

     Filename E:\!Rips\Yeah Yeah Yeahs – Show Your Bones [B0006337-02] (2006)\09. Yeah Yeah Yeahs - The Sweets.wav

     Peak level 99.9 %
     Extraction speed 6.1 X
     Track quality 99.9 %
     Test CRC 6F62E25E
     Copy CRC 6F62E25E
     Cannot be verified as accurate (confidence 102)  [921119BA], AccurateRip returned [7BA90144]  (AR v2)
     Copy OK

Track 10

     Filename E:\!Rips\Yeah Yeah Yeahs – Show Your Bones [B0006337-02] (2006)\10. Yeah Yeah Yeahs - Warrior.wav

     Peak level 99.9 %
     Extraction speed 7.0 X
     Track quality 100.0 %
     Test CRC 6AA701FB
     Copy CRC 6AA701FB
     Cannot be verified as accurate (confidence 102)  [A2D24587], AccurateRip returned [DF0B65D8]  (AR v2)
     Copy OK

Track 11

     Filename E:\!Rips\Yeah Yeah Yeahs – Show Your Bones [B0006337-02] (2006)\11. Yeah Yeah Yeahs - Turn Into.wav

     Pre-gap length  0:00:01.58

     Peak level 99.9 %
     Extraction speed 7.5 X
     Track quality 100.0 %
     Test CRC 30C273B6
     Copy CRC 30C273B6
     Cannot be verified as accurate (confidence 99)  [3B995D6D], AccurateRip returned [00066B8D]  (AR v2)
     Copy OK

No tracks could be verified as accurate
You may have a different pressing from the one(s) in the database

No errors occurred

End of status report

---- CUETools DB Plugin V2.1.3

[CTDB TOCID: KLUsDSZslGcfLKbh5S1GnR_UUq8-] found, Submit result: KLUsDSZslGcfLKbh5S1GnR_UUq8- has been confirmed
[f5d7f0c3] (082/208) No match
[ca068d21] (126/208) Accurately ripped

==== Log checksum 12930667560C64CF4324695B4ED4FF21EDD9AAECFBA2E05E5A7B9072BEB7C38A ====
Код:
Код:
-----------------------

DON'T MODIFY THIS FILE

-----------------------

PERFORMER: auCDtect Task Manager, ver. 1.5.1RC6 build 1.5.1.7
Copyright (c) 2008-2010 y-soft. All rights reserved
http:/y-soft.org

ANALYZER: auCDtect: CD records authenticity detector, version 0.8.2
Copyright (c) 2004 Oleg Berngardt. All rights reserved.
Copyright (c) 2004 Alexander Djourik. All rights reserved.

FILE: 11. Yeah Yeah Yeahs - Turn Into.flac
  Size: 31131727 Hash: 8A19EDF99343AE5B7CAD4B29B2FADEA9 Accuracy: -m0
  Conclusion: CDDA 99%
  Signature: 66554651A254A209E5E1A3DC37184978A4083A5E
FILE: 10. Yeah Yeah Yeahs - Warrior.flac
  Size: 24173100 Hash: F06DF933C77454FEE188FC2BBF618C83 Accuracy: -m0
  Conclusion: CDDA 100%
  Signature: 7FC08F3C7BA3469F8CED8D1B458E503DC45DF6AE
FILE: 09. Yeah Yeah Yeahs - The Sweets.flac
  Size: 26695087 Hash: 1C693F9F85E91AD7DEFC1A6A2BA54B61 Accuracy: -m0
  Conclusion: CDDA 100%
  Signature: E065B1F391911727AB6A2C3B6B9446FDF7B98A62
FILE: 08. Yeah Yeah Yeahs - Mysteries.flac
  Size: 20210263 Hash: E2F073C752300FFDB748C779B78F3998 Accuracy: -m0
  Conclusion: CDDA 100%
  Signature: 2FB1F8E5DC73FE844BA77C82AA49276F42D4EE2B
FILE: 07. Yeah Yeah Yeahs - Dudley.flac
  Size: 28276980 Hash: 17CE9FBA00B3EB5009ADA6A2F68B1E32 Accuracy: -m0
  Conclusion: CDDA 100%
  Signature: 5F5139103E568D45CF895849700E1F1D8EEB3481
FILE: 06. Yeah Yeah Yeahs - Cheated Hearts.flac
  Size: 28053927 Hash: 7B4C3E509889E6A88B41D4A3A858BEE2 Accuracy: -m0
  Conclusion: CDDA 100%
  Signature: 84D050D227A724D059481242EEE442A5D31739D9
FILE: 05. Yeah Yeah Yeahs - Honeybear.flac
  Size: 19449082 Hash: AFAA2CF8DD10950EDA747F82CB085247 Accuracy: -m0
  Conclusion: CDDA 100%
  Signature: 1B33AE1028F9043546C78B57D86A74BB12F22D1B
FILE: 04. Yeah Yeah Yeahs - Phenomena.flac
  Size: 31711779 Hash: AA557AB41C30194A2CB469E78BADAB37 Accuracy: -m0
  Conclusion: CDDA 100%
  Signature: 466C6789D921851511399178DA18A11668E3935B
FILE: 03. Yeah Yeah Yeahs - Fancy.flac
  Size: 32673218 Hash: F2F0E3D8134BBABA73FFCD94F6CE5026 Accuracy: -m0
  Conclusion: CDDA 99%
  Signature: 3242123EBD1F19171455BE7C65866CB048186E92
FILE: 02. Yeah Yeah Yeahs - Way Out.flac
  Size: 23191511 Hash: 7524D25D142614C5A52992558B385B85 Accuracy: -m0
  Conclusion: CDDA 99%
  Signature: 28AE2CEE44785ACDA2B5415C466536E779B9DA59
FILE: 01. Yeah Yeah Yeahs - Gold Lion.flac
  Size: 23647217 Hash: 787DE82BE84828005635270180BD0F15 Accuracy: -m0
  Conclusion: CDDA 100%
  Signature: 0107BF8B7DD5C7EB6AA54E2F4D7AE919A7FD2712
#777Продолжительность: 00:17:35
Тип рипа: tracks+.cue

Трэклист:
01. Rockers to Swallow (3:11)
02. Down Boy (3:54)
03. Kiss, Kiss (2:46)
04. Isis (4:01)
05. 10 x 10 (3:44)
Код:
Код:
EAC extraction logfile from 24. July 2007, 0:55 for CD
Yeah Yeah Yeahs / Is Is EP

Used drive  : PIONEER DVD-RW  DVR-111D   Adapter: 1  ID: 1
Read mode   : Secure with NO C2, accurate stream, disable cache
Read offset correction : 48
Overread into Lead-In and Lead-Out : No

Used output format : C:\Program Files\FLAC\flac.exe   (User Defined Encoder)
                     128 kBit/s
                     Additional command line options : -V -8 -T "artist=%a" -T "title=%t" -T "album=%g" -T "date=%y" -T "tracknumber=%n" -T "genre=%m" %s

Other options      :
    Fill up missing offset samples with silence : Yes
    Delete leading and trailing silent blocks : No
    Native Win32 interface for Win NT & 2000

Track  1
     Filename Z:\My Shared Folder\Upload\Yeah Yeah Yeahs - Is Is EP (2007) [FLAC]\01 - Track01.wav

     Pre-gap length  0:00:02.00

     Peak level 99.8 %
     Track quality 100.0 %
     Test CRC A8C3314F
     Copy CRC A8C3314F
     Copy OK

Track  2
     Filename Z:\My Shared Folder\Upload\Yeah Yeah Yeahs - Is Is EP (2007) [FLAC]\02 - Track02.wav

     Peak level 99.8 %
     Track quality 99.9 %
     Test CRC 53527CA6
     Copy CRC 53527CA6
     Copy OK

Track  3
     Filename Z:\My Shared Folder\Upload\Yeah Yeah Yeahs - Is Is EP (2007) [FLAC]\03 - Track03.wav

     Pre-gap length  0:00:01.35

     Peak level 99.8 %
     Track quality 100.0 %
     Test CRC C97CDF38
     Copy CRC C97CDF38
     Copy OK

Track  4
     Filename Z:\My Shared Folder\Upload\Yeah Yeah Yeahs - Is Is EP (2007) [FLAC]\04 - Track04.wav

     Pre-gap length  0:00:01.27

     Peak level 98.8 %
     Track quality 99.9 %
     Test CRC 54D1151A
     Copy CRC 54D1151A
     Copy OK

Track  5
     Filename Z:\My Shared Folder\Upload\Yeah Yeah Yeahs - Is Is EP (2007) [FLAC]\05 - Track05.wav

     Pre-gap length  0:00:00.47

     Peak level 98.8 %
     Track quality 99.9 %
     Test CRC C85E56F7
     Copy CRC C85E56F7
     Copy OK

No errors occured

End of status report
Код:
Код:
-----------------------

DON'T MODIFY THIS FILE

-----------------------

PERFORMER: auCDtect Task Manager, ver. 1.5.1RC6 build 1.5.1.7
Copyright (c) 2008-2010 y-soft. All rights reserved
http:/y-soft.org

ANALYZER: auCDtect: CD records authenticity detector, version 0.8.2
Copyright (c) 2004 Oleg Berngardt. All rights reserved.
Copyright (c) 2004 Alexander Djourik. All rights reserved.

FILE: 05 - 10 X 10.flac
  Size: 28464265 Hash: 69589EDA7C3B9410AA29ECAD76CBF92F Accuracy: -m0
  Conclusion: CDDA 100%
  Signature: 0DF00AE1206C013C8F051A05132E0D823482A4F5
FILE: 04 - Isis.flac
  Size: 28614302 Hash: 62B9E5B9495276AC92FCB21669A2AE67 Accuracy: -m0
  Conclusion: CDDA 100%
  Signature: 365B723015DC26DA9B0E4F6558DC2E5B8B3DB2F7
FILE: 03 - Kiss Kiss.flac
  Size: 20817220 Hash: B248FEDAC677DF2251C8391C49D4DFE3 Accuracy: -m0
  Conclusion: CDDA 100%
  Signature: A7A2FF1B4C6D77A48ED0F1F77073010D62E69B02
FILE: 02 - Down Boy.flac
  Size: 28239605 Hash: D07D0148BD9F1FACE57D380FB41768ED Accuracy: -m0
  Conclusion: CDDA 100%
  Signature: F986DA453D2E93D0D847F86ADA048F1CF73438B8
FILE: 01 - Rockers To Swallow.flac
  Size: 23198685 Hash: D5458230F35A24B8FF8629307061C2C3 Accuracy: -m0
  Conclusion: CDDA 100%
  Signature: BBB286C455A400B6E42915E4B7D8570EA93FD385
#777Продолжительность: 00:41:47
Тип рипа: image+.cue

Трэклист:
01. Zero (4:25)
02. Heads Will Roll (3:41)
03. Soft Shock (3:53)
04. Skeletons (5:02)
05. Dull Life (4:08)
06. Shame and Fortune (3:31)
07. Runaway (5:13)
08. Dragon Queen (4:02)
09. Hysteric (3:50)
10. Little Shadow (3:57)
Код:
Код:
Exact Audio Copy V0.99 prebeta 5 from 4. May 2009

EAC extraction logfile from 13. November 2010, 21:47

Yeah Yeah Yeahs / It's Blitz!

Used drive  : TEAC    DV-W516GD   Adapter: 1  ID: 0

Read mode               : Secure
Utilize accurate stream : Yes
Defeat audio cache      : Yes
Make use of C2 pointers : No

Read offset correction                      : 6
Overread into Lead-In and Lead-Out          : No
Fill up missing offset samples with silence : Yes
Delete leading and trailing silent blocks   : No
Null samples used in CRC calculations       : Yes
Used interface                              : Installed external ASPI interface

Used output format : Internal WAV Routines
Sample format      : 44.100 Hz; 16 Bit; Stereo

TOC of the extracted CD

     Track |   Start  |  Length  | Start sector | End sector
    ---------------------------------------------------------
        1  |  0:00.00 |  4:25.59 |         0    |    19933
        2  |  4:25.59 |  3:42.09 |     19934    |    36592
        3  |  8:07.68 |  3:53.08 |     36593    |    54075
        4  | 12:01.01 |  5:02.12 |     54076    |    76737
        5  | 17:03.13 |  4:08.29 |     76738    |    95366
        6  | 21:11.42 |  3:31.35 |     95367    |   111226
        7  | 24:43.02 |  5:13.29 |    111227    |   134730
        8  | 29:56.31 |  4:02.06 |    134731    |   152886
        9  | 33:58.37 |  3:52.18 |    152887    |   170304
       10  | 37:50.55 |  3:57.09 |    170305    |   188088
       11  | 44:19.64 |  1:02.01 |    199489    |   204139

Range status and errors

Selected range

     Filename H:\Yeah Yeah Yeahs - It's Blitz!\Yeah Yeah Yeahs - It's Blitz!.wav

     Peak level 97.7 %
     Range quality 100.0 %
     Copy CRC DB370F06
     Copy OK

No errors occurred

AccurateRip summary

Track  1  accurately ripped (confidence 101)  [A6026B1A]
Track  2  accurately ripped (confidence 101)  [34E80EC1]
Track  3  accurately ripped (confidence 100)  [764F6485]
Track  4  accurately ripped (confidence 100)  [23E13682]
Track  5  accurately ripped (confidence 99)  [B6557CE8]
Track  6  accurately ripped (confidence 99)  [6B86E0B8]
Track  7  accurately ripped (confidence 101)  [A319C2F7]
Track  8  accurately ripped (confidence 100)  [E5C73F94]
Track  9  accurately ripped (confidence 99)  [000B96A6]
Track 10  accurately ripped (confidence 99)  [88CAEEED]

All tracks accurately ripped

End of status report
Код:
Код:
-----------------------

DON'T MODIFY THIS FILE

-----------------------

PERFORMER: auCDtect Task Manager, ver. 1.5.1RC6 build 1.5.1.7
Copyright (c) 2008-2010 y-soft. All rights reserved
http:/y-soft.org

ANALYZER: auCDtect: CD records authenticity detector, version 0.8.2
Copyright (c) 2004 Oleg Berngardt. All rights reserved.
Copyright (c) 2004 Alexander Djourik. All rights reserved.

FILE: Yeah Yeah Yeahs - It's Blitz!.flac
  Size: 310146730 Hash: 89BCBC2CE0037B855EDCBBB92CD222A5 Accuracy: -m0
  Conclusion: CDDA 100%
  Signature: 805FEDBF166FBB5BEB37156DF256D2DECB286C45
Правила, инструкции, FAQ!!!
Торрент  Добавлен [16 мар 2014, 00:54] Скачать торрент Магнет ссылка
Скачать торрент
[ Размер 14.93 КБ / Просмотров 100 ]

Статус  
 
Размер  1.08 ГБ
Приватный: Нет (DHT включён)
.torrent скачан  0
 


     Отправить личное сообщение
   
Страница 1 из 1
Показать сообщения за:  Поле сортировки  
Начать новую тему Ответить на тему


Сейчас этот форум просматривают: нет зарегистрированных пользователей и гости: 0


Вы не можете начинать темы
Вы не можете отвечать на сообщения
Вы не можете редактировать свои сообщения
Вы не можете удалять свои сообщения
Вы не можете добавлять вложения

Перейти:  
cron
cron