Начать новую тему Ответить на тему
Статистика раздачи
Размер: 1.15 ГБ | Добавлен: 01 июл 2017, 08:47 | Скачали: 6
Сидеров: 36  [0 байт/сек]    Личеров: 11  [0 байт/сек]
Пред. тема | След. тема 

Автор
Сообщение

СообщениеДобавлено: 01 июл 2017, 08:47 

Ответить с цитатой 

Whitney Houston
I'm Your Baby Tonight

Год издания/переиздания диска: 1990/2014
Жанр: Pop, Dance-pop, R&B
Издатель (лейбл): Arista / Legacy
Продолжительность: 00:53:48
Наличие сканов: Sleeve


01. I'm Your Baby Tonight (5:00)
02. My Name Is Not Susan (4:38)
03. All The Man That I Need (4:11)
04. Lover for Life (4:48)
05. Anymore (4:24)
06. Miracle (5:42)
07. I Belong To You (5:35)
08. Who Do You Love (3:55)
09. We Didn't Know (with Stevie Wonder)) (5:30)
10. After We Make Love (5:07)
11. I'm Knockin' (4:58)


Контейнер: FLAC (*.flac)
Тип рипа: tracks
Разрядность: 24bit / 96kHz
Количество каналов: 2.0

I'm Your Baby Tonight is the third studio album by American pop and R&B recording artist Whitney Houston. It was released by Arista Records on November 6, 1990. Following the run of this album, Houston continued to achieve widespread commercial success throughout the 1990s, venturing heavily into films—while continuing to record via their adjoining soundtrack albums. Subsequently, I'm Your Baby Tonight would not be followed up with another studio album until 1998's My Love Is Your Love.
Personnel:
Whitney Houston – vocals, background vocals, vocal arrangements
Walter Afanasieff – keyboard
Tawatha Agee – background vocals
Gerald Albright – saxophone
Skip Anderson – drums, keyboard
Babyface – bass, keyboard, vocals, background vocals, rhythm
Kitty Beethoven – background vocals
Louis Biancaniello – synthesizer, keyboard
Gary Bias – alto saxophone
Vernon "Ice" Black – guitar
Kimberly Brewer – background vocals
Ray Brown – trumpet
Chris Camozzi – guitar
Francisco Centeno – bass
Paulinho Da Costa – percussion
Hubert Eaves III – synthesizer, drums, keyboard
Stephen A. Ferrone – drums
Lynn Fiddmont – background vocals
Kenny G – saxophone
Jerry Hey – strings
Dorian Holley – background vocals
Cissy Houston – background vocals
Paul Jackson Jr. – guitar
Skyler Jett – background vocals
Keith John – background vocals
Melisa Kary – background vocals
Kayo – bass
Randy Kerber – strings, keyboard
Ren Klyce – synthesizer
Robbie Kondor – strings, keyboard, rhythm
Neil Larsen – Hammond organ
Ricky Lawson – synthesizer, percussion, drums
Wayne Linsey – piano
Frank Martin – piano, keyboard, vibraphone
Paulette McWilliams – background vocals
Jason Miles – synthesizer
Ricky Minor – synthesizer, bass, horn, background vocals, rhythm, synthesizer bass
Billy Myers – horn
Rafael Padilla – percussion
Donald Parks – synthesizer, keyboard
L.A. Reid – percussion, drums, vocals, rhythm
Claytoven Richardson – background vocals
Tom Scott – saxophone
Michael "Patches" Stewart – trumpet
Annie Stocking – background vocals
Steve Tavaglione – horn, tenor saxophone
Jeanie Tracy – background vocals
Luther Vandross – vocals
Narada Michael Walden – bass, drums
David Ward II – synthesizer
Bill Washer – guitar
Kirk Whalum – saxophone, tenor saxophone
Brenda White-King – background vocals
BeBe Winans – background vocals
CeCe Winans – background vocals
Stevie Wonder – vocals, multiple instruments, performer
Reggie C. Young – trombone
Digitally remastered
Код:
foobar2000 1.2.2 / Dynamic Range Meter 1.1.1
log date: 2015-04-16 03:48:37
--------------------------------------------------------------------------------
Analyzed: Whitney Houston, Stevie Wonder / I'm Your Baby Tonight (1)
          Whitney Houston / I'm Your Baby Tonight (2-11)
--------------------------------------------------------------------------------
DR         Peak         RMS     Duration Track
--------------------------------------------------------------------------------
DR12      -0.50 dB   -14.04 dB      5:30 ?-We Didn't Know (with Stevie Wonder))
DR12      -0.50 dB   -13.63 dB      5:00 ?-I'm Your Baby Tonight
DR11      -0.50 dB   -13.11 dB      4:38 ?-My Name Is Not Susan
DR10      -0.50 dB   -13.15 dB      4:11 ?-All The Man That I Need
DR11      -0.50 dB   -13.55 dB      4:48 ?-Lover for Life
DR11      -0.50 dB   -12.71 dB      4:24 ?-Anymore
DR11      -0.50 dB   -14.27 dB      5:42 ?-Miracle
DR11      -0.50 dB   -13.12 dB      5:35 ?-I Belong To You
DR11      -0.50 dB   -13.10 dB      3:55 ?-Who Do You Love
DR10      -0.64 dB   -13.34 dB      5:07 ?-After We Make Love
DR12      -0.50 dB   -14.73 dB      4:58 ?-I'm Knockin'
--------------------------------------------------------------------------------
Number of tracks:  11
Official DR value: DR11
Samplerate:        96000 Hz
Channels:          2
Bits per sample:   24
Bitrate:           2917 kbps
Codec:             FLAC
================================================================================
При скачивании, если необходимо, переименуйте папку, в которой будет находиться альбом
Большая просьба к скачавшим поддерживать раздачу! Помогайте другим, ведь вам тоже может понадобиться помощь!
Не забываем говорить "Спасибо"!
Комментарии приветствуются!
[/spoiler]
Правила, инструкции, FAQ!!!
Торрент  Добавлен [01 июл 2017, 08:47] Скачать торрент Магнет ссылка
Скачать торрент
[ Размер 12.75 КБ / Просмотров 140 ]

Статус
Проверен 
 
Размер  1.15 ГБ
Приватный: Нет (DHT включён)
.torrent скачан  6
 


     Отправить личное сообщение
   
Страница 1 из 1
Показать сообщения за:  Поле сортировки  
Начать новую тему Ответить на тему


Сейчас этот форум просматривают: нет зарегистрированных пользователей и гости: 0


Вы не можете начинать темы
Вы не можете отвечать на сообщения
Вы не можете редактировать свои сообщения
Вы не можете удалять свои сообщения
Вы не можете добавлять вложения

Перейти:  
cron
cron