Начать новую тему Ответить на тему
Статистика раздачи
Размер: 263 МБ | Добавлен: 16 мар 2014, 00:49 | Скачали: 1
Сидеров: 0  [0 байт/сек]    Личеров: 2  [0 байт/сек]
Пред. тема | След. тема 

Автор
Сообщение

СообщениеДобавлено: 16 мар 2014, 00:49 

Ответить с цитатой 

We As Human
- We As Human


Год выпуска: 2013
Жанр: Alt.Rock | Alt.Metal | Modern Rock | Christian
Продолжительность: 00:34:51
Тип издания: Альбом
Страна: США



Треклист:

01. Strike Back
02. Dead Man
03. Bring to Life
04. Let Me Drown
05. Zombie
06. We Fall Apart
07. Take the Bullets Away
08. Taking Life
09. Sever
10. I Stand


Код:
Код:
Exact Audio Copy V1.0 beta 3 from 29. August 2011

EAC extraction logfile from 2. July 2013, 7:44

We As Human / We As Human

Used drive  : TSSTcorpCDDVDW TS-L633F   Adapter: 0  ID: 1

Read mode               : Secure
Utilize accurate stream : Yes
Defeat audio cache      : Yes
Make use of C2 pointers : No

Read offset correction                      : 6
Overread into Lead-In and Lead-Out          : No
Fill up missing offset samples with silence : Yes
Delete leading and trailing silent blocks   : No
Null samples used in CRC calculations       : Yes
Used interface                              : Native Win32 interface for Win NT & 2000
Gap handling                                : Appended to previous track

Used output format              : User Defined Encoder
Selected bitrate                : 1024 kBit/s
Quality                         : High
Add ID3 tag                     : No
Command line compressor         : C:\Program Files (x86)\FLAC\flac.exe
Additional command line options : -8 -V -T "ARTIST=%artist%" -T "TITLE=%title%" -T "ALBUM=%albumtitle%" -T "DATE=%year%" -T "TRACKNUMBER=%tracknr%" -T "GENRE=%genre%" -T "PERFORMER=%albuminterpret%" -T "COMPOSER=%composer%" %haslyrics%--tag-from-file=LYRICS="%lyricsfile%"%haslyrics% -T "ALBUMARTIST=%albumartist%" -T "DISCNUMBER=%cdnumber%" -T "TOTALDISCS=%totalcds%" -T "TOTALTRACKS=%numtracks%" -T "COMMENT=%comment%" %source% -o %dest%

TOC of the extracted CD

     Track |   Start  |  Length  | Start sector | End sector
    ---------------------------------------------------------
        1  |  0:00.00 |  3:14.73 |         0    |    14622
        2  |  3:14.73 |  3:05.21 |     14623    |    28518
        3  |  6:20.19 |  3:37.12 |     28519    |    44805
        4  |  9:57.31 |  3:52.37 |     44806    |    62242
        5  | 13:49.68 |  3:27.43 |     62243    |    77810
        6  | 17:17.36 |  3:49.53 |     77811    |    95038
        7  | 21:07.14 |  3:31.14 |     95039    |   110877
        8  | 24:38.28 |  3:16.20 |    110878    |   125597
        9  | 27:54.48 |  3:40.46 |    125598    |   142143
       10  | 31:35.19 |  3:16.43 |    142144    |   156886

Track  1

     Filename C:\EAC Rips\We As Human (2013) [FLAC]\01 - Strike Back.wav

     Pre-gap length  0:00:02.00

     Peak level 100.0 %
     Extraction speed 1.7 X
     Track quality 100.0 %
     Test CRC B2D134EB
     Copy CRC B2D134EB
     Track not present in AccurateRip database
     Copy OK

Track  2

     Filename C:\EAC Rips\We As Human (2013) [FLAC]\02 - Dead Man.wav

     Peak level 100.0 %
     Extraction speed 1.3 X
     Track quality 99.9 %
     Test CRC 6FFDF2C1
     Copy CRC 6FFDF2C1
     Track not present in AccurateRip database
     Copy OK

Track  3

     Filename C:\EAC Rips\We As Human (2013) [FLAC]\03 - Bring to Life.wav

     Peak level 100.0 %
     Extraction speed 2.0 X
     Track quality 100.0 %
     Test CRC 77F5336F
     Copy CRC 77F5336F
     Track not present in AccurateRip database
     Copy OK

Track  4

     Filename C:\EAC Rips\We As Human (2013) [FLAC]\04 - Let Me Drown.wav

     Peak level 100.0 %
     Extraction speed 2.1 X
     Track quality 100.0 %
     Test CRC E6F5777E
     Copy CRC E6F5777E
     Track not present in AccurateRip database
     Copy OK

Track  5

     Filename C:\EAC Rips\We As Human (2013) [FLAC]\05 - Zombie.wav

     Peak level 100.0 %
     Extraction speed 2.2 X
     Track quality 100.0 %
     Test CRC 25F9968E
     Copy CRC 25F9968E
     Track not present in AccurateRip database
     Copy OK

Track  6

     Filename C:\EAC Rips\We As Human (2013) [FLAC]\06 - We Fall Apart.wav

     Peak level 100.0 %
     Extraction speed 1.7 X
     Track quality 99.9 %
     Test CRC 29CE90FE
     Copy CRC 29CE90FE
     Track not present in AccurateRip database
     Copy OK

Track  7

     Filename C:\EAC Rips\We As Human (2013) [FLAC]\07 - Take the Bullets Away.wav

     Peak level 100.0 %
     Extraction speed 2.5 X
     Track quality 100.0 %
     Test CRC 95CAC700
     Copy CRC 95CAC700
     Track not present in AccurateRip database
     Copy OK

Track  8

     Filename C:\EAC Rips\We As Human (2013) [FLAC]\08 - Taking Life.wav

     Peak level 100.0 %
     Extraction speed 2.6 X
     Track quality 100.0 %
     Test CRC 7CACB926
     Copy CRC 7CACB926
     Track not present in AccurateRip database
     Copy OK

Track  9

     Filename C:\EAC Rips\We As Human (2013) [FLAC]\09 - Sever.wav

     Peak level 100.0 %
     Extraction speed 2.7 X
     Track quality 100.0 %
     Test CRC 0A433FD8
     Copy CRC 0A433FD8
     Track not present in AccurateRip database
     Copy OK

Track 10

     Filename C:\EAC Rips\We As Human (2013) [FLAC]\10 - I Stand.wav

     Peak level 100.0 %
     Extraction speed 1.9 X
     Track quality 99.9 %
     Test CRC D492F654
     Copy CRC D492F654
     Track not present in AccurateRip database
     Copy OK

None of the tracks are present in the AccurateRip database

No errors occurred

End of status report

---- CUETools DB Plugin V2.1.3

[CTDB TOCID: zzNyLlVb30aRHATm2FF7pQMMn8g-] database access error: The remote name could not be resolved: 'db.cuetools.net'

==== Log checksum 19610FE20F1807F9A3DE9E98AEC4069D0C034CE794D752A92C176BA5246F1B49 ====


Код:
Код:
-----------------------

DON'T MODIFY THIS FILE

-----------------------

PERFORMER: auCDtect Task Manager, ver. 1.5.1RC6 build 1.5.1.7
Copyright (c) 2008-2010 y-soft. All rights reserved
http:/y-soft.org

ANALYZER: auCDtect: CD records authenticity detector, version 0.8.2
Copyright (c) 2004 Oleg Berngardt. All rights reserved.
Copyright (c) 2004 Alexander Djourik. All rights reserved.

FILE: 10. We As Human - I Stand.flac
  Size: 26627829 Hash: 53DE6AAC53A4FF442613762643345534 Accuracy: -m0
  Conclusion: CDDA 100%
  Signature: A4DD214FC5E5210922F66F6C1C48F53C112271E9
FILE: 09. We As Human - Sever.flac
  Size: 29199793 Hash: 188BCFD036242599F7051498D59F41A9 Accuracy: -m0
  Conclusion: CDDA 100%
  Signature: 10DA235FD59229B506B77988A4D78BD0BF3BA008
FILE: 08. We As Human - Taking Life.flac
  Size: 26009965 Hash: 482F8C66F4141E94ADA1755953E3DD8D Accuracy: -m0
  Conclusion: CDDA 100%
  Signature: B7046CFCD0BB1CBA040624DDC361F94239A6A03E
FILE: 07. We As Human - Take the Bullets Away.flac
  Size: 26238564 Hash: B76177555FB45FC563973885B3B72635 Accuracy: -m0
  Conclusion: CDDA 100%
  Signature: 5A9C8ED2DDE866CBA98302DED4E99E9EF632862C
FILE: 06. We As Human - We Fall Apart.flac
  Size: 27897624 Hash: 8522BAE6211562B3E594EE26BCC30BD4 Accuracy: -m0
  Conclusion: CDDA 100%
  Signature: 760D81F5D0E8B4279D88127D697FBCFE2AED455D
FILE: 05. We As Human - Zombie.flac
  Size: 27863270 Hash: 88F8715B9A91CBF906092D633AD209A1 Accuracy: -m0
  Conclusion: CDDA 100%
  Signature: 53CC3B9F1A20A1A33B4CC3AA73F969F714A7705A
FILE: 04. We As Human - Let Me Drown.flac
  Size: 29596245 Hash: 31A39A0672327B1BFE7E57517B51C734 Accuracy: -m0
  Conclusion: CDDA 100%
  Signature: C151598DF01B6428D2273367C36F4AE4ABE7810C
FILE: 03. We As Human - Bring to Life.flac
  Size: 28973722 Hash: 0331FD7F439E08E757FD403982A535AC Accuracy: -m0
  Conclusion: CDDA 100%
  Signature: A16CF260D99EFE5EB96A01466C8B7E6871507C6A
FILE: 02. We As Human - Dead Man.flac
  Size: 25754966 Hash: D0460BA78EB2806EC7B48B7D065E953D Accuracy: -m0
  Conclusion: CDDA 100%
  Signature: 2F8BA4CC1F45B2E80510FDBC627E96897E6F5714
FILE: 01. We As Human - Strike Back.flac
  Size: 27142383 Hash: E94DFA0D47CD4E74A2D40CE706DD2667 Accuracy: -m0
  Conclusion: CDDA 100%
  Signature: F83A2DFAB2A85E5E82208EE26923F07EE4A279A8


Тип рипа: Tracks+.cue
Аудиокодек: FLAC
Битрейт аудио: lossless
Правила, инструкции, FAQ!!!
Торрент  Добавлен [16 мар 2014, 00:49] Скачать торрент Магнет ссылка
Скачать торрент
[ Размер 11.85 КБ / Просмотров 38 ]

Статус  
 
Размер  263 МБ
Приватный: Нет (DHT включён)
.torrent скачан  1
 


     Отправить личное сообщение
   
Страница 1 из 1
Показать сообщения за:  Поле сортировки  
Начать новую тему Ответить на тему


Сейчас этот форум просматривают: нет зарегистрированных пользователей и гости: 0


Вы не можете начинать темы
Вы не можете отвечать на сообщения
Вы не можете редактировать свои сообщения
Вы не можете удалять свои сообщения
Вы не можете добавлять вложения

Перейти:  
cron