Начать новую тему Ответить на тему
Статистика раздачи
Размер: 199.13 МБ | Добавлен: 16 мар 2014, 00:15 | Скачали: 0
Сидеров: 1  [0 байт/сек]    Личеров: 0  [0 байт/сек]
Пред. тема | След. тема 

Автор
Сообщение

СообщениеДобавлено: 16 мар 2014, 00:15 

Ответить с цитатой 

Warren Zevon - Excitable Boy (1978)

Год: 1978/2013
Издание: Audio Fidelity
Каталог№: AFZ 166
Жанр: Rock
Источник(Релизёр): flac jacket
Сканы: Есть
Продолжительность: 00:32:12

Кодек: FLAC
Тип рипа: Traks+.cue
Метод сжатия: Lossless
Official DR value: DR12
Треклист:
01. Johnny Strikes Up the Band (2:54)
02. Roland the Headless Thompson Gunner (3:49)
03. Excitable Boy (2:43)
04. Werewolves of London (3:31)
05. Accidentally Like a Martyr (3:45)
06. Nighttime in the Switching Yard (4:18)
07. Veracruz (3:34)
08. Tenderness On the Block (4:06)
09. Lawyers, Guns and Money (3:32)

Уоррен Зивон - лаурет премии Грэмми, американский композитор, певец и музыкант. Список музыкантов, игравших в его альбомах, можно перепутать с алфавитным указателем справочника «Кто есть кто в современной рок-музыке»: Боб Дилан, Дэвид Гилмор, Брюс Спрингстин, Том Петти сотоварищи, Грэм Нэш и Нил Янг, группа R.E.M. в полном составе…
Warren Zevon – organ, synthesizer, bass, guitar, piano, keyboards, Vocals
Jorge Calderón – vocals, harmony vocals, Spanish vocals on "Veracruz"
Danny "Kootch" Kortchmar - guitar, percussion
Russ Kunkel – drums
Код:
Код:
REM GENRE Rock
REM DATE 2013
REM DISCID 6C078C09
REM COMMENT ExactAudioCopy v1.0b3
PERFORMER "Warren Zevon"
TITLE "Excitable Boy"
FILE "01 Johnny Strikes Up The Band.flac" WAVE
  TRACK 01 AUDIO
    TITLE "Johnny Strikes Up the Band"
    PERFORMER "Warren Zevon"
    INDEX 01 00:00:00
FILE "02 Roland The Headless Thompson Gunner.flac" WAVE
  TRACK 02 AUDIO
    TITLE "Roland the Headless Thompson Gunner"
    PERFORMER "Warren Zevon"
    INDEX 01 00:00:00
FILE "03 Excitable Boy.flac" WAVE
  TRACK 03 AUDIO
    TITLE "Excitable Boy"
    PERFORMER "Warren Zevon"
    INDEX 01 00:00:00
FILE "04 Werewolves Of London.flac" WAVE
  TRACK 04 AUDIO
    TITLE "Werewolves of London"
    PERFORMER "Warren Zevon"
    INDEX 01 00:00:00
FILE "05 Accidentally Like A Martyr.flac" WAVE
  TRACK 05 AUDIO
    TITLE "Accidentally Like a Martyr"
    PERFORMER "Warren Zevon"
    INDEX 01 00:00:00
FILE "06 Nighttime In The Switching Yard.flac" WAVE
  TRACK 06 AUDIO
    TITLE "Nighttime in the Switching Yard"
    PERFORMER "Warren Zevon"
    INDEX 01 00:00:00
FILE "07 Veracruz.flac" WAVE
  TRACK 07 AUDIO
    TITLE "Veracruz"
    PERFORMER "Warren Zevon"
    INDEX 01 00:00:00
FILE "08 Tenderness On The Block.flac" WAVE
  TRACK 08 AUDIO
    TITLE "Tenderness On the Block"
    PERFORMER "Warren Zevon"
    INDEX 01 00:00:00
FILE "09 Lawyers, Guns And Money.flac" WAVE
  TRACK 09 AUDIO
    TITLE "Lawyers, Guns and Money"
    PERFORMER "Warren Zevon"
    INDEX 01 00:00:00

Код:
Код:
Exact Audio Copy V1.0 beta 3 from 29. August 2011

EAC extraction logfile from 6. December 2013, 15:42

Warren Zevon / Excitable Boy

Used drive  : TSSTcorpCDDVDW SH-S203N   Adapter: 0  ID: 0

Read mode               : Secure
Utilize accurate stream : Yes
Defeat audio cache      : Yes
Make use of C2 pointers : No

Read offset correction                      : 6
Overread into Lead-In and Lead-Out          : No
Fill up missing offset samples with silence : Yes
Delete leading and trailing silent blocks   : No
Null samples used in CRC calculations       : Yes
Used interface                              : Native Win32 interface for Win NT & 2000
Gap handling                                : Appended to previous track

Used output format              : User Defined Encoder
Selected bitrate                : 1024 kBit/s
Quality                         : High
Add ID3 tag                     : No
Command line compressor         : C:\Program Files\Exact Audio Copy\FLAC\FLAC.EXE
Additional command line options : -8 -V -T "ARTIST=%artist%" -T "TITLE=%title%" -T "ALBUM=%albumtitle%" -T "DATE=%year%" -T "TRACKNUMBER=%tracknr1%" -T "GENRE=%genre%" -T "PERFORMER=%albuminterpret%" -T "COMPOSER=%composer%" %haslyrics%--tag-from-file=LYRICS="%lyricsfile%"%haslyrics% -T "ALBUMARTIST=%albumartist%" -T "DISCNUMBER=%cdnumber%" -T "TOTALDISCS=%totalcds%" -T "TOTALTRACKS=%numtracks%" -T "COMMENT=%comment%" %source% -o %dest%

TOC of the extracted CD

     Track |   Start  |  Length  | Start sector | End sector
    ---------------------------------------------------------
        1  |  0:00.00 |  2:53.54 |         0    |    13028
        2  |  2:53.54 |  3:48.58 |     13029    |    30186
        3  |  6:42.37 |  2:43.18 |     30187    |    42429
        4  |  9:25.55 |  3:30.67 |     42430    |    58246
        5  | 12:56.47 |  3:45.17 |     58247    |    75138
        6  | 16:41.64 |  4:18.33 |     75139    |    94521
        7  | 21:00.22 |  3:33.71 |     94522    |   110567
        8  | 24:34.18 |  4:06.10 |    110568    |   129027
        9  | 28:40.28 |  3:31.73 |    129028    |   144925

Track  1

     Filename D:\Uploads\Warren Zevon - Excitable Boy (2013) [FLAC] {AFZ 166}\01 Johnny Strikes Up The Band.wav

     Pre-gap length  0:00:02.00

     Peak level 83.8 %
     Extraction speed 1.8 X
     Track quality 100.0 %
     Test CRC 7C63A9A6
     Copy CRC 7C63A9A6
     Track not present in AccurateRip database
     Copy OK

Track  2

     Filename D:\Uploads\Warren Zevon - Excitable Boy (2013) [FLAC] {AFZ 166}\02 Roland The Headless Thompson Gunner.wav

     Peak level 85.7 %
     Extraction speed 2.0 X
     Track quality 100.0 %
     Test CRC 39C7479B
     Copy CRC 39C7479B
     Track not present in AccurateRip database
     Copy OK

Track  3

     Filename D:\Uploads\Warren Zevon - Excitable Boy (2013) [FLAC] {AFZ 166}\03 Excitable Boy.wav

     Peak level 81.2 %
     Extraction speed 2.1 X
     Track quality 100.0 %
     Test CRC B760EDE1
     Copy CRC B760EDE1
     Track not present in AccurateRip database
     Copy OK

Track  4

     Filename D:\Uploads\Warren Zevon - Excitable Boy (2013) [FLAC] {AFZ 166}\04 Werewolves Of London.wav

     Peak level 85.1 %
     Extraction speed 2.3 X
     Track quality 100.0 %
     Test CRC ACE08317
     Copy CRC ACE08317
     Track not present in AccurateRip database
     Copy OK

Track  5

     Filename D:\Uploads\Warren Zevon - Excitable Boy (2013) [FLAC] {AFZ 166}\05 Accidentally Like A Martyr.wav

     Peak level 85.3 %
     Extraction speed 2.4 X
     Track quality 100.0 %
     Test CRC 3EEF34A3
     Copy CRC 3EEF34A3
     Track not present in AccurateRip database
     Copy OK

Track  6

     Filename D:\Uploads\Warren Zevon - Excitable Boy (2013) [FLAC] {AFZ 166}\06 Nighttime In The Switching Yard.wav

     Peak level 87.3 %
     Extraction speed 2.7 X
     Track quality 100.0 %
     Test CRC 925E96BB
     Copy CRC 925E96BB
     Track not present in AccurateRip database
     Copy OK

Track  7

     Filename D:\Uploads\Warren Zevon - Excitable Boy (2013) [FLAC] {AFZ 166}\07 Veracruz.wav

     Peak level 86.8 %
     Extraction speed 2.7 X
     Track quality 100.0 %
     Test CRC 89DE0316
     Copy CRC 89DE0316
     Track not present in AccurateRip database
     Copy OK

Track  8

     Filename D:\Uploads\Warren Zevon - Excitable Boy (2013) [FLAC] {AFZ 166}\08 Tenderness On The Block.wav

     Peak level 97.7 %
     Extraction speed 2.9 X
     Track quality 100.0 %
     Test CRC F9C3185F
     Copy CRC F9C3185F
     Track not present in AccurateRip database
     Copy OK

Track  9

     Filename D:\Uploads\Warren Zevon - Excitable Boy (2013) [FLAC] {AFZ 166}\09 Lawyers, Guns And Money.wav

     Peak level 90.3 %
     Extraction speed 3.0 X
     Track quality 100.0 %
     Test CRC 4211EBBE
     Copy CRC 4211EBBE
     Track not present in AccurateRip database
     Copy OK

None of the tracks are present in the AccurateRip database

No errors occurred

End of status report

---- CUETools DB Plugin V2.1.3

[CTDB TOCID: j3gvJbNZei3adyV0ZepqDxHaydA-] disk not present in database, Submit result: j3gvJbNZei3adyV0ZepqDxHaydA- has been uploaded

==== Log checksum 70354D0F0FF137774CBBC6E21F7D2EA033A09A1B30B21EED5E20CDF51EBED5DA ====

Код:
Код:
-----------------------

DON'T MODIFY THIS FILE

-----------------------

PERFORMER: auCDtect Task Manager, ver. 1.6.0 RC1 build 1.6.0.1
Copyright (c) 2008-2010 y-soft. All rights reserved
http:/y-soft.org

ANALYZER: auCDtect: CD records authenticity detector, version 0.8.2
Copyright (c) 2004 Oleg Berngardt. All rights reserved.
Copyright (c) 2004 Alexander Djourik. All rights reserved.

FILE: 09 Lawyers, Guns And Money.flac
  Size: 20647280 Hash: 370FC0EFC3E3DCB883873BC01E09D6B0 Accuracy: -m0
  Conclusion: CDDA 100%
  Signature: 8E4DA13509319B7F9359FE5F53051CC59CF5F956
FILE: 08 Tenderness On The Block.flac
  Size: 25402552 Hash: 047C43924CA0F3CDFA836DBF760613B8 Accuracy: -m0
  Conclusion: CDDA 100%
  Signature: EB0A6897B6F06FF81C6DB236F47F42D751702F5B
FILE: 07 Veracruz.flac
  Size: 18128113 Hash: 2FD1D867D17F8E5E6FC7255A7CCA2F73 Accuracy: -m0
  Conclusion: CDDA 100%
  Signature: D4E368D6BF5B21465F2FF18F83B72922291E5B3D
FILE: 06 Nighttime In The Switching Yard.flac
  Size: 27412913 Hash: E20E0D2CDE9A060CB7861D4CDC10AD68 Accuracy: -m0
  Conclusion: CDDA 100%
  Signature: 30D7CE9458FA6A806ABBFA36FC0AC4E5F4F9E9BA
FILE: 05 Accidentally Like A Martyr.flac
  Size: 20192357 Hash: 225C1CFD73727880B34EF7288DE6ECE7 Accuracy: -m0
  Conclusion: CDDA 100%
  Signature: C925410F088F1BD88944F44A84FE6501C2DD6C56
FILE: 04 Werewolves Of London.flac
  Size: 21879274 Hash: FD72329E53127FCE638E5BF6D61A245B Accuracy: -m0
  Conclusion: CDDA 100%
  Signature: 5E2107C9BD5A171C22E8205B931CE7A399F4C4E5
FILE: 03 Excitable Boy.flac
  Size: 16986137 Hash: 355C20EEDB37D370CB50ADA5E8D61B87 Accuracy: -m0
  Conclusion: CDDA 100%
  Signature: 49A51BE4D9E2DE688E6CA8A747742581B7D97EC5
FILE: 02 Roland The Headless Thompson Gunner.flac
  Size: 20774285 Hash: 03D770DABEA6AE32726D0F7E6E414E60 Accuracy: -m0
  Conclusion: CDDA 100%
  Signature: D7E9A7A29A0514905DD84E53D4FB8F1FED8703D1
FILE: 01 Johnny Strikes Up The Band.flac
  Size: 17430071 Hash: 14A7AF38C2E25C9B438693D49AAE7FE2 Accuracy: -m0
  Conclusion: CDDA 100%
  Signature: 445E0015E7191F75E03B3DF066B5AE8B7EDE0C4F

Правила, инструкции, FAQ!!!
Торрент  Добавлен [16 мар 2014, 00:15] Скачать торрент Магнет ссылка
Скачать торрент
[ Размер 17.62 КБ / Просмотров 49 ]

Статус  
 
Размер  199.13 МБ
Приватный: Нет (DHT включён)
.torrent скачан  0
 


     Отправить личное сообщение
   
Страница 1 из 1
Показать сообщения за:  Поле сортировки  
Начать новую тему Ответить на тему


Сейчас этот форум просматривают: нет зарегистрированных пользователей и гости: 0


Вы не можете начинать темы
Вы не можете отвечать на сообщения
Вы не можете редактировать свои сообщения
Вы не можете удалять свои сообщения
Вы не можете добавлять вложения

Перейти:  
cron
cron