Начать новую тему Ответить на тему
Статистика раздачи
Размер: 296.19 МБ | Добавлен: 16 мар 2014, 00:40 | Скачали: 3
Сидеров: 2  [0 байт/сек]    Личеров: 1  [0 байт/сек]
Пред. тема | След. тема 

Автор
Сообщение

СообщениеДобавлено: 16 мар 2014, 00:40 

Ответить с цитатой 

Warpaint - The Fool (2010)



Год: 2010
Жанр: Shoegaze, Art Rock, Indie Rock
Лейбл: Rough Trade
Каталог#: RTRADCD580
Продолжительность: 00:47:17

Кодек: FLAC
Битрейт: Lossless
Тип рипа: tracks+.cue

Треклист:

01. Set Your Arms Down (05:05)
02. Warpaint (05:54)
03. Undertow (05:53)
04. Bees (04:25)
05. Shadows (04:08)
06. Composure (04:58)
07. Baby (05:03)
08. Majesty (06:35)
09. Lissie's Heart Murmur (05:12)


Код:
Код:
X Lossless Decoder version 20101010 (123.3)

XLD extraction logfile from 2010-10-15 19:27:07 -0300

Warpaint / The Fool

Used drive : HL-DT-ST DVDRW  GSA-S10N (revision BP10)

Use cdparanoia mode     : YES (CDParanoia III 10.2 engine)
Disable audio cache     : OK for the drive with cache less than 2750KB
Make use of C2 pointers : NO
Read offset correction  : 667
Max retry count         : 100
Gap status              : Analyzed, Appended

TOC of the extracted CD
     Track |   Start  |  Length  | Start sector | End sector
    ---------------------------------------------------------
        1  | 00:00:00 | 05:05:25 |         0    |    22899
        2  | 05:05:25 | 05:54:62 |     22900    |    49511
        3  | 11:00:12 | 05:53:17 |     49512    |    76003
        4  | 16:53:29 | 04:25:17 |     76004    |    95895
        5  | 21:18:46 | 04:08:48 |     95896    |   114543
        6  | 25:27:19 | 04:58:20 |    114544    |   136913
        7  | 30:25:39 | 05:03:48 |    136914    |   159686
        8  | 35:29:12 | 06:35:61 |    159687    |   189372
        9  | 42:04:73 | 05:12:27 |    189373    |   212799

Track 01
    Filename : /Ripped/01 - Set Your Arms Down.flac
               /Ripped/01 - Set Your Arms Down.mp3
    Pre-gap length : 00:02:00

    CRC32 hash (test run)  : 73FD1D89
    CRC32 hash             : 73FD1D89
    CRC32 hash (skip zero) : 083E0552
    AccurateRip signature  : 9B9511A0
        ->Track not present in AccurateRip database.
    Statistics
        Read error                           : 0
        Skipped (treated as error)           : 0
        Edge jitter error (maybe fixed)      : 0
        Atom jitter error (maybe fixed)      : 12
        Drift error (maybe fixed)            : 0
        Dropped bytes error (maybe fixed)    : 0
        Duplicated bytes error (maybe fixed) : 0
        Inconsistency in error sectors       : 0

Track 02
    Filename : /Ripped/02 - Warpaint.flac
               /Ripped/02 - Warpaint.mp3

    CRC32 hash (test run)  : 5CA8FB34
    CRC32 hash             : 5CA8FB34
    CRC32 hash (skip zero) : 468DA3E2
    AccurateRip signature  : 335502BB
        ->Track not present in AccurateRip database.
    Statistics
        Read error                           : 0
        Skipped (treated as error)           : 0
        Edge jitter error (maybe fixed)      : 0
        Atom jitter error (maybe fixed)      : 0
        Drift error (maybe fixed)            : 0
        Dropped bytes error (maybe fixed)    : 0
        Duplicated bytes error (maybe fixed) : 0
        Inconsistency in error sectors       : 0

Track 03
    Filename : /Ripped/03 - Undertow.flac
               /Ripped/03 - Undertow.mp3

    CRC32 hash (test run)  : D3960B97
    CRC32 hash             : D3960B97
    CRC32 hash (skip zero) : A6D55F81
    AccurateRip signature  : F5B71555
        ->Track not present in AccurateRip database.
    Statistics
        Read error                           : 0
        Skipped (treated as error)           : 0
        Edge jitter error (maybe fixed)      : 0
        Atom jitter error (maybe fixed)      : 0
        Drift error (maybe fixed)            : 0
        Dropped bytes error (maybe fixed)    : 0
        Duplicated bytes error (maybe fixed) : 0
        Inconsistency in error sectors       : 0

Track 04
    Filename : /Ripped/04 - Bees.flac
               /Ripped/04 - Bees.mp3

    CRC32 hash (test run)  : 749D58A8
    CRC32 hash             : 749D58A8
    CRC32 hash (skip zero) : 062C8E37
    AccurateRip signature  : 90BAE7C4
        ->Track not present in AccurateRip database.
    Statistics
        Read error                           : 0
        Skipped (treated as error)           : 0
        Edge jitter error (maybe fixed)      : 0
        Atom jitter error (maybe fixed)      : 0
        Drift error (maybe fixed)            : 0
        Dropped bytes error (maybe fixed)    : 0
        Duplicated bytes error (maybe fixed) : 0
        Inconsistency in error sectors       : 0

Track 05
    Filename : /Ripped/05 - Shadows.flac
               /Ripped/05 - Shadows.mp3

    CRC32 hash (test run)  : F9C93A61
    CRC32 hash             : F9C93A61
    CRC32 hash (skip zero) : C69E8229
    AccurateRip signature  : A44783D9
        ->Track not present in AccurateRip database.
    Statistics
        Read error                           : 0
        Skipped (treated as error)           : 0
        Edge jitter error (maybe fixed)      : 0
        Atom jitter error (maybe fixed)      : 0
        Drift error (maybe fixed)            : 0
        Dropped bytes error (maybe fixed)    : 0
        Duplicated bytes error (maybe fixed) : 0
        Inconsistency in error sectors       : 0

Track 06
    Filename : /Ripped/06 - Composure.flac
               /Ripped/06 - Composure.mp3

    CRC32 hash (test run)  : 0BF543E5
    CRC32 hash             : 0BF543E5
    CRC32 hash (skip zero) : 7C984A1F
    AccurateRip signature  : EE1566A2
        ->Track not present in AccurateRip database.
    Statistics
        Read error                           : 0
        Skipped (treated as error)           : 0
        Edge jitter error (maybe fixed)      : 0
        Atom jitter error (maybe fixed)      : 0
        Drift error (maybe fixed)            : 0
        Dropped bytes error (maybe fixed)    : 0
        Duplicated bytes error (maybe fixed) : 0
        Inconsistency in error sectors       : 0

Track 07
    Filename : /Ripped/07 - Baby.flac
               /Ripped/07 - Baby.mp3

    CRC32 hash (test run)  : F1D10798
    CRC32 hash             : F1D10798
    CRC32 hash (skip zero) : C44B5090
    AccurateRip signature  : 344D238B
        ->Track not present in AccurateRip database.
    Statistics
        Read error                           : 0
        Skipped (treated as error)           : 0
        Edge jitter error (maybe fixed)      : 0
        Atom jitter error (maybe fixed)      : 0
        Drift error (maybe fixed)            : 0
        Dropped bytes error (maybe fixed)    : 0
        Duplicated bytes error (maybe fixed) : 0
        Inconsistency in error sectors       : 0

Track 08
    Filename : /Ripped/08 - Majesty.flac
               /Ripped/08 - Majesty.mp3

    CRC32 hash (test run)  : 40453A00
    CRC32 hash             : 40453A00
    CRC32 hash (skip zero) : BDAD078E
    AccurateRip signature  : DEDC3698
        ->Track not present in AccurateRip database.
    Statistics
        Read error                           : 0
        Skipped (treated as error)           : 0
        Edge jitter error (maybe fixed)      : 0
        Atom jitter error (maybe fixed)      : 0
        Drift error (maybe fixed)            : 0
        Dropped bytes error (maybe fixed)    : 0
        Duplicated bytes error (maybe fixed) : 0
        Inconsistency in error sectors       : 0

Track 09
    Filename : /Ripped/09 - Lissie's Heart Murmur.flac
               /Ripped/09 - Lissie's Heart Murmur.mp3

    CRC32 hash (test run)  : A0DFAF37
    CRC32 hash             : A0DFAF37
    CRC32 hash (skip zero) : DCB8EBB1
    AccurateRip signature  : 6AC5E10C
        ->Track not present in AccurateRip database.
    Statistics
        Read error                           : 0
        Skipped (treated as error)           : 0
        Edge jitter error (maybe fixed)      : 0
        Atom jitter error (maybe fixed)      : 0
        Drift error (maybe fixed)            : 0
        Dropped bytes error (maybe fixed)    : 0
        Duplicated bytes error (maybe fixed) : 0
        Inconsistency in error sectors       : 0

No errors occurred

End of status report
Код:
Код:
-----------------------

DON'T MODIFY THIS FILE

-----------------------

PERFORMER: auCDtect Task Manager, ver. 1.6.0 RC1 build 1.6.0.1
Copyright (c) 2008-2010 y-soft. All rights reserved
http:/y-soft.org

ANALYZER: auCDtect: CD records authenticity detector, version 0.8.2
Copyright (c) 2004 Oleg Berngardt. All rights reserved.
Copyright (c) 2004 Alexander Djourik. All rights reserved.

FILE: 09 - Lissie's Heart Murmur.flac
  Size: 35326093 Hash: 0CCF401503FEF408AAF7B440BAC62C4A Accuracy: -m0
  Conclusion: CDDA 100%
  Signature: C84443C737FA43D14D92C3B26DBD90BB19CC9E5E
FILE: 08 - Majesty.flac
  Size: 40788005 Hash: 613D6706767EA84C32813CEDDD5B43C1 Accuracy: -m0
  Conclusion: CDDA 100%
  Signature: BD44C51DE29705A1E088E6E8481D750CFB8D0E30
FILE: 07 - Baby.flac
  Size: 29383075 Hash: 92847141C8935224D5FD085A023D6F25 Accuracy: -m0
  Conclusion: CDDA 100%
  Signature: 621CB2E4BA729A4CF2A23B01F758BAD36A694165
FILE: 06 - Composure.flac
  Size: 33864694 Hash: 13D8E7625494C8DDC7F3B5DF27E8FEBC Accuracy: -m0
  Conclusion: CDDA 100%
  Signature: 0636F364D67E9C13A47595DB77C397AC75687B1E
FILE: 05 - Shadows.flac
  Size: 25878641 Hash: 105AA335A4621D411E0E037937320F93 Accuracy: -m0
  Conclusion: CDDA 100%
  Signature: A616B7EBBF0AB738E4D0D0F360A0623D6609E16D
FILE: 04 - Bees.flac
  Size: 30498364 Hash: C3734E0ECFCC87662B115CDC4D9B1773 Accuracy: -m0
  Conclusion: CDDA 100%
  Signature: 7B94109A2AFCC0538194FB901AF005C84B7B58E9
FILE: 03 - Undertow.flac
  Size: 40902166 Hash: D809AFD46EC130936EA494AA76136CE0 Accuracy: -m0
  Conclusion: CDDA 100%
  Signature: 42990E54E3B06398FC168972123E0405B8A6445C
FILE: 02 - Warpaint.flac
  Size: 40420764 Hash: 98C8734A85EB33A2DFFF4AB2728F9C91 Accuracy: -m0
  Conclusion: CDDA 100%
  Signature: CDAC7EE9FBDF481D1CA7EDD79836E8E6CA50FE5D
FILE: 01 - Set Your Arms Down.flac
  Size: 33279771 Hash: 4D569DB28774AE260EAB7EE6C917BA53 Accuracy: -m0
  Conclusion: CDDA 100%
  Signature: 511201B1E8BAB7950D93B3DFFE692E9E79C991D8
Код:
Код:
TITLE "The Fool"
PERFORMER "Warpaint"
REM GENRE "Indie Rock"
REM DISCID 650B1509
FILE "01 - Set Your Arms Down.flac" WAVE
  TRACK 01 AUDIO
    TITLE "Set Your Arms Down"
    ISRC GBCVZ1002878
    INDEX 01 00:00:00
FILE "02 - Warpaint.flac" WAVE
  TRACK 02 AUDIO
    TITLE "Warpaint"
    ISRC GBCVZ1002879
    INDEX 01 00:00:00
FILE "03 - Undertow.flac" WAVE
  TRACK 03 AUDIO
    TITLE "Undertow"
    ISRC GBCVZ1002880
    INDEX 01 00:00:00
FILE "04 - Bees.flac" WAVE
  TRACK 04 AUDIO
    TITLE "Bees"
    ISRC GBCVZ1002881
    INDEX 01 00:00:00
FILE "05 - Shadows.flac" WAVE
  TRACK 05 AUDIO
    TITLE "Shadows"
    ISRC GBCVZ1002882
    INDEX 01 00:00:00
FILE "06 - Composure.flac" WAVE
  TRACK 06 AUDIO
    TITLE "Composure"
    ISRC GBCVZ1002883
    INDEX 01 00:00:00
FILE "07 - Baby.flac" WAVE
  TRACK 07 AUDIO
    TITLE "Baby"
    ISRC GBCVZ1002884
    INDEX 01 00:00:00
FILE "08 - Majesty.flac" WAVE
  TRACK 08 AUDIO
    TITLE "Majesty"
    ISRC GBCVZ1002885
    INDEX 01 00:00:00
FILE "09 - Lissie's Heart Murmur.flac" WAVE
  TRACK 09 AUDIO
    TITLE "Lissie's Heart Murmur"
    ISRC GBCVZ1002886
    INDEX 01 00:00:00
Правила, инструкции, FAQ!!!
Торрент  Добавлен [16 мар 2014, 00:40] Скачать торрент Магнет ссылка
Скачать торрент
[ Размер 12.92 КБ / Просмотров 37 ]

Статус  
 
Размер  296.19 МБ
Приватный: Нет (DHT включён)
.torrent скачан  3
 


     Отправить личное сообщение
   
Страница 1 из 1
Показать сообщения за:  Поле сортировки  
Начать новую тему Ответить на тему


Сейчас этот форум просматривают: нет зарегистрированных пользователей и гости: 0


Вы не можете начинать темы
Вы не можете отвечать на сообщения
Вы не можете редактировать свои сообщения
Вы не можете удалять свои сообщения
Вы не можете добавлять вложения

Перейти:  
cron
cron