Начать новую тему Ответить на тему
Статистика раздачи
Размер: 216.16 МБ | Добавлен: 05 дек 2013, 10:37 | Скачали: 0
Сидеров: 1  [0 байт/сек]    Личеров: 2  [0 байт/сек]
Пред. тема | След. тема 

Автор
Сообщение

СообщениеДобавлено: 05 дек 2013, 10:37 

Ответить с цитатой 

Wally - Valley Gardens (1975) CD released 1993

Страна: UK
Жанр: Progressive Rock
Год выпуска: 1975/1993
Страна производитель CD: Japan
Label: Atlantic Recording Corp.
Catalog#: AMCY-596
Формат: FLAC (tracks + .cue)
Битрейт аудио: lossless
Продолжительность: 00:40:29
Наличие сканов: да
Спасибо: alex752
01. Valley Gardens (09:51)
02. Nez Perce (05:03)
03. The Mood I'm In (07:07)
04. The Reason Why (18:28)
a) Nolan
b) The Charge
c) Disillusion

Британская Art-Rock группа образованная в начале 70х годов. Большинство людей помнит их за участие на ежегодном музыкальном фестивале в Рединге (Великобритания) в 1975 году, где они показали высокий уровень исполнительского искуства и очень гармонично вписались в общую гамму с такими группами, как Yes, Caravan, Wishbone Ash, Soft Machine и т.д.
"Valley Gardens" - добротный художественный акт, приготовленный со вкусом, мастерством, без лишней помпы и зауми.
Четыре пьесы, включая 19-минутный финальный эпик. Каждая со своим лицом и окрасом. Точкой отсчета служит крайне привлекательный заглавный номер. В пролонгированном интро замечательно соединились синти-Муговые гармонии Ника Гленни-Смита, стил-гитарные петли Пола Миддлтона и электрогитаризмы Роя Уэббера. Не перебарщивая с симфо-проговым саундом, Wally в контексте того же произведения беспрепятственно выдают мечтательные космизмы а ля Nektar, после чего циклически (согласно канону сонатной формы) завершают действо искристыми клавишно-струнными проходами. Любителям романтических поп-баллад предназначена "Nez Percé" с ее мелодичными фортепианными аккордами, бэк-вокальным присутствием афроамериканской дивы Мэделин Белл и выразительными скрипичными пассажами Пита Сейджа. "The Mood I'm In" переливается хрустальными позывными электропиано, накрапывающей акустикой, лирической рефлексией певца (Ян Гленни-Смит, брат Ника), теплыми слайд-линиями, томным голосом сопрано-саксофона (Рэй Верштейн) и уместной ритмической стройностью. Трехчастный коллаж "The Reason Why" демонстрирует пробудившиеся амбиции парней.
Заключительная секция "Disillusion" ближе по кондициям к Pink Floyd; вот только шаловливая скрипочка Сейджа своей заводной сутью сбивает градус пафоса и мешает соплеменникам обратить взоры к светлой стороне Луны...
Состав:
- Pete Cosker - electric and acoustic guitars, vocals, bass guitar
- Nick Glennie-Smith - keyboards
- Paul Middleton - steel guitar, bass guitar
- Roger Narraway - Percussion
- Pete Sage - electric violin, bass guitar, mandolin
- Roy Webber - lead vocals, acoustic guitar

Приглашенные музыканты:
- Jan Glennie Smith - vocals
- Madeline Bell - vocals
- Ray Wherstein - sax
Код:
Код:
EAC extraction logfile from 26. November 2006, 11:11 for CD
Wally / Valley Gardens

Used drive  : _NEC    CD-RW NR-9100A   Adapter: 1  ID: 0
Read mode   : Secure with NO C2, accurate stream, disable cache
Read offset correction : 685
Overread into Lead-In and Lead-Out : No

Used output format : Internal WAV Routines
                     44.100 Hz; 16 Bit; Stereo

Other options      :
    Fill up missing offset samples with silence : Yes
    Delete leading and trailing silent blocks : No
    Installed external ASPI interface

Track  1
     Filename C:\Program Files\Exact Audio Copy\01 - Valley Gardens.wav

     Pre-gap length  0:00:02.00

     Peak level 100.0 %
     Track quality 100.0 %
     Test CRC 1CD27CD4
     Copy CRC 1CD27CD4
     Copy OK

Track  2
     Filename C:\Program Files\Exact Audio Copy\02 - Nez Perce.wav

     Pre-gap length  0:00:02.00

     Peak level 100.0 %
     Track quality 99.9 %
     Test CRC E9DC63C5
     Copy CRC E9DC63C5
     Copy OK

Track  3
     Filename C:\Program Files\Exact Audio Copy\03 - The Mood I'm In.wav

     Pre-gap length  0:00:02.70

     Peak level 88.3 %
     Track quality 100.0 %
     Test CRC 6C646827
     Copy CRC 6C646827
     Copy OK

Track  4
     Filename C:\Program Files\Exact Audio Copy\04 - The Reason Why.wav

     Pre-gap length  0:00:01.62

     Peak level 100.0 %
     Track quality 99.9 %
     Test CRC 017C1A5C
     Copy CRC 017C1A5C
     Copy OK

No errors occured

End of status report
Код:
Код:
-----------------------

DON'T MODIFY THIS FILE

-----------------------

PERFORMER: auCDtect Task Manager, ver. 1.6.0 RC1 build 1.6.0.1
Copyright (c) 2008-2010 y-soft. All rights reserved
http:/y-soft.org

ANALYZER: auCDtect: CD records authenticity detector, version 0.8.2
Copyright (c) 2004 Oleg Berngardt. All rights reserved.
Copyright (c) 2004 Alexander Djourik. All rights reserved.

FILE: 04 - The Reason Why.flac
  Size: 93451959 Hash: 3A8B1814129A5FADBDDD096D0FF3AE90 Accuracy: -m0
  Conclusion: CDDA 100%
  Signature: 881184C3053416ECB5C1D0C032B277EAF4A24999
FILE: 03 - The Mood I'm In.flac
  Size: 40709729 Hash: 7BE0CF5990332C6FC83E62705EBAEBE2 Accuracy: -m0
  Conclusion: CDDA 100%
  Signature: 7E284BF80C119FF0E77DBB5B881A2CB08B0D6EFB
FILE: 02 - Nez Perce.flac
  Size: 29371082 Hash: B0E8DF8FB668E9398F7AAAB693963865 Accuracy: -m0
  Conclusion: CDDA 100%
  Signature: D60C4E79724E6FABD8D29306CFC780C2721B6CD1
FILE: 01 - Valley Gardens.flac
  Size: 59766483 Hash: ADE8186E0D2AC4D7B4F5337D3A48EDA2 Accuracy: -m0
  Conclusion: CDDA 99%
  Signature: 7449BE4786F232F5A847012437F897051E52B6A4
Правила, инструкции, FAQ!!!
Торрент  Добавлен [05 дек 2013, 10:37] Скачать торрент Магнет ссылка
Скачать торрент
[ Размер 18.2 КБ / Просмотров 17 ]

Статус  
 
Размер  216.16 МБ
Приватный: Нет (DHT включён)
.torrent скачан  0
 


     Отправить личное сообщение
   
Страница 1 из 1
Показать сообщения за:  Поле сортировки  
Начать новую тему Ответить на тему


Сейчас этот форум просматривают: нет зарегистрированных пользователей и гости: 0


Вы не можете начинать темы
Вы не можете отвечать на сообщения
Вы не можете редактировать свои сообщения
Вы не можете удалять свои сообщения
Вы не можете добавлять вложения

Перейти:  
cron
cron