Начать новую тему Ответить на тему
Статистика раздачи
Размер: 672.84 МБ | Добавлен: 01 апр 2019, 19:22 | Скачали: 0
Сидеров: 1  [0 байт/сек]    Личеров: 0  [0 байт/сек]
Пред. тема | След. тема 

Автор
Сообщение

СообщениеДобавлено: 01 апр 2019, 19:22 

Ответить с цитатой 

Vulfpeck / Mr Finish Line
Формат записи/Источник записи: [TR24][OF]
Наличие водяных знаков: Нет
Год издания/переиздания диска: 2017
Жанр: Funk, Soul
Издатель (лейбл): Vulf Records
Продолжительность: 35:52
Наличие сканов в содержимом раздачи: Front
Источник (релизер): bandcamp
Контейнер: FLAC (*.flac)
Тип рипа: tracks
Разрядность: 24/96
Формат: PCM
Количество каналов: 2.0
Треклист:
01. Birds of a Feather, We Rock Together (feat. Antwaun Stanley) (04:45)
02. Baby I Don’t Know Oh Oh (feat. Charles Jones) (03:28)
03. Mr. Finish Line (feat. Christine Hucal & Theo Katzman) (03:13)
04. Tee Time (02:49)
05. Running Away (feat. Joey Dosik, David T. Walker & James Gadson) (04:32)
06. Hero Town (feat. Michael Bland) (03:35)
07. Business Casual (feat. Coco O.) (03:03)
08. Vulf Pack (02:37)
09. Grandma (feat. Antwaun Stanley, David T. Walker & James Gadson) (05:05)
10. Captain Hook (feat. Baby Theo, Bootsy Collins & Mushy Kay) (02:40)
Код:
foobar2000 1.1.10 / Dynamic Range Meter 1.1.1
log date: 2017-12-17 17:50:37
--------------------------------------------------------------------------------
Analyzed: Vulfpeck / Mr. Finish Line
--------------------------------------------------------------------------------
DR         Peak         RMS     Duration Track
--------------------------------------------------------------------------------
DR8       -0.10 dB   -10.42 dB      4:45 ?-Birds of a Feather, We Rock Together (feat. Antwaun Stanley)
DR7       -0.10 dB    -8.79 dB      3:29 ?-Baby I Don’t Know Oh Oh (feat. Charles Jones)
DR10      -0.10 dB   -11.64 dB      3:13 ?-Mr. Finish Line (feat. Christine Hucal & Theo Katzman)
DR8       -0.10 dB    -9.35 dB      2:49 ?-Tee Time
DR7       -0.10 dB    -8.80 dB      4:32 ?-Running Away (feat. Joey Dosik, David T. Walker & James Gadson)
DR9       -0.10 dB   -11.26 dB      3:35 ?-Hero Town (feat. Michael Bland)
DR8       -0.10 dB    -9.57 dB      3:04 ?-Business Casual (feat. Coco O.)
DR6       -0.10 dB    -8.14 dB      2:38 ?-Vulf Pack
DR8       -0.10 dB    -9.86 dB      5:06 ?-Grandma (feat. Antwaun Stanley, David T. Walker & James Gadson)
DR8       -0.10 dB    -9.75 dB      2:41 ?-Captain Hook (feat. Baby Theo, Bootsy Collins & Mushy Kay)
--------------------------------------------------------------------------------
Number of tracks:  10
Official DR value: DR8
Samplerate:        96000 Hz
Channels:          2
Bits per sample:   24
Bitrate:           2548 kbps
Codec:             FLAC
================================================================================
Birds of a Feather, We Rock Together
Jack Stratton — pancakes
Theo Katzman — bgvs
Woody Goss — pianet, wah wah pedal
Joe Dart — fender bass
Joey Dosik — wurlitzer, bgvs
Antwaun Stanley — vocals
Baby I Don’t Know Oh Oh
Jack Stratton — drums
Theo Katzman — guitar
Woody Goss — organ
Joe Dart — fender bass
Charles Jones — piano, vocals
Ryan Lerman — guitar, composer
Joey Dosik — alto saxophone
Mr. Finish Line
Jack Stratton — drums, composer
Theo Katzman — guitar, vocals, composer
Woody Goss — electric piano
Joe Dart — fender bass
Cory Wong — guitar
Joey Dosik — electric piano
Christine Hucal — vocals
Tee Time
Jack Stratton — kick, snare
Theo Katzman — sock cymbal
Woody Goss — electric piano, composer
Joe Dart — crowd
Cory Wong — crowd
Joey Dosik — crowd
Running Away
Jack Stratton — a&r
Theo Katzman — guitar, bgvs
Woody Goss — organ, wurlitzer
Joe Dart — fender bass
Joey Dosik — composer, vocals, wurlitzer, sax
James Gadson — drums
David T. Walker — guitar
Gabe Noel — cello
Antwaun Stanley — bgvs
Hero Town
Jack Stratton — composer, piano
Theo Katzman — guitar
Woody Goss — farfisa, wah wah pedal
Joe Dart — fender bass
Michael Bland — drums
Joey Dosik — saxophone
Cory Wong — guitar
Business Casual
Jack Stratton — composer, wurlitzer
Theo Katzman — bgvs
Woody Goss — wurlitzer
Joe Dart — fender bass
Coco O. — vocals
Joey Dosik — bgvs
Antwaun Stanley — bgvs
Mark Dover — clarinet trio
Vulf Pack
Jack Stratton — composer, guitar
Theo Katzman — drums
Woody Goss — pianet, wah wah pedal
Joe Dart — fender bass
Grandma
Jack Stratton — a&r
Theo Katzman — guitar
Woody Goss — organ
Joe Dart — fender bass
Joey Dosik — composer, wurlitzer
James Gadson — drums
David T. Walker — guitar
Gabe Noel — cello
Antwaun Stanley — vocals
Captain Hook
Jack Stratton — composer, drums
Theo Katzman — guitar
Woody Goss — pianet, wah wah pedal
Joe Dart — fender bass
Bootsy Collins — vocals
Baby Theo — vocals
Mushy Kay — vocals
Правила, инструкции, FAQ!!!
Торрент  Добавлен [01 апр 2019, 19:22] Скачать торрент Магнет ссылка
Скачать торрент
[ Размер 14.47 КБ / Просмотров 7 ]

Статус
Проверен 
 
Размер  672.84 МБ
Приватный: Нет (DHT включён)
.torrent скачан  0
 


     Отправить личное сообщение
   
Страница 1 из 1
Показать сообщения за:  Поле сортировки  
Начать новую тему Ответить на тему


Сейчас этот форум просматривают: нет зарегистрированных пользователей и гости: 0


Вы не можете начинать темы
Вы не можете отвечать на сообщения
Вы не можете редактировать свои сообщения
Вы не можете удалять свои сообщения
Вы не можете добавлять вложения

Перейти:  
cron
cron