Начать новую тему Ответить на тему
Статистика раздачи
Размер: 269.4 МБ | Добавлен: 19 мар 2020, 22:22 | Скачали: 2
Сидеров: 1  [0 байт/сек]    Личеров: 0  [0 байт/сек]
Пред. тема | След. тема 

Автор
Сообщение

СообщениеДобавлено: 19 мар 2020, 22:22 

Ответить с цитатой 

Veronica Swift - Confessions
Жанр: Vocal Jazz
Носитель: CD
Страна-производитель диска (релиза): США
Год издания: 2019
Издатель (лейбл): Mack Avenue Records
Номер по каталогу: MAC1149
Аудиокодек: FLAC (*.flac)
Тип рипа: tracks+.cue
Продолжительность: 00:51:33
Источник: catfish27
Наличие сканов в содержимом раздачи: нет
Треклист:
01. You're Gonna Hear from Me (3:47)
02. A Little Taste (3:42)
03. Interlude (5:13)
04. Forget About the Boy (5:02)
05. A Stranger in Town (6:22)
06. I Don't Wanna Cry Anymore (3:08)
07. I Hope She Makes You Happy (4:24)
08. Confession/The Other Woman (6:43)
09. Gypsy in My Soul (3:45)
10. No Not Much (3:34)
11. I'm Hip (2:24)
12. No Regrets (3:29)
Код:
X Lossless Decoder version 20191004 (152.0)
XLD extraction logfile from 2020-03-01 17:33:12 -0800
Veronica Swift / Confessions
Used drive : PIONEER BD-RW   BDR-XD05 (revision 3.10)
Media type : Pressed CD
Ripper mode             : XLD Secure Ripper
Disable audio cache     : OK for the drive with a cache less than 1375KiB
Make use of C2 pointers : NO
Read offset correction  : 667
Max retry count         : 100
Gap status              : Analyzed, Appended (except HTOA)
TOC of the extracted CD
     Track |   Start  |  Length  | Start sector | End sector
    ---------------------------------------------------------
        1  | 00:00:00 | 03:47:19 |         0    |    17043
        2  | 03:47:19 | 03:41:60 |     17044    |    33678
        3  | 07:29:04 | 05:12:51 |     33679    |    57129
        4  | 12:41:55 | 05:01:50 |     57130    |    79754
        5  | 17:43:30 | 06:22:01 |     79755    |   108405
        6  | 24:05:31 | 03:08:30 |    108406    |   122535
        7  | 27:13:61 | 04:23:56 |    122536    |   142316
        8  | 31:37:42 | 06:43:32 |    142317    |   172573
        9  | 38:20:74 | 03:44:61 |    172574    |   189434
       10  | 42:05:60 | 03:34:34 |    189435    |   205518
       11  | 45:40:19 | 02:24:14 |    205519    |   216332
       12  | 48:04:33 | 03:29:13 |    216333    |   232020
AccurateRip Summary (DiscID: 00180f2d-00e0c1a7-ad0c150c)
    Track 01 : OK (v2, confidence 3/3)
    Track 02 : OK (v2, confidence 3/3)
    Track 03 : OK (v2, confidence 3/3)
    Track 04 : OK (v2, confidence 3/3)
    Track 05 : OK (v2, confidence 3/3)
    Track 06 : OK (v2, confidence 3/3)
    Track 07 : OK (v2, confidence 3/3)
    Track 08 : OK (v2, confidence 3/3)
    Track 09 : OK (v2, confidence 3/3)
    Track 10 : OK (v2, confidence 3/3)
    Track 11 : OK (v2, confidence 3/3)
    Track 12 : OK (v2, confidence 3/3)
        ->All tracks accurately ripped.
All Tracks
    Album gain               : -5.83 dB
    Peak                     : 0.998840
    Statistics
        Read error                           : 0
        Jitter error (maybe fixed)           : 0
        Retry sector count                   : 0
        Damaged sector count                 : 0
Track 01
    Filename : /Volumes/Hollywood and Vine/Rips/Veronica Swift - Confessions (2019) [FLAC]/01 You're Gonna Hear from Me.flac
    Pre-gap length : 00:02:00
    Track gain               : -6.38 dB
    Peak                     : 0.982635
    CRC32 hash (test run)    : 78AADE8D
    CRC32 hash               : 78AADE8D
    CRC32 hash (skip zero)   : E59D42A9
    AccurateRip v1 signature : 21DB33C3
    AccurateRip v2 signature : 214A7DC7
        ->Accurately ripped (v2, confidence 3/3)
    Statistics
        Read error                           : 0
        Jitter error (maybe fixed)           : 0
        Retry sector count                   : 0
        Damaged sector count                 : 0
Track 02
    Filename : /Volumes/Hollywood and Vine/Rips/Veronica Swift - Confessions (2019) [FLAC]/02 Little Taste.flac
    Track gain               : -5.49 dB
    Peak                     : 0.981720
    CRC32 hash (test run)    : 95B3F652
    CRC32 hash               : 95B3F652
    CRC32 hash (skip zero)   : DE060D87
    AccurateRip v1 signature : CAC8561C
    AccurateRip v2 signature : B7AF1B36
        ->Accurately ripped (v2, confidence 3/3)
    Statistics
        Read error                           : 0
        Jitter error (maybe fixed)           : 0
        Retry sector count                   : 0
        Damaged sector count                 : 0
Track 03
    Filename : /Volumes/Hollywood and Vine/Rips/Veronica Swift - Confessions (2019) [FLAC]/03 Interlude.flac
    Track gain               : -4.02 dB
    Peak                     : 0.965790
    CRC32 hash (test run)    : A8A97944
    CRC32 hash               : A8A97944
    CRC32 hash (skip zero)   : 03F9AB11
    AccurateRip v1 signature : C2515DDE
    AccurateRip v2 signature : 4439CDD6
        ->Accurately ripped (v2, confidence 3/3)
    Statistics
        Read error                           : 0
        Jitter error (maybe fixed)           : 0
        Retry sector count                   : 0
        Damaged sector count                 : 0
Track 04
    Filename : /Volumes/Hollywood and Vine/Rips/Veronica Swift - Confessions (2019) [FLAC]/04 Forget About the Boy.flac
    Track gain               : -6.62 dB
    Peak                     : 0.998840
    CRC32 hash (test run)    : 42DC3828
    CRC32 hash               : 42DC3828
    CRC32 hash (skip zero)   : DC1AB139
    AccurateRip v1 signature : 286BA12A
    AccurateRip v2 signature : D420EA52
        ->Accurately ripped (v2, confidence 3/3)
    Statistics
        Read error                           : 0
        Jitter error (maybe fixed)           : 0
        Retry sector count                   : 0
        Damaged sector count                 : 0
Track 05
    Filename : /Volumes/Hollywood and Vine/Rips/Veronica Swift - Confessions (2019) [FLAC]/05 A Stranger in Town.flac
    Track gain               : -3.45 dB
    Peak                     : 0.968048
    CRC32 hash (test run)    : A5F4722D
    CRC32 hash               : A5F4722D
    CRC32 hash (skip zero)   : E9F12091
    AccurateRip v1 signature : CA982750
    AccurateRip v2 signature : 331EC202
        ->Accurately ripped (v2, confidence 3/3)
    Statistics
        Read error                           : 0
        Jitter error (maybe fixed)           : 0
        Retry sector count                   : 0
        Damaged sector count                 : 0
Track 06
    Filename : /Volumes/Hollywood and Vine/Rips/Veronica Swift - Confessions (2019) [FLAC]/06 I Don't Wanna Cry Anymore.flac
    Track gain               : -6.63 dB
    Peak                     : 0.969604
    CRC32 hash (test run)    : CE6933F4
    CRC32 hash               : CE6933F4
    CRC32 hash (skip zero)   : DF2B3368
    AccurateRip v1 signature : 4510E11C
    AccurateRip v2 signature : 51C9B8E5
        ->Accurately ripped (v2, confidence 3/3)
    Statistics
        Read error                           : 0
        Jitter error (maybe fixed)           : 0
        Retry sector count                   : 0
        Damaged sector count                 : 0
Track 07
    Filename : /Volumes/Hollywood and Vine/Rips/Veronica Swift - Confessions (2019) [FLAC]/07 I Hope She Makes You Happy.flac
    Track gain               : -8.02 dB
    Peak                     : 0.973022
    CRC32 hash (test run)    : A02536F6
    CRC32 hash               : A02536F6
    CRC32 hash (skip zero)   : 3A9A964E
    AccurateRip v1 signature : AF6804D7
    AccurateRip v2 signature : 0599779C
        ->Accurately ripped (v2, confidence 3/3)
    Statistics
        Read error                           : 0
        Jitter error (maybe fixed)           : 0
        Retry sector count                   : 0
        Damaged sector count                 : 0
Track 08
    Filename : /Volumes/Hollywood and Vine/Rips/Veronica Swift - Confessions (2019) [FLAC]/08 ConfessionпјЏThe Other Woman.flac
    Track gain               : -2.14 dB
    Peak                     : 0.965698
    CRC32 hash (test run)    : C7929D2C
    CRC32 hash               : C7929D2C
    CRC32 hash (skip zero)   : FC4B3021
    AccurateRip v1 signature : FBF43089
    AccurateRip v2 signature : 59BEBE7A
        ->Accurately ripped (v2, confidence 3/3)
    Statistics
        Read error                           : 0
        Jitter error (maybe fixed)           : 0
        Retry sector count                   : 0
        Damaged sector count                 : 0
Track 09
    Filename : /Volumes/Hollywood and Vine/Rips/Veronica Swift - Confessions (2019) [FLAC]/09 Gypsy in My Soul.flac
    Track gain               : -6.40 dB
    Peak                     : 0.974457
    CRC32 hash (test run)    : 2CFC8EC6
    CRC32 hash               : 2CFC8EC6
    CRC32 hash (skip zero)   : AB1F4ED4
    AccurateRip v1 signature : 55A3B913
    AccurateRip v2 signature : 8C151C74
        ->Accurately ripped (v2, confidence 3/3)
    Statistics
        Read error                           : 0
        Jitter error (maybe fixed)           : 0
        Retry sector count                   : 0
        Damaged sector count                 : 0
Track 10
    Filename : /Volumes/Hollywood and Vine/Rips/Veronica Swift - Confessions (2019) [FLAC]/10 No Not Much.flac
    Track gain               : -2.15 dB
    Peak                     : 0.971436
    CRC32 hash (test run)    : 81FD467E
    CRC32 hash               : 81FD467E
    CRC32 hash (skip zero)   : C36EF68A
    AccurateRip v1 signature : 333AA1DF
    AccurateRip v2 signature : F44251DD
        ->Accurately ripped (v2, confidence 3/3)
    Statistics
        Read error                           : 0
        Jitter error (maybe fixed)           : 0
        Retry sector count                   : 0
        Damaged sector count                 : 0
Track 11
    Filename : /Volumes/Hollywood and Vine/Rips/Veronica Swift - Confessions (2019) [FLAC]/11 I'm Hip.flac
    Track gain               : -5.90 dB
    Peak                     : 0.975250
    CRC32 hash (test run)    : 691456FE
    CRC32 hash               : 691456FE
    CRC32 hash (skip zero)   : A9E17EE5
    AccurateRip v1 signature : 0DAEE984
    AccurateRip v2 signature : 25BA1B0B
        ->Accurately ripped (v2, confidence 3/3)
    Statistics
        Read error                           : 0
        Jitter error (maybe fixed)           : 0
        Retry sector count                   : 0
        Damaged sector count                 : 0
Track 12
    Filename : /Volumes/Hollywood and Vine/Rips/Veronica Swift - Confessions (2019) [FLAC]/12 No Regrets.flac
    Track gain               : -7.47 dB
    Peak                     : 0.986664
    CRC32 hash (test run)    : B6448823
    CRC32 hash               : B6448823
    CRC32 hash (skip zero)   : 80A5820C
    AccurateRip v1 signature : 9D6298B8
    AccurateRip v2 signature : 2D561B40
        ->Accurately ripped (v2, confidence 3/3)
    Statistics
        Read error                           : 0
        Jitter error (maybe fixed)           : 0
        Retry sector count                   : 0
        Damaged sector count                 : 0
No errors occurred
End of status report
-----BEGIN XLD SIGNATURE-----
6OuDAzRR_1wtnJPHC_Uwt2VPV0zD9Jpe1l_XY.64_w_8zJ5DvqSqZyXT2yWwBq0GmkA5lcB4IWzblYbj_6x1JSXsCtX2jqy6etRbyk0
-----END XLD SIGNATURE-----
Код:
TITLE "Confessions"
PERFORMER "Veronica Swift"
CATALOG 0673203114920
REM GENRE "Jazz"
REM DATE "2019"
REM DISCID AD0C150C
REM REPLAYGAIN_ALBUM_GAIN -5.83 dB
REM REPLAYGAIN_ALBUM_PEAK 0.998840
FILE "01 - You're Gonna Hear from Me.flac" WAVE
  TRACK 01 AUDIO
    TITLE "You're Gonna Hear from Me"
    ISRC USMAR1914901
    REM REPLAYGAIN_TRACK_GAIN -6.38 dB
    REM REPLAYGAIN_TRACK_PEAK 0.982635
    INDEX 01 00:00:00
FILE "02 - A Little Taste.flac" WAVE
  TRACK 02 AUDIO
    TITLE "A Little Taste"
    ISRC USMAR1914902
    REM REPLAYGAIN_TRACK_GAIN -5.49 dB
    REM REPLAYGAIN_TRACK_PEAK 0.981720
    INDEX 01 00:00:00
FILE "03 - Interlude.flac" WAVE
  TRACK 03 AUDIO
    TITLE "Interlude"
    ISRC USMAR1914903
    REM REPLAYGAIN_TRACK_GAIN -4.02 dB
    REM REPLAYGAIN_TRACK_PEAK 0.965790
    INDEX 01 00:00:00
FILE "04 - Forget About the Boy.flac" WAVE
  TRACK 04 AUDIO
    TITLE "Forget About the Boy"
    ISRC USMAR1914904
    REM REPLAYGAIN_TRACK_GAIN -6.62 dB
    REM REPLAYGAIN_TRACK_PEAK 0.998840
    INDEX 01 00:00:00
FILE "05 - A Stranger in Town.flac" WAVE
  TRACK 05 AUDIO
    TITLE "A Stranger in Town"
    ISRC USMAR1914905
    REM REPLAYGAIN_TRACK_GAIN -3.45 dB
    REM REPLAYGAIN_TRACK_PEAK 0.968048
    INDEX 01 00:00:00
FILE "06 - I Don't Wanna Cry Anymore.flac" WAVE
  TRACK 06 AUDIO
    TITLE "I Don't Wanna Cry Anymore"
    ISRC USMAR1914906
    FLAGS DCP
    REM REPLAYGAIN_TRACK_GAIN -6.63 dB
    REM REPLAYGAIN_TRACK_PEAK 0.969604
    INDEX 01 00:00:00
FILE "07 - I Hope She Makes You Happy.flac" WAVE
  TRACK 07 AUDIO
    TITLE "I Hope She Makes You Happy"
    ISRC USMAR1914907
    REM REPLAYGAIN_TRACK_GAIN -8.02 dB
    REM REPLAYGAIN_TRACK_PEAK 0.973022
    INDEX 01 00:00:00
FILE "08 - Confession,The Other Woman.flac" WAVE
  TRACK 08 AUDIO
    TITLE "Confession/The Other Woman"
    ISRC USMAR1914908
    REM REPLAYGAIN_TRACK_GAIN -2.14 dB
    REM REPLAYGAIN_TRACK_PEAK 0.965698
    INDEX 01 00:00:00
FILE "09 - Gypsy in My Soul.flac" WAVE
  TRACK 09 AUDIO
    TITLE "Gypsy in My Soul"
    ISRC USMAR1914909
    REM REPLAYGAIN_TRACK_GAIN -6.40 dB
    REM REPLAYGAIN_TRACK_PEAK 0.974457
    INDEX 01 00:00:00
FILE "10 - No Not Much.flac" WAVE
  TRACK 10 AUDIO
    TITLE "No Not Much"
    ISRC USMAR1914910
    REM REPLAYGAIN_TRACK_GAIN -2.15 dB
    REM REPLAYGAIN_TRACK_PEAK 0.971436
    INDEX 01 00:00:00
FILE "11 - I'm Hip.flac" WAVE
  TRACK 11 AUDIO
    TITLE "I'm Hip"
    ISRC USMAR1914911
    REM REPLAYGAIN_TRACK_GAIN -5.90 dB
    REM REPLAYGAIN_TRACK_PEAK 0.975250
    INDEX 01 00:00:00
FILE "12 - No Regrets.flac" WAVE
  TRACK 12 AUDIO
    TITLE "No Regrets"
    ISRC USMAR1914912
    REM REPLAYGAIN_TRACK_GAIN -7.47 dB
    REM REPLAYGAIN_TRACK_PEAK 0.986664
    INDEX 01 00:00:00
Код:
[CUETools log; Date: 03.03.2020 20:39:01; Version: 2.1.6]
[CTDB TOCID: l_SIlUmzKTTDTKhhhsjWmvajXqw-] found.
Track | CTDB Status
  1   | (15/15) Accurately ripped
  2   | (15/15) Accurately ripped
  3   | (15/15) Accurately ripped
  4   | (15/15) Accurately ripped
  5   | (15/15) Accurately ripped
  6   | (15/15) Accurately ripped
  7   | (15/15) Accurately ripped
  8   | (15/15) Accurately ripped
  9   | (15/15) Accurately ripped
 10   | (15/15) Accurately ripped
 11   | (15/15) Accurately ripped
 12   | (15/15) Accurately ripped
[AccurateRip ID: 00180f2d-00e0c1a7-ad0c150c] found.
Track   [  CRC   |   V2   ] Status
 01     [21db33c3|214a7dc7] (0+3/3) Accurately ripped
 02     [cac8561c|b7af1b36] (0+3/3) Accurately ripped
 03     [c2515dde|4439cdd6] (0+3/3) Accurately ripped
 04     [286ba12a|d420ea52] (0+3/3) Accurately ripped
 05     [ca982750|331ec202] (0+3/3) Accurately ripped
 06     [4510e11c|51c9b8e5] (0+3/3) Accurately ripped
 07     [af6804d7|0599779c] (0+3/3) Accurately ripped
 08     [fbf43089|59bebe7a] (0+3/3) Accurately ripped
 09     [55a3b913|8c151c74] (0+3/3) Accurately ripped
 10     [333aa1df|f44251dd] (0+3/3) Accurately ripped
 11     [0daee984|25ba1b0b] (0+3/3) Accurately ripped
 12     [9d6298b8|2d561b40] (0+3/3) Accurately ripped
Track Peak [ CRC32  ] [W/O NULL]
 --   99,8 [67E17C08] [BF67F261]
 01   98,2 [78AADE8D] [E59D42A9]
 02   98,1 [95B3F652] [DE060D87]
 03   96,5 [A8A97944] [03F9AB11]
 04   99,8 [42DC3828] [DC1AB139]
 05   96,8 [A5F4722D] [E9F12091]
 06   96,9 [CE6933F4] [DF2B3368]
 07   97,3 [A02536F6] [3A9A964E]
 08   96,5 [C7929D2C] [FC4B3021]
 09   97,4 [2CFC8EC6] [AB1F4ED4]
 10   97,1 [81FD467E] [C36EF68A]
 11   97,5 [691456FE] [A9E17EE5]
 12   98,6 [B6448823] [80A5820C]
Times change. In the Me Too era it is clearly politically incorrect for a female singer to sidle up to the microphone and huskily breathe "My Heart Belongs To Daddy" like Julie London used to do. Or even, for that matter, to lustily proclaim "Diamonds are a Girl's Best Friend" like Marilyn Monroe. But a residue of that sort of thing (it's called sex appeal) needs to remain, regardless.
Veronica Swift is the epitome of a modern female jazz singer. She can wear figure-hugging evening gowns and high heels, but she'll look her audience in their collective eye and state defiantly, "You're Gonna Hear from Me."
That's the one that goes, "Move over, sun and give me some sky; I've got these wings I'm eager to try." She comes back down to earth with a fine interpretation of Billie Holiday's "I Don't Want to Cry Anymore": "Oh, why can't I forget you; I know so well what is in store. A moment or two up in the clouds with you, Then back where I was before."
"Forget About the Boy" and her own bittersweet "I Hope She Makes You Happy" leaven the mix: love seen from different angles. Talking of which, there's "Confession/The Other Woman," an angle on love that is rarely celebrated in song.
Veronica Swift chooses her songs with great care. She grew up touring with her parents, jazz pianist Hod O'Brien and singer Stephanie Nakasian. So she knows the score.
She made her first appearance at Jazz at Lincoln Center when just 11 years old. In 2015 she won second place in the Thelonious Monk Jazz Competition and a year later headlined at the Telluride Jazz Festival. A residency at Birdland in New York followed, and in 2018 she began touring with trios fronted by pianists Emmet Cohen and Benny Green, both featured on this album.
Her songs are marvelously well-crafted performances rooted in tradition, but up-to-the-minute in execution. When Johnny Hodges wrote "A Little Taste" in 1947, he surely never expected that a vocal version would ever be sung by a woman. In his day, when you wrote songs about them, you put women on pedestals.
Veronica Swift - vocals
with
Emmet Cohen Trio (#1,2,4-6,9-12):
Emmet Cohen - piano
Russell Hall - bass
Kyle Poole - drums
and
Benny Green Trio (#3,7-8):
Benny Green - piano
David Wong - bass
Carl Allen - drums
Правила, инструкции, FAQ!!!
Торрент  Добавлен [19 мар 2020, 22:22] Скачать торрент Магнет ссылка
Скачать торрент
[ Размер 11.99 КБ / Просмотров 14 ]

Статус
Проверен 
 
Размер  269.4 МБ
Приватный: Нет (DHT включён)
.torrent скачан  2
 


     Отправить личное сообщение
   
Страница 1 из 1
Показать сообщения за:  Поле сортировки  
Начать новую тему Ответить на тему


Сейчас этот форум просматривают: нет зарегистрированных пользователей и гости: 0


Вы не можете начинать темы
Вы не можете отвечать на сообщения
Вы не можете редактировать свои сообщения
Вы не можете удалять свои сообщения
Вы не можете добавлять вложения

Перейти:  
cron