Начать новую тему Ответить на тему
Статистика раздачи
Размер: 276.45 МБ | Добавлен: 22 июн 2020, 15:37 | Скачали: 0
Сидеров: 0  [0 байт/сек]    Личеров: 0  [0 байт/сек]
Пред. тема | След. тема 

Автор
Сообщение

СообщениеДобавлено: 22 июн 2020, 15:37 

Ответить с цитатой 

Tony Bennett - Tony Bennett's Greatest Hits of the '60s
Жанр: Vocal Jazz
Носитель: CD
Страна-производитель диска (релиза): США
Год издания: 2006
Издатель (лейбл): Columbia/Legacy
Номер по каталогу: 82876 84779 2
Аудиокодек: FLAC (*.flac)
Тип рипа: tracks+.cue
Продолжительность: 00:48:08
Источник: Truls88
Наличие сканов в содержимом раздачи: нет
Треклист:
01. Put on a Happy Face (2:41)
02. The Best Is Yet to Come (2:37)
03. Once Upon a Time (2:59)
04. (I Left My Heart In) San Francisco (2:54)
05. I Wanna Be Around (2:13)
06. The Good Life (2:16)
07. This Is All I Ask (3:15)
08. When Joanna Loved Me (3:07)
09. Speak Low (2:10)
10. Who Can I Turn To? (When Nobody Needs Me) (2:57)
11. If I Ruled the World (3:03)
12. Fly Me to the Moon (In Other Words) (4:13)
13. The Shadow of Your Smile (3:41)
14. For Once in My Life (3:24)
15. My Favorite Things (3:18)
16. Something (3:20)
Код:
Exact Audio Copy V1.3 from 2. September 2016
EAC extraction logfile from 18. May 2020, 9:51
Tony Bennett / Tony Bennett's Greatest Hits of the 60's
Used drive  : ASUS    DRW-24B1ST   a   Adapter: 1  ID: 0
Read mode               : Secure
Utilize accurate stream : Yes
Defeat audio cache      : Yes
Make use of C2 pointers : No
Read offset correction                      : 6
Overread into Lead-In and Lead-Out          : No
Fill up missing offset samples with silence : Yes
Delete leading and trailing silent blocks   : No
Null samples used in CRC calculations       : Yes
Used interface                              : Native Win32 interface for Win NT & 2000
Gap handling                                : Appended to previous track
Used output format              : User Defined Encoder
Selected bitrate                : 1024 kBit/s
Quality                         : High
Add ID3 tag                     : No
Command line compressor         : C:\Program Files (x86)\FLAC\flac.exe
Additional command line options : -8 -V -T "ARTIST=%artist%" -T "TITLE=%title%" -T "ALBUM=%albumtitle%" -T "DATE=%year%" -T "TRACKNUMBER=%tracknr%" -T "GENRE=%genre%" -T "PERFORMER=%albuminterpret%" -T "COMPOSER=%composer%" %haslyrics%--tag-from-file=LYRICS="%lyricsfile%"%haslyrics% -T "ALBUMARTIST=%albumartist%" -T "DISCNUMBER=%cdnumber%" -T "TOTALDISCS=%totalcds%" -T "TOTALTRACKS=%numtracks%" -T "COMMENT=%comment%" %source% -o %dest%
TOC of the extracted CD
     Track |   Start  |  Length  | Start sector | End sector
    ---------------------------------------------------------
        1  |  0:00.00 |  2:40.63 |         0    |    12062
        2  |  2:40.63 |  2:37.01 |     12063    |    23838
        3  |  5:17.64 |  2:59.04 |     23839    |    37267
        4  |  8:16.68 |  2:54.00 |     37268    |    50317
        5  | 11:10.68 |  2:13.00 |     50318    |    60292
        6  | 13:23.68 |  2:16.00 |     60293    |    70492
        7  | 15:39.68 |  3:15.00 |     70493    |    85117
        8  | 18:54.68 |  3:06.72 |     85118    |    99139
        9  | 22:01.65 |  2:10.01 |     99140    |   108890
       10  | 24:11.66 |  2:57.01 |    108891    |   122166
       11  | 27:08.67 |  3:03.15 |    122167    |   135906
       12  | 30:12.07 |  4:12.74 |    135907    |   154880
       13  | 34:25.06 |  3:41.00 |    154881    |   171455
       14  | 38:06.06 |  3:24.25 |    171456    |   186780
       15  | 41:30.31 |  3:17.60 |    186781    |   201615
       16  | 44:48.16 |  3:19.65 |    201616    |   216605
Track  1
     Filename C:\Users\Dan\Desktop\Tony Bennett - Tony Bennett's Greatest Hits Of The '60s (2006) [FLAC]\01 Put On A Happy Face.wav
     Pre-gap length  0:00:02.00
     Peak level 96.3 %
     Extraction speed 3.5 X
     Track quality 100.0 %
     Test CRC CD0BBE09
     Copy CRC CD0BBE09
     Accurately ripped (confidence 17)  [57239418]  (AR v2)
     Copy OK
Track  2
     Filename C:\Users\Dan\Desktop\Tony Bennett - Tony Bennett's Greatest Hits Of The '60s (2006) [FLAC]\02 The Best Is Yet To Come.wav
     Pre-gap length  0:00:02.15
     Peak level 99.9 %
     Extraction speed 2.8 X
     Track quality 99.9 %
     Test CRC 3E083DC5
     Copy CRC 3E083DC5
     Accurately ripped (confidence 17)  [ADF54E9C]  (AR v2)
     Copy OK
Track  3
     Filename C:\Users\Dan\Desktop\Tony Bennett - Tony Bennett's Greatest Hits Of The '60s (2006) [FLAC]\03 Once Upon A Time.wav
     Pre-gap length  0:00:02.62
     Peak level 89.0 %
     Extraction speed 4.1 X
     Track quality 100.0 %
     Test CRC 3DBAC428
     Copy CRC 3DBAC428
     Accurately ripped (confidence 17)  [0A35527A]  (AR v2)
     Copy OK
Track  4
     Filename C:\Users\Dan\Desktop\Tony Bennett - Tony Bennett's Greatest Hits Of The '60s (2006) [FLAC]\04 (I Left My Heart) In San Francisco.wav
     Pre-gap length  0:00:02.42
     Peak level 89.0 %
     Extraction speed 4.2 X
     Track quality 100.0 %
     Test CRC 55E2D047
     Copy CRC 55E2D047
     Accurately ripped (confidence 17)  [7297C0E4]  (AR v2)
     Copy OK
Track  5
     Filename C:\Users\Dan\Desktop\Tony Bennett - Tony Bennett's Greatest Hits Of The '60s (2006) [FLAC]\05 I Wanna Be Around.wav
     Pre-gap length  0:00:02.50
     Peak level 99.9 %
     Extraction speed 4.2 X
     Track quality 100.0 %
     Test CRC D9E76720
     Copy CRC D9E76720
     Accurately ripped (confidence 17)  [F6354CB5]  (AR v2)
     Copy OK
Track  6
     Filename C:\Users\Dan\Desktop\Tony Bennett - Tony Bennett's Greatest Hits Of The '60s (2006) [FLAC]\06 The Good Life.wav
     Pre-gap length  0:00:02.52
     Peak level 94.3 %
     Extraction speed 4.3 X
     Track quality 100.0 %
     Test CRC 61B10899
     Copy CRC 61B10899
     Accurately ripped (confidence 17)  [5D90B0BE]  (AR v2)
     Copy OK
Track  7
     Filename C:\Users\Dan\Desktop\Tony Bennett - Tony Bennett's Greatest Hits Of The '60s (2006) [FLAC]\07 This Is All I Ask.wav
     Pre-gap length  0:00:01.16
     Peak level 96.9 %
     Extraction speed 4.8 X
     Track quality 100.0 %
     Test CRC FF26115A
     Copy CRC FF26115A
     Accurately ripped (confidence 17)  [311372BA]  (AR v2)
     Copy OK
Track  8
     Filename C:\Users\Dan\Desktop\Tony Bennett - Tony Bennett's Greatest Hits Of The '60s (2006) [FLAC]\08 When Joanna Loved Me.wav
     Pre-gap length  0:00:01.62
     Peak level 99.6 %
     Extraction speed 5.0 X
     Track quality 100.0 %
     Test CRC C0D671A0
     Copy CRC C0D671A0
     Accurately ripped (confidence 17)  [E3DE61DD]  (AR v2)
     Copy OK
Track  9
     Filename C:\Users\Dan\Desktop\Tony Bennett - Tony Bennett's Greatest Hits Of The '60s (2006) [FLAC]\09 Speak Low.wav
     Pre-gap length  0:00:02.38
     Peak level 99.8 %
     Extraction speed 4.8 X
     Track quality 100.0 %
     Test CRC 8C7D714F
     Copy CRC 8C7D714F
     Accurately ripped (confidence 17)  [5EDCACEF]  (AR v2)
     Copy OK
Track 10
     Filename C:\Users\Dan\Desktop\Tony Bennett - Tony Bennett's Greatest Hits Of The '60s (2006) [FLAC]\10 Who Can I Turn To (When Nobody Needs Me).wav
     Pre-gap length  0:00:00.59
     Peak level 99.8 %
     Extraction speed 5.3 X
     Track quality 100.0 %
     Test CRC 414354A2
     Copy CRC 414354A2
     Accurately ripped (confidence 17)  [6F44298A]  (AR v2)
     Copy OK
Track 11
     Filename C:\Users\Dan\Desktop\Tony Bennett - Tony Bennett's Greatest Hits Of The '60s (2006) [FLAC]\11 If I Ruled The World.wav
     Pre-gap length  0:00:02.10
     Peak level 99.9 %
     Extraction speed 5.5 X
     Track quality 100.0 %
     Test CRC 240DFC11
     Copy CRC 240DFC11
     Accurately ripped (confidence 17)  [5BECEF75]  (AR v2)
     Copy OK
Track 12
     Filename C:\Users\Dan\Desktop\Tony Bennett - Tony Bennett's Greatest Hits Of The '60s (2006) [FLAC]\12 Fly Me To The Moon (In Other Words).wav
     Pre-gap length  0:00:02.18
     Peak level 84.9 %
     Extraction speed 4.8 X
     Track quality 99.9 %
     Test CRC 1951B6E4
     Copy CRC 1951B6E4
     Accurately ripped (confidence 17)  [C3A5C980]  (AR v2)
     Copy OK
Track 13
     Filename C:\Users\Dan\Desktop\Tony Bennett - Tony Bennett's Greatest Hits Of The '60s (2006) [FLAC]\13 The Shadow Of Your Smile.wav
     Pre-gap length  0:00:01.66
     Peak level 95.0 %
     Extraction speed 6.1 X
     Track quality 100.0 %
     Test CRC FF10D83F
     Copy CRC FF10D83F
     Accurately ripped (confidence 17)  [91DA6946]  (AR v2)
     Copy OK
Track 14
     Filename C:\Users\Dan\Desktop\Tony Bennett - Tony Bennett's Greatest Hits Of The '60s (2006) [FLAC]\14 For Once In My Life.wav
     Pre-gap length  0:00:02.04
     Peak level 99.9 %
     Extraction speed 6.2 X
     Track quality 100.0 %
     Test CRC 267BDBD9
     Copy CRC 267BDBD9
     Accurately ripped (confidence 17)  [5E10D3B4]  (AR v2)
     Copy OK
Track 15
     Filename C:\Users\Dan\Desktop\Tony Bennett - Tony Bennett's Greatest Hits Of The '60s (2006) [FLAC]\15 My Favorite Things.wav
     Pre-gap length  0:00:01.67
     Peak level 100.0 %
     Extraction speed 6.3 X
     Track quality 100.0 %
     Test CRC B8EC6309
     Copy CRC B8EC6309
     Accurately ripped (confidence 17)  [94519678]  (AR v2)
     Copy OK
Track 16
     Filename C:\Users\Dan\Desktop\Tony Bennett - Tony Bennett's Greatest Hits Of The '60s (2006) [FLAC]\16 Something.wav
     Pre-gap length  0:00:01.52
     Peak level 71.1 %
     Extraction speed 4.9 X
     Track quality 99.9 %
     Test CRC 911009DE
     Copy CRC 911009DE
     Accurately ripped (confidence 17)  [DADB892E]  (AR v2)
     Copy OK
All tracks accurately ripped
No errors occurred
End of status report
---- CUETools DB Plugin V2.1.6
[CTDB TOCID: ZXsi_wGRNAx3Kzq_oo5nBzqbRdo-] found
Submit result: already submitted
Track | CTDB Status
  1   | (24/24) Accurately ripped
  2   | (24/24) Accurately ripped
  3   | (24/24) Accurately ripped
  4   | (24/24) Accurately ripped
  5   | (24/24) Accurately ripped
  6   | (24/24) Accurately ripped
  7   | (24/24) Accurately ripped
  8   | (24/24) Accurately ripped
  9   | (24/24) Accurately ripped
 10   | (24/24) Accurately ripped
 11   | (24/24) Accurately ripped
 12   | (24/24) Accurately ripped
 13   | (24/24) Accurately ripped
 14   | (24/24) Accurately ripped
 15   | (24/24) Accurately ripped
 16   | (23/24) Accurately ripped
==== Log checksum 8894B8DD447C2ECE15B91567FD5DE51D6DCA14B933A616D6C3178F7262CD0602 ====
Код:
REM GENRE Jazz
REM DATE 2006
REM DISCID D50B4810
REM COMMENT "ExactAudioCopy v1.3"
PERFORMER "Tony Bennett"
TITLE "Greatest Hits of the '60s"
FILE "01 - Put on a Happy Face.wav" WAVE
  TRACK 01 AUDIO
    TITLE "Put on a Happy Face"
    PERFORMER "Tony Bennett"
    ISRC USSM16001199
    INDEX 01 00:00:00
  TRACK 02 AUDIO
    TITLE "The Best Is Yet to Come"
    PERFORMER "Tony Bennett"
    ISRC USSM10009669
    INDEX 00 02:38:48
FILE "02 - The Best Is Yet to Come.wav" WAVE
    INDEX 01 00:00:00
  TRACK 03 AUDIO
    TITLE "Once Upon a Time"
    PERFORMER "Tony Bennett"
    ISRC USSM10207399
    INDEX 00 02:34:14
FILE "03 - Once Upon a Time.wav" WAVE
    INDEX 01 00:00:00
  TRACK 04 AUDIO
    TITLE "(I Left My Heart In) San Francisco"
    PERFORMER "Tony Bennett"
    ISRC USSM16201106
    INDEX 00 02:56:37
FILE "04 - (I Left My Heart In) San Francisco.wav" WAVE
    INDEX 01 00:00:00
  TRACK 05 AUDIO
    TITLE "I Wanna Be Around"
    PERFORMER "Tony Bennett"
    ISRC USSM19930390
    INDEX 00 02:51:25
FILE "05 - I Wanna Be Around.wav" WAVE
    INDEX 01 00:00:00
  TRACK 06 AUDIO
    TITLE "The Good Life"
    PERFORMER "Tony Bennett"
    ISRC USSM19930389
    INDEX 00 02:10:23
FILE "06 - The Good Life.wav" WAVE
    INDEX 01 00:00:00
  TRACK 07 AUDIO
    TITLE "This Is All I Ask"
    PERFORMER "Tony Bennett"
    ISRC USSM10008250
    INDEX 00 02:14:59
FILE "07 - This Is All I Ask.wav" WAVE
    INDEX 01 00:00:00
  TRACK 08 AUDIO
    TITLE "When Joanna Loved Me"
    PERFORMER "Tony Bennett"
    ISRC USSM19930391
    INDEX 00 03:13:13
FILE "08 - When Joanna Loved Me.wav" WAVE
    INDEX 01 00:00:00
  TRACK 09 AUDIO
    TITLE "Speak Low"
    PERFORMER "Tony Bennett"
    ISRC USSM10601940
    INDEX 00 03:04:34
FILE "09 - Speak Low.wav" WAVE
    INDEX 01 00:00:00
  TRACK 10 AUDIO
    TITLE "Who Can I Turn To? (When Nobody Needs Me)"
    PERFORMER "Tony Bennett"
    ISRC USSM19917625
    INDEX 00 02:09:17
FILE "10 - Who Can I Turn To (When Nobody Needs Me).wav" WAVE
    INDEX 01 00:00:00
  TRACK 11 AUDIO
    TITLE "If I Ruled the World"
    PERFORMER "Tony Bennett"
    ISRC USSM10207406
    INDEX 00 02:54:66
FILE "11 - If I Ruled the World.wav" WAVE
    INDEX 01 00:00:00
  TRACK 12 AUDIO
    TITLE "Fly Me to the Moon (In Other Words)"
    PERFORMER "Tony Bennett"
    ISRC USSM10001766
    INDEX 00 03:00:72
FILE "12 - Fly Me to the Moon (In Other Words).wav" WAVE
    INDEX 01 00:00:00
  TRACK 13 AUDIO
    TITLE "The Shadow of Your Smile"
    PERFORMER "Tony Bennett"
    ISRC USSM10207398
    INDEX 00 04:11:08
FILE "13 - The Shadow of Your Smile.wav" WAVE
    INDEX 01 00:00:00
  TRACK 14 AUDIO
    TITLE "For Once in My Life"
    PERFORMER "Tony Bennett"
    ISRC USSM10008251
    INDEX 00 03:38:71
FILE "14 - For Once in My Life.wav" WAVE
    INDEX 01 00:00:00
  TRACK 15 AUDIO
    TITLE "My Favorite Things"
    PERFORMER "Tony Bennett"
    ISRC USSM10207408
    INDEX 00 03:22:33
FILE "15 - My Favorite Things.wav" WAVE
    INDEX 01 00:00:00
  TRACK 16 AUDIO
    TITLE "Something"
    PERFORMER "Tony Bennett"
    ISRC USSM16900189
    INDEX 00 03:16:08
FILE "16 - Something.wav" WAVE
    INDEX 01 00:00:00
Код:
[CUETools log; Date: 28.05.2020 0:15:37; Version: 2.1.6]
[CTDB TOCID: ZXsi_wGRNAx3Kzq_oo5nBzqbRdo-] found.
Track | CTDB Status
  1   | (24/24) Accurately ripped
  2   | (24/24) Accurately ripped
  3   | (24/24) Accurately ripped
  4   | (24/24) Accurately ripped
  5   | (24/24) Accurately ripped
  6   | (24/24) Accurately ripped
  7   | (24/24) Accurately ripped
  8   | (24/24) Accurately ripped
  9   | (24/24) Accurately ripped
 10   | (24/24) Accurately ripped
 11   | (24/24) Accurately ripped
 12   | (24/24) Accurately ripped
 13   | (24/24) Accurately ripped
 14   | (24/24) Accurately ripped
 15   | (24/24) Accurately ripped
 16   | (23/24) Accurately ripped
[AccurateRip ID: 001a8085-014224fc-d50b4810] found.
Track   [  CRC   |   V2   ] Status
 01     [55587b5b|57239418] (07+17/24) Accurately ripped
 02     [7b1b80d3|adf54e9c] (07+17/24) Accurately ripped
 03     [9b67f06e|0a35527a] (07+17/24) Accurately ripped
 04     [bfa243aa|7297c0e4] (07+17/24) Accurately ripped
 05     [9631fa15|f6354cb5] (07+17/24) Accurately ripped
 06     [d763971f|5d90b0be] (07+17/24) Accurately ripped
 07     [34697c8e|311372ba] (07+17/24) Accurately ripped
 08     [2a5ff703|e3de61dd] (07+17/24) Accurately ripped
 09     [3f7d1106|5edcacef] (07+17/24) Accurately ripped
 10     [8cb5ad53|6f44298a] (07+17/24) Accurately ripped
 11     [f1e83701|5becef75] (07+17/24) Accurately ripped
 12     [6d9a2d4e|c3a5c980] (07+17/24) Accurately ripped
 13     [bfab901e|91da6946] (07+17/24) Accurately ripped
 14     [badfa9f9|5e10d3b4] (07+17/24) Accurately ripped
 15     [23a22d11|94519678] (07+17/24) Accurately ripped
 16     [78338610|dadb892e] (06+17/23) Accurately ripped
Track Peak [ CRC32  ] [W/O NULL] [  LOG   ]
 --  100,0 [213D73B0] [A4BEC5B4]
 01   96,3 [CD0BBE09] [81BD3055]   CRC32
 02   99,9 [3E083DC5] [4D133B24]   CRC32
 03   89,0 [3DBAC428] [7FA6649D]   CRC32
 04   89,0 [55E2D047] [5CF61D9D]   CRC32
 05   99,9 [D9E76720] [99617963]   CRC32
 06   94,3 [61B10899] [E075CFA0]   CRC32
 07   96,9 [FF26115A] [301FF3EB]   CRC32
 08   99,6 [C0D671A0] [3AEE8399]   CRC32
 09   99,8 [8C7D714F] [DEBE41F6]   CRC32
 10   99,8 [414354A2] [D8651CFB]   CRC32
 11   99,9 [240DFC11] [A717D13A]   CRC32
 12   84,9 [1951B6E4] [106A51E4]   CRC32
 13   95,0 [FF10D83F] [E6D007AF]   CRC32
 14   99,9 [267BDBD9] [9E3E5AB0]   CRC32
 15  100,0 [B8EC6309] [FD8F4AFE]   CRC32
 16   71,1 [911009DE] [C56FA72D]   CRC32
Released the month that Tony Bennett turned 80, this LP-length compilation of his 1960s records gives a good account of his second decade of recording, even if it doesn't quite live up to the "greatest hits" claim of its title. All of Bennett's Top 40 pop hits of the '60s are included, among them the Top 20 entries "I Left My Heart in San Francisco," "I Wanna Be Around," and "The Good Life." But the compilers were more concerned with presenting 48 minutes of highlights of the '60s tracks than with following the singles charts slavishly. They signal this right at the beginning by starting with the non-hit tracks "Put on a Happy Face," "The Best Is Yet to Come," and "Once Upon a Time." Proceeding in chronological order by recording date, they then select from among the modest hits Bennett enjoyed in the wake of his comeback with the Grammy-winning "I Left My Heart in San Francisco" in 1962, adding in the non-hit songs "Speak Low" and "My Favorite Things" as they make their way to the end of the decade, when Bennett was recording more contemporary fare, such as the Beatles' "Something." The '60s was arguably Bennett's most accomplished decade artistically, even while it became commercially problematic as the impact of the British Invasion increased from 1964 on. Bennett was not primarily a singles artist by this point, and the compilers have balanced the biggest hits with other worthy material. Given its length, this album is no more than a sampling of Bennett's '60s work. But it does arguably feature the best three-quarters of an hour of his recorded work in the decade.
Правила, инструкции, FAQ!!!
Торрент  Добавлен [22 июн 2020, 15:37] Скачать торрент Магнет ссылка
Скачать торрент
[ Размер 12.61 КБ / Просмотров 1 ]

Статус
Проверен 
 
Размер  276.45 МБ
Приватный: Нет (DHT включён)
.torrent скачан  0
 


     Отправить личное сообщение
   
Страница 1 из 1
Показать сообщения за:  Поле сортировки  
Начать новую тему Ответить на тему


Сейчас этот форум просматривают: нет зарегистрированных пользователей и гости: 0


Вы не можете начинать темы
Вы не можете отвечать на сообщения
Вы не можете редактировать свои сообщения
Вы не можете удалять свои сообщения
Вы не можете добавлять вложения

Перейти:  
cron