Начать новую тему Ответить на тему
Статистика раздачи
Размер: 240.55 МБ | Добавлен: 22 июн 2020, 15:37 | Скачали: 0
Сидеров: 0  [0 байт/сек]    Личеров: 0  [0 байт/сек]
Пред. тема | След. тема 

Автор
Сообщение

СообщениеДобавлено: 22 июн 2020, 15:37 

Ответить с цитатой 

Tony Bennett - Tony Bennett's Greatest Hits of the '50s
Жанр: Vocal Jazz
Носитель: CD
Страна-производитель диска (релиза): США
Год издания: 2006
Издатель (лейбл): Columbia/Legacy
Номер по каталогу: 82876 84786 2
Аудиокодек: FLAC (*.flac)
Тип рипа: tracks+.cue
Продолжительность: 00:46:08
Источник: catfish27
Наличие сканов в содержимом раздачи: нет
Треклист:
01. The Boulevard of Broken Dreams (Gigolo and Gigolette) (2:58)
02. Because of You (2:59)
03. Cold, Cold Heart (2:40)
04. Blue Velvet (3:03)
05. Rags to Riches (2:51)
06. Stranger in Paradise (3:05)
07. Sing You Sinners (2:17)
08. Just in Time (2:35)
09. Ca, c'est l'amour (2:48)
10. It Amazes Me (3:24)
11. Firefly (1:59)
12. The Party's Over (3:05)
13. Lost in the Stars (4:02)
14. Lullaby of Broadway (3:12)
15. Smile (2:52)
16. Climb Ev'ry Mountain (2:18)
Код:
X Lossless Decoder version 20170729 (150.3)
XLD extraction logfile from 2017-09-11 13:18:32 -0700
Tony Bennett / Tony Bennett's Greatest Hits of the '50s
Used drive : TSSTcorp BDDVDW SE-506BB (revision TS00)
Media type : Pressed CD
Ripper mode             : XLD Secure Ripper
Disable audio cache     : OK for the drive with a cache less than 1375KiB
Make use of C2 pointers : NO
Read offset correction  : 6
Max retry count         : 100
Gap status              : Analyzed, Appended (except HTOA)
TOC of the extracted CD
     Track |   Start  |  Length  | Start sector | End sector
    ---------------------------------------------------------
        1  | 00:00:00 | 02:57:72 |         0    |    13346
        2  | 02:57:72 | 02:58:66 |     13347    |    26762
        3  | 05:56:63 | 02:39:73 |     26763    |    38760
        4  | 08:36:61 | 03:02:70 |     38761    |    52480
        5  | 11:39:56 | 02:50:41 |     52481    |    65271
        6  | 14:30:22 | 03:05:24 |     65272    |    79170
        7  | 17:35:46 | 02:16:74 |     79171    |    89444
        8  | 19:52:45 | 02:34:73 |     89445    |   101067
        9  | 22:27:43 | 02:47:51 |    101068    |   113643
       10  | 25:15:19 | 03:24:27 |    113644    |   128970
       11  | 28:39:46 | 01:59:05 |    128971    |   137900
       12  | 30:38:51 | 03:05:22 |    137901    |   151797
       13  | 33:43:73 | 04:01:38 |    151798    |   169910
       14  | 37:45:36 | 03:12:22 |    169911    |   184332
       15  | 40:57:58 | 02:51:50 |    184333    |   197207
       16  | 43:49:33 | 02:18:19 |    197208    |   207576
AccurateRip Summary (DiscID: 001ad1d3-01420fc3-d70acf10)
    Track 01 : OK (v1+v2, confidence 8/8)
    Track 02 : OK (v1+v2, confidence 8/8)
    Track 03 : OK (v1+v2, confidence 8/8)
    Track 04 : OK (v1+v2, confidence 8/8)
    Track 05 : OK (v1+v2, confidence 8/8)
    Track 06 : OK (v1+v2, confidence 8/8)
    Track 07 : OK (v1+v2, confidence 8/8)
    Track 08 : OK (v1+v2, confidence 8/8)
    Track 09 : OK (v1+v2, confidence 8/8)
    Track 10 : OK (v1+v2, confidence 8/8)
    Track 11 : OK (v1+v2, confidence 9/9)
    Track 12 : OK (v1+v2, confidence 8/8)
    Track 13 : OK (v1+v2, confidence 8/8)
    Track 14 : OK (v1+v2, confidence 8/8)
    Track 15 : OK (v1+v2, confidence 8/8)
    Track 16 : OK (v1+v2, confidence 8/8)
        ->All tracks accurately ripped.
All Tracks
    Album gain               : -4.75 dB
    Peak                     : 0.998871
    Statistics
        Read error                           : 0
        Jitter error (maybe fixed)           : 3
        Retry sector count                   : 531
        Damaged sector count                 : 0
Track 01
    Filename : /Volumes/Hollywood and Vine/Rips/Tony Bennett - Tony Bennett's Greatest Hits of the '50s (2000) [FLAC]/01 The Boulevard of Broken Dreams.flac
    Pre-gap length : 00:02:00
    Track gain               : -1.38 dB
    Peak                     : 0.620636
    CRC32 hash (test run)    : 4970D1B6
    CRC32 hash               : 4970D1B6
    CRC32 hash (skip zero)   : C55C054B
    AccurateRip v1 signature : 25C8F270
    AccurateRip v2 signature : 9950C0EF
        ->Accurately ripped (v1+v2, confidence 4+4/8)
    Statistics
        Read error                           : 0
        Jitter error (maybe fixed)           : 0
        Retry sector count                   : 0
        Damaged sector count                 : 0
Track 02
    Filename : /Volumes/Hollywood and Vine/Rips/Tony Bennett - Tony Bennett's Greatest Hits of the '50s (2000) [FLAC]/02 Because of You.flac
    Pre-gap length : 00:01:71
    Track gain               : -3.24 dB
    Peak                     : 0.735016
    CRC32 hash (test run)    : FD5D1DB1
    CRC32 hash               : FD5D1DB1
    CRC32 hash (skip zero)   : F5E4B1BC
    AccurateRip v1 signature : 88F3963B
    AccurateRip v2 signature : 864ABCB4
        ->Accurately ripped (v1+v2, confidence 4+4/8)
    Statistics
        Read error                           : 0
        Jitter error (maybe fixed)           : 0
        Retry sector count                   : 0
        Damaged sector count                 : 0
Track 03
    Filename : /Volumes/Hollywood and Vine/Rips/Tony Bennett - Tony Bennett's Greatest Hits of the '50s (2000) [FLAC]/03 Cold, Cold Heart.flac
    Pre-gap length : 00:01:58
    Track gain               : -3.80 dB
    Peak                     : 0.758392
    CRC32 hash (test run)    : 581E8B34
    CRC32 hash               : 581E8B34
    CRC32 hash (skip zero)   : 9A4EF77C
    AccurateRip v1 signature : 05327702
    AccurateRip v2 signature : EB912B2B
        ->Accurately ripped (v1+v2, confidence 4+4/8)
    Statistics
        Read error                           : 0
        Jitter error (maybe fixed)           : 0
        Retry sector count                   : 0
        Damaged sector count                 : 0
Track 04
    Filename : /Volumes/Hollywood and Vine/Rips/Tony Bennett - Tony Bennett's Greatest Hits of the '50s (2000) [FLAC]/04 Blue Velvet.flac
    Pre-gap length : 00:02:46
    Track gain               : -3.80 dB
    Peak                     : 0.598541
    CRC32 hash (test run)    : 1A57DA1A
    CRC32 hash               : 1A57DA1A
    CRC32 hash (skip zero)   : 1A44AED3
    AccurateRip v1 signature : B6F1E75F
    AccurateRip v2 signature : 39AABF48
        ->Accurately ripped (v1+v2, confidence 4+4/8)
    Statistics
        Read error                           : 0
        Jitter error (maybe fixed)           : 0
        Retry sector count                   : 0
        Damaged sector count                 : 0
Track 05
    Filename : /Volumes/Hollywood and Vine/Rips/Tony Bennett - Tony Bennett's Greatest Hits of the '50s (2000) [FLAC]/05 Rags to Riches.flac
    Pre-gap length : 00:01:70
    Track gain               : -2.20 dB
    Peak                     : 0.694427
    CRC32 hash (test run)    : AAC0E8E8
    CRC32 hash               : AAC0E8E8
    CRC32 hash (skip zero)   : C13FD600
    AccurateRip v1 signature : 5DC6422C
    AccurateRip v2 signature : 255422CD
        ->Accurately ripped (v1+v2, confidence 4+4/8)
    Statistics
        Read error                           : 0
        Jitter error (maybe fixed)           : 0
        Retry sector count                   : 0
        Damaged sector count                 : 0
Track 06
    Filename : /Volumes/Hollywood and Vine/Rips/Tony Bennett - Tony Bennett's Greatest Hits of the '50s (2000) [FLAC]/06 Stranger in Paradise.flac
    Pre-gap length : 00:01:63
    Track gain               : -2.80 dB
    Peak                     : 0.569122
    CRC32 hash (test run)    : 1274FD59
    CRC32 hash               : 1274FD59
    CRC32 hash (skip zero)   : 4BDC9084
    AccurateRip v1 signature : A8D91858
    AccurateRip v2 signature : 84D45E2D
        ->Accurately ripped (v1+v2, confidence 4+4/8)
    Statistics
        Read error                           : 0
        Jitter error (maybe fixed)           : 1
        Retry sector count                   : 0
        Damaged sector count                 : 0
Track 07
    Filename : /Volumes/Hollywood and Vine/Rips/Tony Bennett - Tony Bennett's Greatest Hits of the '50s (2000) [FLAC]/07 Sing You Sinners.flac
    Pre-gap length : 00:02:25
    Track gain               : -4.83 dB
    Peak                     : 0.974426
    CRC32 hash (test run)    : C2CB16DD
    CRC32 hash               : C2CB16DD
    CRC32 hash (skip zero)   : 4E322335
    AccurateRip v1 signature : E9D49388
    AccurateRip v2 signature : 55EB0146
        ->Accurately ripped (v1+v2, confidence 4+4/8)
    Statistics
        Read error                           : 0
        Jitter error (maybe fixed)           : 0
        Retry sector count                   : 0
        Damaged sector count                 : 0
Track 08
    Filename : /Volumes/Hollywood and Vine/Rips/Tony Bennett - Tony Bennett's Greatest Hits of the '50s (2000) [FLAC]/08 Just in Time.flac
    Pre-gap length : 00:02:11
    Track gain               : -4.62 dB
    Peak                     : 0.779175
    CRC32 hash (test run)    : EE9B1858
    CRC32 hash               : EE9B1858
    CRC32 hash (skip zero)   : 40CBE8C4
    AccurateRip v1 signature : C23EDCA7
    AccurateRip v2 signature : 10A17C48
        ->Accurately ripped (v1+v2, confidence 4+4/8)
    Statistics
        Read error                           : 0
        Jitter error (maybe fixed)           : 1
        Retry sector count                   : 0
        Damaged sector count                 : 0
Track 09
    Filename : /Volumes/Hollywood and Vine/Rips/Tony Bennett - Tony Bennett's Greatest Hits of the '50s (2000) [FLAC]/09 Ca, C'est L'amour.flac
    Pre-gap length : 00:02:22
    Track gain               : -3.48 dB
    Peak                     : 0.908783
    CRC32 hash (test run)    : B4BD3484
    CRC32 hash               : B4BD3484
    CRC32 hash (skip zero)   : BC9C25CF
    AccurateRip v1 signature : 184EEF89
    AccurateRip v2 signature : B3A94D5C
        ->Accurately ripped (v1+v2, confidence 4+4/8)
    Statistics
        Read error                           : 0
        Jitter error (maybe fixed)           : 0
        Retry sector count                   : 0
        Damaged sector count                 : 0
Track 10
    Filename : /Volumes/Hollywood and Vine/Rips/Tony Bennett - Tony Bennett's Greatest Hits of the '50s (2000) [FLAC]/10 It Amazes Me.flac
    Pre-gap length : 00:02:13
    Track gain               : -3.25 dB
    Peak                     : 0.872437
    CRC32 hash (test run)    : 4E36640F
    CRC32 hash               : 4E36640F
    CRC32 hash (skip zero)   : 9DAF0942
    AccurateRip v1 signature : 4DA955AE
    AccurateRip v2 signature : 744AF48D
        ->Accurately ripped (v1+v2, confidence 4+4/8)
    Statistics
        Read error                           : 0
        Jitter error (maybe fixed)           : 1
        Retry sector count                   : 531
        Damaged sector count                 : 0
Track 11
    Filename : /Volumes/Hollywood and Vine/Rips/Tony Bennett - Tony Bennett's Greatest Hits of the '50s (2000) [FLAC]/11 Firefly.flac
    Pre-gap length : 00:01:53
    Track gain               : -5.23 dB
    Peak                     : 0.777344
    CRC32 hash (test run)    : 62E97FFA
    CRC32 hash               : 62E97FFA
    CRC32 hash (skip zero)   : 9ECF5C30
    AccurateRip v1 signature : 176DA622
    AccurateRip v2 signature : 7E3CA453
        ->Accurately ripped (v1+v2, confidence 5+4/9)
    Statistics
        Read error                           : 0
        Jitter error (maybe fixed)           : 0
        Retry sector count                   : 0
        Damaged sector count                 : 0
Track 12
    Filename : /Volumes/Hollywood and Vine/Rips/Tony Bennett - Tony Bennett's Greatest Hits of the '50s (2000) [FLAC]/12 The Party's Over.flac
    Pre-gap length : 00:01:43
    Track gain               : -5.67 dB
    Peak                     : 0.974274
    CRC32 hash (test run)    : 677162E6
    CRC32 hash               : 677162E6
    CRC32 hash (skip zero)   : C814B02D
    AccurateRip v1 signature : A9B36D9B
    AccurateRip v2 signature : 15BC5298
        ->Accurately ripped (v1+v2, confidence 4+4/8)
    Statistics
        Read error                           : 0
        Jitter error (maybe fixed)           : 0
        Retry sector count                   : 0
        Damaged sector count                 : 0
Track 13
    Filename : /Volumes/Hollywood and Vine/Rips/Tony Bennett - Tony Bennett's Greatest Hits of the '50s (2000) [FLAC]/13 Lost in the Stars.flac
    Pre-gap length : 00:02:05
    Track gain               : -2.31 dB
    Peak                     : 0.593506
    CRC32 hash (test run)    : C36E3A5B
    CRC32 hash               : C36E3A5B
    CRC32 hash (skip zero)   : CC12CD7D
    AccurateRip v1 signature : 8BB70DD4
    AccurateRip v2 signature : 40138723
        ->Accurately ripped (v1+v2, confidence 4+4/8)
    Statistics
        Read error                           : 0
        Jitter error (maybe fixed)           : 0
        Retry sector count                   : 0
        Damaged sector count                 : 0
Track 14
    Filename : /Volumes/Hollywood and Vine/Rips/Tony Bennett - Tony Bennett's Greatest Hits of the '50s (2000) [FLAC]/14 Lullaby of Broadway.flac
    Pre-gap length : 00:01:24
    Track gain               : -4.23 dB
    Peak                     : 0.998718
    CRC32 hash (test run)    : 5CDC9E48
    CRC32 hash               : 5CDC9E48
    CRC32 hash (skip zero)   : 117580A8
    AccurateRip v1 signature : 15D41DFC
    AccurateRip v2 signature : 20754A6A
        ->Accurately ripped (v1+v2, confidence 4+4/8)
    Statistics
        Read error                           : 0
        Jitter error (maybe fixed)           : 0
        Retry sector count                   : 0
        Damaged sector count                 : 0
Track 15
    Filename : /Volumes/Hollywood and Vine/Rips/Tony Bennett - Tony Bennett's Greatest Hits of the '50s (2000) [FLAC]/15 Smile.flac
    Pre-gap length : 00:01:42
    Track gain               : -5.20 dB
    Peak                     : 0.843079
    CRC32 hash (test run)    : 5DF443EE
    CRC32 hash               : 5DF443EE
    CRC32 hash (skip zero)   : A70E3ADC
    AccurateRip v1 signature : B65419C7
    AccurateRip v2 signature : E7670B9F
        ->Accurately ripped (v1+v2, confidence 4+4/8)
    Statistics
        Read error                           : 0
        Jitter error (maybe fixed)           : 0
        Retry sector count                   : 0
        Damaged sector count                 : 0
Track 16
    Filename : /Volumes/Hollywood and Vine/Rips/Tony Bennett - Tony Bennett's Greatest Hits of the '50s (2000) [FLAC]/16 Climb Ev'ry Mountain.flac
    Pre-gap length : 00:02:15
    Track gain               : -8.17 dB
    Peak                     : 0.998871
    CRC32 hash (test run)    : 10E04FD1
    CRC32 hash               : 10E04FD1
    CRC32 hash (skip zero)   : 38D1A417
    AccurateRip v1 signature : 3728963B
    AccurateRip v2 signature : 7C9FEC1E
        ->Accurately ripped (v1+v2, confidence 4+4/8)
    Statistics
        Read error                           : 0
        Jitter error (maybe fixed)           : 0
        Retry sector count                   : 0
        Damaged sector count                 : 0
No errors occurred
End of status report
-----BEGIN XLD SIGNATURE-----
P.ezInsmSU6yatSIyumLYSwTSAURy0.mGyFd55b09DGq29fNSUG_OyszRggAnoKlE4zlOdMCLl5lkQ8KyZd3X51r.qfPgYPXGwaLGge
-----END XLD SIGNATURE-----
Код:
TITLE "Greatest Hits of the '50s"
PERFORMER "Tony Bennett"
REM GENRE "Jazz"
REM DATE "2006"
REM DISCID D70ACF10
REM REPLAYGAIN_ALBUM_GAIN -4.75 dB
REM REPLAYGAIN_ALBUM_PEAK 0.998871
FILE "01 - The Boulevard of Broken Dreams (Gigolo and Gigolette).flac" WAVE
  TRACK 01 AUDIO
    TITLE "The Boulevard of Broken Dreams (Gigolo and Gigolette)"
    ISRC USSM15000084
    REM REPLAYGAIN_TRACK_GAIN -1.38 dB
    REM REPLAYGAIN_TRACK_PEAK 0.620636
    INDEX 01 00:00:00
  TRACK 02 AUDIO
    TITLE "Because of You"
    ISRC USSM15100070
    REM REPLAYGAIN_TRACK_GAIN -3.24 dB
    REM REPLAYGAIN_TRACK_PEAK 0.735016
    INDEX 00 02:56:01
FILE "02 - Because of You.flac" WAVE
    INDEX 01 00:00:00
  TRACK 03 AUDIO
    TITLE "Cold, Cold Heart"
    ISRC USSM15100071
    REM REPLAYGAIN_TRACK_GAIN -3.80 dB
    REM REPLAYGAIN_TRACK_PEAK 0.758392
    INDEX 00 02:57:08
FILE "03 - Cold, Cold Heart.flac" WAVE
    INDEX 01 00:00:00
  TRACK 04 AUDIO
    TITLE "Blue Velvet"
    ISRC USSM15100072
    REM REPLAYGAIN_TRACK_GAIN -3.80 dB
    REM REPLAYGAIN_TRACK_PEAK 0.598541
    INDEX 00 02:37:27
FILE "04 - Blue Velvet.flac" WAVE
    INDEX 01 00:00:00
  TRACK 05 AUDIO
    TITLE "Rags to Riches"
    ISRC USSM15300066
    REM REPLAYGAIN_TRACK_GAIN -2.20 dB
    REM REPLAYGAIN_TRACK_PEAK 0.694427
    INDEX 00 03:01:00
FILE "05 - Rags to Riches.flac" WAVE
    INDEX 01 00:00:00
  TRACK 06 AUDIO
    TITLE "Stranger in Paradise"
    ISRC USSM19930386
    REM REPLAYGAIN_TRACK_GAIN -2.80 dB
    REM REPLAYGAIN_TRACK_PEAK 0.569122
    INDEX 00 02:48:53
FILE "06 - Stranger in Paradise.flac" WAVE
    INDEX 01 00:00:00
  TRACK 07 AUDIO
    TITLE "Sing You Sinners"
    ISRC USSM15500064
    REM REPLAYGAIN_TRACK_GAIN -4.83 dB
    REM REPLAYGAIN_TRACK_PEAK 0.974426
    INDEX 00 03:02:74
FILE "07 - Sing You Sinners.flac" WAVE
    INDEX 01 00:00:00
  TRACK 08 AUDIO
    TITLE "Just in Time"
    ISRC USSM10207400
    REM REPLAYGAIN_TRACK_GAIN -4.62 dB
    REM REPLAYGAIN_TRACK_PEAK 0.779175
    INDEX 00 02:14:63
FILE "08 - Just in Time.flac" WAVE
    INDEX 01 00:00:00
  TRACK 09 AUDIO
    TITLE "Ca, c'est l'amour"
    ISRC USSM15700143
    REM REPLAYGAIN_TRACK_GAIN -3.48 dB
    REM REPLAYGAIN_TRACK_PEAK 0.908783
    INDEX 00 02:32:51
FILE "09 - Ca, c'est l'amour.flac" WAVE
    INDEX 01 00:00:00
  TRACK 10 AUDIO
    TITLE "It Amazes Me"
    ISRC USSM10207401
    REM REPLAYGAIN_TRACK_GAIN -3.25 dB
    REM REPLAYGAIN_TRACK_PEAK 0.872437
    INDEX 00 02:45:38
FILE "10 - It Amazes Me.flac" WAVE
    INDEX 01 00:00:00
  TRACK 11 AUDIO
    TITLE "Firefly"
    ISRC USSM15801228
    REM REPLAYGAIN_TRACK_GAIN -5.23 dB
    REM REPLAYGAIN_TRACK_PEAK 0.777344
    INDEX 00 03:22:49
FILE "11 - Firefly.flac" WAVE
    INDEX 01 00:00:00
  TRACK 12 AUDIO
    TITLE "The Party's Over"
    ISRC USSM10402381
    REM REPLAYGAIN_TRACK_GAIN -5.67 dB
    REM REPLAYGAIN_TRACK_PEAK 0.974274
    INDEX 00 01:57:37
FILE "12 - The Party's Over.flac" WAVE
    INDEX 01 00:00:00
  TRACK 13 AUDIO
    TITLE "Lost in the Stars"
    ISRC USSM15800222
    REM REPLAYGAIN_TRACK_GAIN -2.31 dB
    REM REPLAYGAIN_TRACK_PEAK 0.593506
    INDEX 00 03:03:17
FILE "13 - Lost in the Stars.flac" WAVE
    INDEX 01 00:00:00
  TRACK 14 AUDIO
    TITLE "Lullaby of Broadway"
    ISRC USSM15800223
    REM REPLAYGAIN_TRACK_GAIN -4.23 dB
    REM REPLAYGAIN_TRACK_PEAK 0.998718
    INDEX 00 04:00:14
FILE "14 - Lullaby of Broadway.flac" WAVE
    INDEX 01 00:00:00
  TRACK 15 AUDIO
    TITLE "Smile"
    ISRC USSM15901594
    REM REPLAYGAIN_TRACK_GAIN -5.20 dB
    REM REPLAYGAIN_TRACK_PEAK 0.843079
    INDEX 00 03:10:55
FILE "15 - Smile.flac" WAVE
    INDEX 01 00:00:00
  TRACK 16 AUDIO
    TITLE "Climb Ev'ry Mountain"
    ISRC USSM15900928
    REM REPLAYGAIN_TRACK_GAIN -8.17 dB
    REM REPLAYGAIN_TRACK_PEAK 0.998871
    INDEX 00 02:49:35
FILE "16 - Climb Ev'ry Mountain.flac" WAVE
    INDEX 01 00:00:00
Код:
[CUETools log; Date: 28.05.2020 0:03:16; Version: 2.1.6]
[CTDB TOCID: _RG7OjODZgwmxmwvkiE2HWx1HeE-] found.
Track | CTDB Status
  1   | (6/6) Accurately ripped
  2   | (6/6) Accurately ripped
  3   | (6/6) Accurately ripped
  4   | (6/6) Accurately ripped
  5   | (6/6) Accurately ripped
  6   | (6/6) Accurately ripped
  7   | (6/6) Accurately ripped
  8   | (6/6) Accurately ripped
  9   | (6/6) Accurately ripped
 10   | (6/6) Accurately ripped
 11   | (6/6) Accurately ripped
 12   | (6/6) Accurately ripped
 13   | (6/6) Accurately ripped
 14   | (6/6) Accurately ripped
 15   | (6/6) Accurately ripped
 16   | (6/6) Accurately ripped
[AccurateRip ID: 001ad1d3-01420fc3-d70acf10] found.
Track   [  CRC   |   V2   ] Status
 01     [25c8f270|9950c0ef] (04+05/11) Accurately ripped
 02     [88f3963b|864abcb4] (04+05/11) Accurately ripped
 03     [05327702|eb912b2b] (04+05/11) Accurately ripped
 04     [b6f1e75f|39aabf48] (04+05/11) Accurately ripped
 05     [5dc6422c|255422cd] (04+05/11) Accurately ripped
 06     [a8d91858|84d45e2d] (04+05/11) Accurately ripped
 07     [e9d49388|55eb0146] (04+05/11) Accurately ripped
 08     [c23edca7|10a17c48] (04+05/11) Accurately ripped
 09     [184eef89|b3a94d5c] (04+05/11) Accurately ripped
 10     [4da955ae|744af48d] (04+05/11) Accurately ripped
 11     [176da622|7e3ca453] (05+05/12) Accurately ripped
 12     [a9b36d9b|15bc5298] (04+05/11) Accurately ripped
 13     [8bb70dd4|40138723] (04+05/11) Accurately ripped
 14     [15d41dfc|20754a6a] (04+05/11) Accurately ripped
 15     [b65419c7|e7670b9f] (04+05/11) Accurately ripped
 16     [3728963b|7c9fec1e] (04+05/11) Accurately ripped
Offsetted by 1281:
 01     [3b3ccc68] (00/11) No match (V2 was not tested)
 02     [51f0f72e] (00/11) No match (V2 was not tested)
 03     [b5889bd3] (00/11) No match (V2 was not tested)
 04     [1f895dae] (00/11) No match (V2 was not tested)
 05     [cd18b0c0] (00/11) No match (V2 was not tested)
 06     [0ce17a69] (00/11) No match (V2 was not tested)
 07     [a9db5dd1] (00/11) No match (V2 was not tested)
 08     [9ffe2a7c] (00/11) No match (V2 was not tested)
 09     [38025009] (00/11) No match (V2 was not tested)
 10     [7dd156cc] (00/11) No match (V2 was not tested)
 11     [926742d4] (00/12) No match (V2 was not tested)
 12     [1acb4dce] (00/11) No match (V2 was not tested)
 13     [3b21fd8f] (00/11) No match (V2 was not tested)
 14     [6dd56cc8] (00/11) No match (V2 was not tested)
 15     [b2fbf974] (00/11) No match (V2 was not tested)
 16     [63c0cb0e] (00/11) No match (V2 was not tested)
Track Peak [ CRC32  ] [W/O NULL]
 --   99,8 [81E40595] [FEBC0E99]
 01   62,0 [4970D1B6] [C55C054B]
 02   73,5 [FD5D1DB1] [F5E4B1BC]
 03   75,8 [581E8B34] [9A4EF77C]
 04   59,8 [1A57DA1A] [1A44AED3]
 05   69,4 [AAC0E8E8] [C13FD600]
 06   56,9 [1274FD59] [4BDC9084]
 07   97,4 [C2CB16DD] [4E322335]
 08   77,9 [EE9B1858] [40CBE8C4]
 09   90,8 [B4BD3484] [BC9C25CF]
 10   87,2 [4E36640F] [9DAF0942]
 11   77,7 [62E97FFA] [9ECF5C30]
 12   97,4 [677162E6] [C814B02D]
 13   59,3 [C36E3A5B] [CC12CD7D]
 14   99,8 [5CDC9E48] [117580A8]
 15   84,3 [5DF443EE] [A70E3ADC]
 16   99,8 [10E04FD1] [38D1A417]
Released the month that Tony Bennett turned 80, this LP-length compilation of his 1950s records gives a good account of his first decade of recording, even if it does not live up to the "greatest hits" claim of its title. Some of Bennett's greatest hits of the '50s are included, among them the Billboard chart-toppers "Because of You," "Cold, Cold Heart," and "Rags to Riches." But the compilers were more concerned with presenting 46 minutes of highlights of the '50s tracks than in following the singles charts. They signal this right at the beginning by starting with Bennett's first recording for Columbia Records, "The Boulevard of Broken Dreams," which was not a hit at all. Proceeding in chronological order by recording date, they exhaust the first half of the '50s, Bennett's most successful as a singles artist, by the first half-dozen tracks, excluding numerous Top Ten and Top 20 hits. In the second half of the decade, Bennett scored consistently on the singles chart, but he only enjoyed one more Top Ten hit, "In the Middle of an Island" (not heard here). He turned increasingly to the efforts of the top Broadway songwriters, such as Comden-Green-Styne's "The Party's Over" from Bells Are Ringing and Kurt Weill and Maxwell Anderson's "Lost in the Stars" from the show of the same name. These songs were not hits, but they were among his most memorable recordings of the period, and they are featured here. Bennett also conducted jazz experiments, such as recording an album with the Count Basie Orchestra, two songs from which are included. Given its length, this album is no more than a sampling of Bennett's '50s work, and it will disappoint anyone who actually expects it to contain his "greatest hits." But it does arguably feature the best three-quarters-of-an-hour of his recorded work in the decade.
Правила, инструкции, FAQ!!!
Торрент  Добавлен [22 июн 2020, 15:37] Скачать торрент Магнет ссылка
Скачать торрент
[ Размер 20.6 КБ / Просмотров 1 ]

Статус
Проверен 
 
Размер  240.55 МБ
Приватный: Нет (DHT включён)
.torrent скачан  0
 


     Отправить личное сообщение
   
Страница 1 из 1
Показать сообщения за:  Поле сортировки  
Начать новую тему Ответить на тему


Сейчас этот форум просматривают: нет зарегистрированных пользователей и гости: 0


Вы не можете начинать темы
Вы не можете отвечать на сообщения
Вы не можете редактировать свои сообщения
Вы не можете удалять свои сообщения
Вы не можете добавлять вложения

Перейти:  
cron