Начать новую тему Ответить на тему
Статистика раздачи
Размер: 267.57 МБ | Добавлен: 22 июн 2020, 15:37 | Скачали: 0
Сидеров: 0  [0 байт/сек]    Личеров: 0  [0 байт/сек]
Пред. тема | След. тема 

Автор
Сообщение

СообщениеДобавлено: 22 июн 2020, 15:37 

Ответить с цитатой 

Tony Bennett - Steppin' Out
Жанр: Vocal Jazz
Носитель: CD
Страна-производитель диска (релиза): США
Год издания: 1993
Издатель (лейбл): Columbia
Номер по каталогу: CK 57424
Аудиокодек: FLAC (*.flac)
Тип рипа: tracks+.cue
Продолжительность: 00:52:55
Источник: redacted
Наличие сканов в содержимом раздачи: нет
Треклист:
01. Steppin' Out with My Baby (2:53)
02. Who Cares? (3:17)
03. Top Hat, White Tie and Tails (2:39)
04. They Can't Take That Away from Me (3:36)
05. Dancing in the Dark (3:24)
06. Shine on Your Shoes (2:22)
07. He Loves and She Loves (3:31)
08. They All Laughed (2:14)
09. I Concentrate on You (3:03)
10. You're All the World to Me (3:08)
11. All of You (3:36)
12. Nice Work If You Can Get It (3:51)
13. It Only Happens When I Dance with You (2:11)
14. Shall We Dance (1:34)
15. You're Easy to Dance With/Change Partners/Cheek to Cheek (4:39)
16. I Guess I'll Have to Change My Plan (2:46)
17. That's Entertainment (2:02)
18. By Myself (2:09)
Код:
X Lossless Decoder version 20141129 (148.1)
XLD extraction logfile from 2016-02-07 12:48:14 -0500
Tony Bennett / Steppin' Out
Used drive : OPTIARC DVD RW AD-5680H (revision 3AHB)
Media type : Pressed CD
Ripper mode             : XLD Secure Ripper
Disable audio cache     : OK for the drive with a cache less than 1375KiB
Make use of C2 pointers : NO
Read offset correction  : 48
Max retry count         : 20
Gap status              : Analyzed, Appended (except HTOA)
TOC of the extracted CD
     Track |   Start  |  Length  | Start sector | End sector
    ---------------------------------------------------------
        1  | 00:00:00 | 02:53:25 |         0    |    12999
        2  | 02:53:25 | 03:17:32 |     13000    |    27806
        3  | 06:10:57 | 02:38:63 |     27807    |    39719
        4  | 08:49:45 | 03:36:32 |     39720    |    55951
        5  | 12:26:02 | 03:23:43 |     55952    |    71219
        6  | 15:49:45 | 02:22:10 |     71220    |    81879
        7  | 18:11:55 | 03:30:70 |     81880    |    97699
        8  | 21:42:50 | 02:14:20 |     97700    |   107769
        9  | 23:56:70 | 03:03:27 |    107770    |   121521
       10  | 27:00:22 | 03:08:18 |    121522    |   135639
       11  | 30:08:40 | 03:35:67 |    135640    |   151831
       12  | 33:44:32 | 03:51:28 |    151832    |   169184
       13  | 37:35:60 | 02:11:22 |    169185    |   179031
       14  | 39:47:07 | 01:33:65 |    179032    |   186071
       15  | 41:20:72 | 04:38:73 |    186072    |   206994
       16  | 45:59:70 | 02:46:12 |    206995    |   219456
       17  | 48:46:07 | 02:01:73 |    219457    |   228604
       18  | 50:48:05 | 02:09:25 |    228605    |   238304
List of alternate offset correction values
        #  | Absolute | Relative | Confidence
    ------------------------------------------
        1  |  -1625   |  -1673   |     14
        2  |  -1094   |  -1142   |     13
        3  |   -389   |   -437   |      8
        4  |  -1388   |  -1436   |      6
        5  |  -1215   |  -1263   |      5
        6  |  -2222   |  -2270   |      4
        7  |   -470   |   -518   |      3
AccurateRip Summary (DiscID: 0023942e-01d93327-ed0c6912)
    Track 01 : OK (v1+v2, confidence 22/74)
    Track 02 : OK (v1+v2, confidence 23/74)
    Track 03 : OK (v1+v2, confidence 23/74)
    Track 04 : OK (v1+v2, confidence 23/74)
    Track 05 : OK (v1+v2, confidence 23/73)
    Track 06 : OK (v1+v2, confidence 23/74)
    Track 07 : OK (v1+v2, confidence 23/75)
    Track 08 : OK (v1+v2, confidence 23/73)
    Track 09 : OK (v1+v2, confidence 23/74)
    Track 10 : OK (v1+v2, confidence 23/74)
    Track 11 : OK (v1+v2, confidence 22/73)
    Track 12 : OK (v1+v2, confidence 22/72)
    Track 13 : OK (v1+v2, confidence 22/73)
    Track 14 : OK (v1+v2, confidence 22/73)
    Track 15 : OK (v1+v2, confidence 22/72)
    Track 16 : OK (v1+v2, confidence 23/74)
    Track 17 : OK (v1+v2, confidence 22/73)
    Track 18 : OK (v1+v2, confidence 22/72)
        ->All tracks accurately ripped.
All Tracks
    Album gain               : -2.35 dB
    Peak                     : 0.999969
    Statistics
        Read error                           : 0
        Jitter error (maybe fixed)           : 11
        Retry sector count                   : 906
        Damaged sector count                 : 0
Track 01
    Filename : /Users/Administrator/Music/XLD/Tony Bennett - Steppin' Out [1993]/Tony Bennett - 01 - Steppin' Out With My Baby.flac
    Pre-gap length : 00:02:00
    Track gain               : -2.70 dB
    Peak                     : 0.999969
    CRC32 hash (test run)    : 38C2849B
    CRC32 hash               : 38C2849B
    CRC32 hash (skip zero)   : 6E38E73D
    AccurateRip v1 signature : 5581F2B1
    AccurateRip v2 signature : 0B03EC94
        ->Accurately ripped (v1+v2, confidence 9+13/74)
    Statistics
        Read error                           : 0
        Jitter error (maybe fixed)           : 0
        Retry sector count                   : 0
        Damaged sector count                 : 0
Track 02
    Filename : /Users/Administrator/Music/XLD/Tony Bennett - Steppin' Out [1993]/Tony Bennett - 02 - Who Cares .flac
    Track gain               : -2.92 dB
    Peak                     : 0.999939
    CRC32 hash (test run)    : C4917689
    CRC32 hash               : C4917689
    CRC32 hash (skip zero)   : F112DF88
    AccurateRip v1 signature : E9E4AD18
    AccurateRip v2 signature : EA9C9E66
        ->Accurately ripped (v1+v2, confidence 9+14/74)
    Statistics
        Read error                           : 0
        Jitter error (maybe fixed)           : 0
        Retry sector count                   : 0
        Damaged sector count                 : 0
Track 03
    Filename : /Users/Administrator/Music/XLD/Tony Bennett - Steppin' Out [1993]/Tony Bennett - 03 - Top Hat, White Tie And Tails.flac
    Pre-gap length : 00:00:15
    Track gain               : -3.11 dB
    Peak                     : 0.999969
    CRC32 hash (test run)    : 04C34A5C
    CRC32 hash               : 04C34A5C
    CRC32 hash (skip zero)   : 3F528581
    AccurateRip v1 signature : 0B3DCF6E
    AccurateRip v2 signature : DB182660
        ->Accurately ripped (v1+v2, confidence 9+14/74)
    Statistics
        Read error                           : 0
        Jitter error (maybe fixed)           : 0
        Retry sector count                   : 0
        Damaged sector count                 : 0
Track 04
    Filename : /Users/Administrator/Music/XLD/Tony Bennett - Steppin' Out [1993]/Tony Bennett - 04 - They Can't Take That Away From Me.flac
    Pre-gap length : 00:03:00
    Track gain               : 0.01 dB
    Peak                     : 0.762665
    CRC32 hash (test run)    : 483A9527
    CRC32 hash               : 483A9527
    CRC32 hash (skip zero)   : E29E5CC8
    AccurateRip v1 signature : B950C258
    AccurateRip v2 signature : 8334DB93
        ->Accurately ripped (v1+v2, confidence 9+14/74)
    Statistics
        Read error                           : 0
        Jitter error (maybe fixed)           : 0
        Retry sector count                   : 0
        Damaged sector count                 : 0
Track 05
    Filename : /Users/Administrator/Music/XLD/Tony Bennett - Steppin' Out [1993]/Tony Bennett - 05 - Dancing In The Dark.flac
    Pre-gap length : 00:02:67
    Track gain               : -1.96 dB
    Peak                     : 0.936646
    CRC32 hash (test run)    : 54C127C9
    CRC32 hash               : 54C127C9
    CRC32 hash (skip zero)   : 131C69FC
    AccurateRip v1 signature : 90EC9EA5
    AccurateRip v2 signature : 958207E7
        ->Accurately ripped (v1+v2, confidence 9+14/73)
    Statistics
        Read error                           : 0
        Jitter error (maybe fixed)           : 0
        Retry sector count                   : 0
        Damaged sector count                 : 0
Track 06
    Filename : /Users/Administrator/Music/XLD/Tony Bennett - Steppin' Out [1993]/Tony Bennett - 06 - Shine On Your Shoes.flac
    Pre-gap length : 00:03:53
    Track gain               : -5.06 dB
    Peak                     : 0.999969
    CRC32 hash (test run)    : 67867E36
    CRC32 hash               : 67867E36
    CRC32 hash (skip zero)   : 497FF696
    AccurateRip v1 signature : 2347BA87
    AccurateRip v2 signature : FF131133
        ->Accurately ripped (v1+v2, confidence 9+14/74)
    Statistics
        Read error                           : 0
        Jitter error (maybe fixed)           : 0
        Retry sector count                   : 0
        Damaged sector count                 : 0
Track 07
    Filename : /Users/Administrator/Music/XLD/Tony Bennett - Steppin' Out [1993]/Tony Bennett - 07 - He Loves And She Loves.flac
    Pre-gap length : 00:03:35
    Track gain               : 5.94 dB
    Peak                     : 0.501007
    CRC32 hash (test run)    : 68E92392
    CRC32 hash               : 68E92392
    CRC32 hash (skip zero)   : 2F494AF9
    AccurateRip v1 signature : 5CC8C4A6
    AccurateRip v2 signature : B44D2259
        ->Accurately ripped (v1+v2, confidence 9+14/75)
    Statistics
        Read error                           : 0
        Jitter error (maybe fixed)           : 0
        Retry sector count                   : 0
        Damaged sector count                 : 0
Track 08
    Filename : /Users/Administrator/Music/XLD/Tony Bennett - Steppin' Out [1993]/Tony Bennett - 08 - They All Laughed.flac
    Pre-gap length : 00:02:48
    Track gain               : -3.09 dB
    Peak                     : 0.999939
    CRC32 hash (test run)    : C26EE97F
    CRC32 hash               : C26EE97F
    CRC32 hash (skip zero)   : BF89000E
    AccurateRip v1 signature : DD7F512D
    AccurateRip v2 signature : 01C55A6C
        ->Accurately ripped (v1+v2, confidence 9+14/73)
    Statistics
        Read error                           : 0
        Jitter error (maybe fixed)           : 0
        Retry sector count                   : 0
        Damaged sector count                 : 0
Track 09
    Filename : /Users/Administrator/Music/XLD/Tony Bennett - Steppin' Out [1993]/Tony Bennett - 09 - I Concentrate On You.flac
    Pre-gap length : 00:02:68
    Track gain               : 0.18 dB
    Peak                     : 0.904358
    CRC32 hash (test run)    : 51F5C8B4
    CRC32 hash               : 51F5C8B4
    CRC32 hash (skip zero)   : AAAC5971
    AccurateRip v1 signature : A0340109
    AccurateRip v2 signature : FB857D7B
        ->Accurately ripped (v1+v2, confidence 9+14/74)
    Statistics
        Read error                           : 0
        Jitter error (maybe fixed)           : 0
        Retry sector count                   : 0
        Damaged sector count                 : 0
Track 10
    Filename : /Users/Administrator/Music/XLD/Tony Bennett - Steppin' Out [1993]/Tony Bennett - 10 - You're All The World To Me.flac
    Pre-gap length : 00:02:00
    Track gain               : 0.38 dB
    Peak                     : 0.880066
    CRC32 hash (test run)    : 763DC795
    CRC32 hash               : 763DC795
    CRC32 hash (skip zero)   : ED7ED4E6
    AccurateRip v1 signature : 5A9DFAF0
    AccurateRip v2 signature : 71D6ADEF
        ->Accurately ripped (v1+v2, confidence 9+14/74)
    Statistics
        Read error                           : 0
        Jitter error (maybe fixed)           : 0
        Retry sector count                   : 0
        Damaged sector count                 : 0
Track 11
    Filename : /Users/Administrator/Music/XLD/Tony Bennett - Steppin' Out [1993]/Tony Bennett - 11 - All Of You.flac
    Track gain               : -2.30 dB
    Peak                     : 0.947144
    CRC32 hash (test run)    : 20F05E04
    CRC32 hash               : 20F05E04
    CRC32 hash (skip zero)   : 9B27F45F
    AccurateRip v1 signature : 77042BAE
    AccurateRip v2 signature : 50416FB5
        ->Accurately ripped (v1+v2, confidence 8+14/73)
    Statistics
        Read error                           : 0
        Jitter error (maybe fixed)           : 0
        Retry sector count                   : 0
        Damaged sector count                 : 0
Track 12
    Filename : /Users/Administrator/Music/XLD/Tony Bennett - Steppin' Out [1993]/Tony Bennett - 12 - Nice Work If You Can Get It.flac
    Pre-gap length : 00:00:74
    Track gain               : -0.62 dB
    Peak                     : 0.941925
    CRC32 hash (test run)    : 2D4465AA
    CRC32 hash               : 2D4465AA
    CRC32 hash (skip zero)   : 2B0510B2
    AccurateRip v1 signature : EB727B49
    AccurateRip v2 signature : 0B9C78BA
        ->Accurately ripped (v1+v2, confidence 8+14/72)
    Statistics
        Read error                           : 0
        Jitter error (maybe fixed)           : 0
        Retry sector count                   : 6
        Damaged sector count                 : 0
Track 13
    Filename : /Users/Administrator/Music/XLD/Tony Bennett - Steppin' Out [1993]/Tony Bennett - 13 - It Only Happens When I Dance With You.flac
    Pre-gap length : 00:02:20
    Track gain               : -0.86 dB
    Peak                     : 0.677094
    CRC32 hash (test run)    : 814D62DE
    CRC32 hash               : 814D62DE
    CRC32 hash (skip zero)   : 45A9C37D
    AccurateRip v1 signature : 27F9E855
    AccurateRip v2 signature : FEDEE4FE
        ->Accurately ripped (v1+v2, confidence 8+14/73)
    Statistics
        Read error                           : 0
        Jitter error (maybe fixed)           : 0
        Retry sector count                   : 2
        Damaged sector count                 : 0
Track 14
    Filename : /Users/Administrator/Music/XLD/Tony Bennett - Steppin' Out [1993]/Tony Bennett - 14 - Shall We Dance.flac
    Pre-gap length : 00:02:67
    Track gain               : -1.48 dB
    Peak                     : 0.942444
    CRC32 hash (test run)    : A32FA56F
    CRC32 hash               : A32FA56F
    CRC32 hash (skip zero)   : CF543EE6
    AccurateRip v1 signature : A236A436
    AccurateRip v2 signature : 0993D42B
        ->Accurately ripped (v1+v2, confidence 8+14/73)
    Statistics
        Read error                           : 0
        Jitter error (maybe fixed)           : 0
        Retry sector count                   : 0
        Damaged sector count                 : 0
Track 15
    Filename : /Users/Administrator/Music/XLD/Tony Bennett - Steppin' Out [1993]/Tony Bennett - 15 - You're Easy To Dance With/ Change Partners / Cheek To Cheek.flac
    Pre-gap length : 00:00:70
    Track gain               : -3.75 dB
    Peak                     : 0.999969
    CRC32 hash (test run)    : C93E178A
    CRC32 hash               : C93E178A
    CRC32 hash (skip zero)   : 5B651E0B
    AccurateRip v1 signature : 0D8CC4C9
    AccurateRip v2 signature : 663448AF
        ->Accurately ripped (v1+v2, confidence 8+14/72)
    Statistics
        Read error                           : 0
        Jitter error (maybe fixed)           : 1
        Retry sector count                   : 98
        Damaged sector count                 : 0
Track 16
    Filename : /Users/Administrator/Music/XLD/Tony Bennett - Steppin' Out [1993]/Tony Bennett - 16 - I Guess I'll Have To Change My Plan.flac
    Pre-gap length : 00:01:05
    Track gain               : -4.19 dB
    Peak                     : 0.999969
    CRC32 hash (test run)    : 14F91207
    CRC32 hash               : 14F91207
    CRC32 hash (skip zero)   : D1D2751E
    AccurateRip v1 signature : E2663E2F
    AccurateRip v2 signature : 0B9B73D6
        ->Accurately ripped (v1+v2, confidence 9+14/74)
    Statistics
        Read error                           : 0
        Jitter error (maybe fixed)           : 4
        Retry sector count                   : 409
        Damaged sector count                 : 0
Track 17
    Filename : /Users/Administrator/Music/XLD/Tony Bennett - Steppin' Out [1993]/Tony Bennett - 17 - That's Entertainment.flac
    Track gain               : -5.65 dB
    Peak                     : 0.999969
    CRC32 hash (test run)    : 49B6E518
    CRC32 hash               : 49B6E518
    CRC32 hash (skip zero)   : 44CBCC11
    AccurateRip v1 signature : F004B5D4
    AccurateRip v2 signature : 45ED8AD1
        ->Accurately ripped (v1+v2, confidence 8+14/73)
    Statistics
        Read error                           : 0
        Jitter error (maybe fixed)           : 1
        Retry sector count                   : 209
        Damaged sector count                 : 0
Track 18
    Filename : /Users/Administrator/Music/XLD/Tony Bennett - Steppin' Out [1993]/Tony Bennett - 18 - By Myself.flac
    Pre-gap length : 00:01:50
    Track gain               : -0.04 dB
    Peak                     : 0.669281
    CRC32 hash (test run)    : 363870CE
    CRC32 hash               : 363870CE
    CRC32 hash (skip zero)   : 3DE4E864
    AccurateRip v1 signature : 7BB29897
    AccurateRip v2 signature : F4E3CB35
        ->Accurately ripped (v1+v2, confidence 8+14/72)
    Statistics
        Read error                           : 0
        Jitter error (maybe fixed)           : 5
        Retry sector count                   : 182
        Damaged sector count                 : 0
No errors occurred
End of status report
-----BEGIN XLD SIGNATURE-----
JTNDAuGc9DqyJxZVkZD69djdWlZ3EYHw840q4g9xPuxpA5MajyFx75npqTUv5f8NoqyH1y7MGCO0sFVAMCxW0t.4GG_fPv1aLioGZP4
-----END XLD SIGNATURE-----
Код:
TITLE "Steppin' Out"
PERFORMER "Tony Bennett"
REM GENRE "Jazz"
REM DATE "1993"
REM DISCID ED0C6912
REM REPLAYGAIN_ALBUM_GAIN -2.35 dB
REM REPLAYGAIN_ALBUM_PEAK 0.999969
FILE "01 - Steppin' Out with My Baby.flac" WAVE
  TRACK 01 AUDIO
    TITLE "Steppin' Out with My Baby"
    REM REPLAYGAIN_TRACK_GAIN -2.70 dB
    REM REPLAYGAIN_TRACK_PEAK 0.999969
    INDEX 01 00:00:00
FILE "02 - Who Cares.flac" WAVE
  TRACK 02 AUDIO
    TITLE "Who Cares?"
    REM REPLAYGAIN_TRACK_GAIN -2.92 dB
    REM REPLAYGAIN_TRACK_PEAK 0.999939
    INDEX 01 00:00:00
  TRACK 03 AUDIO
    TITLE "Top Hat, White Tie and Tails"
    REM REPLAYGAIN_TRACK_GAIN -3.11 dB
    REM REPLAYGAIN_TRACK_PEAK 0.999969
    INDEX 00 03:17:17
FILE "03 - Top Hat, White Tie and Tails.flac" WAVE
    INDEX 01 00:00:00
  TRACK 04 AUDIO
    TITLE "They Can't Take That Away from Me"
    REM REPLAYGAIN_TRACK_GAIN 0.01 dB
    REM REPLAYGAIN_TRACK_PEAK 0.762665
    INDEX 00 02:35:63
FILE "04 - They Can't Take That Away from Me.flac" WAVE
    INDEX 01 00:00:00
  TRACK 05 AUDIO
    TITLE "Dancing in the Dark"
    REM REPLAYGAIN_TRACK_GAIN -1.96 dB
    REM REPLAYGAIN_TRACK_PEAK 0.936646
    INDEX 00 03:33:40
FILE "05 - Dancing in the Dark.flac" WAVE
    INDEX 01 00:00:00
  TRACK 06 AUDIO
    TITLE "Shine on Your Shoes"
    REM REPLAYGAIN_TRACK_GAIN -5.06 dB
    REM REPLAYGAIN_TRACK_PEAK 0.999969
    INDEX 00 03:19:65
FILE "06 - Shine on Your Shoes.flac" WAVE
    INDEX 01 00:00:00
  TRACK 07 AUDIO
    TITLE "He Loves and She Loves"
    REM REPLAYGAIN_TRACK_GAIN 5.94 dB
    REM REPLAYGAIN_TRACK_PEAK 0.501007
    INDEX 00 02:18:50
FILE "07 - He Loves and She Loves.flac" WAVE
    INDEX 01 00:00:00
  TRACK 08 AUDIO
    TITLE "They All Laughed"
    REM REPLAYGAIN_TRACK_GAIN -3.09 dB
    REM REPLAYGAIN_TRACK_PEAK 0.999939
    INDEX 00 03:28:22
FILE "08 - They All Laughed.flac" WAVE
    INDEX 01 00:00:00
  TRACK 09 AUDIO
    TITLE "I Concentrate on You"
    REM REPLAYGAIN_TRACK_GAIN 0.18 dB
    REM REPLAYGAIN_TRACK_PEAK 0.904358
    INDEX 00 02:11:27
FILE "09 - I Concentrate on You.flac" WAVE
    INDEX 01 00:00:00
  TRACK 10 AUDIO
    TITLE "You're All the World to Me"
    REM REPLAYGAIN_TRACK_GAIN 0.38 dB
    REM REPLAYGAIN_TRACK_PEAK 0.880066
    INDEX 00 03:01:27
FILE "10 - You're All the World to Me.flac" WAVE
    INDEX 01 00:00:00
FILE "11 - All of You.flac" WAVE
  TRACK 11 AUDIO
    TITLE "All of You"
    REM REPLAYGAIN_TRACK_GAIN -2.30 dB
    REM REPLAYGAIN_TRACK_PEAK 0.947144
    INDEX 01 00:00:00
  TRACK 12 AUDIO
    TITLE "Nice Work If You Can Get It"
    REM REPLAYGAIN_TRACK_GAIN -0.62 dB
    REM REPLAYGAIN_TRACK_PEAK 0.941925
    INDEX 00 03:34:68
FILE "12 - Nice Work If You Can Get It.flac" WAVE
    INDEX 01 00:00:00
  TRACK 13 AUDIO
    TITLE "It Only Happens When I Dance with You"
    REM REPLAYGAIN_TRACK_GAIN -0.86 dB
    REM REPLAYGAIN_TRACK_PEAK 0.677094
    INDEX 00 03:49:08
FILE "13 - It Only Happens When I Dance with You.flac" WAVE
    INDEX 01 00:00:00
  TRACK 14 AUDIO
    TITLE "Shall We Dance"
    REM REPLAYGAIN_TRACK_GAIN -1.48 dB
    REM REPLAYGAIN_TRACK_PEAK 0.942444
    INDEX 00 02:08:30
FILE "14 - Shall We Dance.flac" WAVE
    INDEX 01 00:00:00
  TRACK 15 AUDIO
    TITLE "You're Easy to Dance With/Change Partners/Cheek to Cheek"
    REM REPLAYGAIN_TRACK_GAIN -3.75 dB
    REM REPLAYGAIN_TRACK_PEAK 0.999969
    INDEX 00 01:32:70
FILE "15 - You're Easy to Dance With,Change Partners,Cheek to Cheek.flac" WAVE
    INDEX 01 00:00:00
  TRACK 16 AUDIO
    TITLE "I Guess I'll Have to Change My Plan"
    REM REPLAYGAIN_TRACK_GAIN -4.19 dB
    REM REPLAYGAIN_TRACK_PEAK 0.999969
    INDEX 00 04:37:68
FILE "16 - I Guess I'll Have to Change My Plan.flac" WAVE
    INDEX 01 00:00:00
FILE "17 - That's Entertainment.flac" WAVE
  TRACK 17 AUDIO
    TITLE "That's Entertainment"
    REM REPLAYGAIN_TRACK_GAIN -5.65 dB
    REM REPLAYGAIN_TRACK_PEAK 0.999969
    INDEX 01 00:00:00
  TRACK 18 AUDIO
    TITLE "By Myself"
    REM REPLAYGAIN_TRACK_GAIN -0.04 dB
    REM REPLAYGAIN_TRACK_PEAK 0.669281
    INDEX 00 02:00:23
FILE "18 - By Myself.flac" WAVE
    INDEX 01 00:00:00
Код:
[CUETools log; Date: 28.05.2020 11:24:43; Version: 2.1.6]
[CTDB TOCID: DcTGdAGAIep24OKYqpcskqX1ou0-] found.
Track | CTDB Status
  1   | (110/111) Accurately ripped
  2   | (110/111) Accurately ripped
  3   | (110/111) Accurately ripped
  4   | (110/111) Accurately ripped
  5   | (110/111) Accurately ripped
  6   | (109/111) Accurately ripped
  7   | (109/111) Accurately ripped
  8   | (110/111) Accurately ripped
  9   | (110/111) Accurately ripped
 10   | (109/111) Accurately ripped
 11   | (110/111) Accurately ripped
 12   | (110/111) Accurately ripped
 13   | (110/111) Accurately ripped
 14   | (110/111) Accurately ripped
 15   | (109/111) Accurately ripped
 16   | (110/111) Accurately ripped
 17   | (110/111) Accurately ripped
 18   | (108/111) Accurately ripped
[AccurateRip ID: 0023942e-01d93327-ed0c6912] found.
Track   [  CRC   |   V2   ] Status
 01     [5581f2b1|0b03ec94] (09+17/97) Accurately ripped
 02     [e9e4ad18|ea9c9e66] (09+18/97) Accurately ripped
 03     [0b3dcf6e|db182660] (09+18/97) Accurately ripped
 04     [b950c258|8334db93] (09+18/96) Accurately ripped
 05     [90ec9ea5|958207e7] (09+18/95) Accurately ripped
 06     [2347ba87|ff131133] (09+18/96) Accurately ripped
 07     [5cc8c4a6|b44d2259] (09+18/98) Accurately ripped
 08     [dd7f512d|01c55a6c] (09+18/96) Accurately ripped
 09     [a0340109|fb857d7b] (09+18/96) Accurately ripped
 10     [5a9dfaf0|71d6adef] (09+18/96) Accurately ripped
 11     [77042bae|50416fb5] (08+18/95) Accurately ripped
 12     [eb727b49|0b9c78ba] (08+18/94) Accurately ripped
 13     [27f9e855|fedee4fe] (08+18/95) Accurately ripped
 14     [a236a436|0993d42b] (08+18/95) Accurately ripped
 15     [0d8cc4c9|663448af] (08+18/94) Accurately ripped
 16     [e2663e2f|0b9b73d6] (09+18/97) Accurately ripped
 17     [f004b5d4|45ed8ad1] (08+18/96) Accurately ripped
 18     [7bb29897|f4e3cb35] (08+18/95) Accurately ripped
Offsetted by -2270:
 01     [8b198b00] (04/97) Accurately ripped
 02     [564d67c2] (03/97) Accurately ripped
 03     [22e5a164] (03/97) Accurately ripped
 04     [08b6394f] (03/96) Accurately ripped
 05     [c8e49ea5] (03/95) Accurately ripped
 06     [6ce41333] (03/96) Accurately ripped
 07     [acc0c4a6] (03/98) Accurately ripped
 08     [4b5124d7] (03/96) Accurately ripped
 09     [670c0109] (03/96) Accurately ripped
 10     [2338b5f2] (03/96) Accurately ripped
 11     [d67430ec] (03/95) Accurately ripped
 12     [3617ebdd] (03/94) Accurately ripped
 13     [ba180142] (03/95) Accurately ripped
 14     [f4bb5bf5] (03/95) Accurately ripped
 15     [861761e1] (03/94) Accurately ripped
 16     [11ec44c3] (03/97) Accurately ripped
 17     [0e308d11] (03/96) Accurately ripped
 18     [06d5517a] (03/95) Accurately ripped
Offsetted by -1673:
 01     [d44f1b20] (06/97) Accurately ripped
 02     [f06da909] (06/97) Accurately ripped
 03     [05669808] (06/97) Accurately ripped
 04     [93253655] (05/96) Accurately ripped
 05     [12d09ea5] (05/95) Accurately ripped
 06     [ebe9fbe1] (05/96) Accurately ripped
 07     [b2acc4a6] (06/98) Accurately ripped
 08     [225e3080] (05/96) Accurately ripped
 09     [4e280109] (06/96) Accurately ripped
 10     [015f19e2] (05/96) Accurately ripped
 11     [cf64669d] (06/95) Accurately ripped
 12     [373029ae] (06/94) Accurately ripped
 13     [fb412e2a] (06/95) Accurately ripped
 14     [748ed8f3] (06/95) Accurately ripped
 15     [f7f28941] (06/94) Accurately ripped
 16     [7d9532e6] (06/97) Accurately ripped
 17     [0918530e] (06/96) Accurately ripped
 18     [1a5a89c4] (06/95) Accurately ripped
Offsetted by -1436:
 01     [a5b825cc] (04/97) Accurately ripped
 02     [06b3a3df] (04/97) Accurately ripped
 03     [8afee3c1] (04/97) Accurately ripped
 04     [7be1187b] (04/96) Accurately ripped
 05     [985c9ea5] (04/95) Accurately ripped
 06     [7c3ff29f] (04/96) Accurately ripped
 07     [1438c4a6] (04/98) Accurately ripped
 08     [20433521] (04/96) Accurately ripped
 09     [13640109] (04/96) Accurately ripped
 10     [bee40879] (04/96) Accurately ripped
 11     [bdec590f] (04/95) Accurately ripped
 12     [a45561e7] (04/94) Accurately ripped
 13     [d2566a15] (04/95) Accurately ripped
 14     [da9cdbd6] (04/95) Accurately ripped
 15     [f4518755] (04/94) Accurately ripped
 16     [912d4c4e] (04/97) Accurately ripped
 17     [ee4b5bee] (04/96) Accurately ripped
 18     [3787ac26] (04/95) Accurately ripped
Offsetted by -1142:
 01     [dd992a8e] (05/97) Accurately ripped
 02     [6f3ca3d7] (05/97) Accurately ripped
 03     [f3a2701d] (05/97) Accurately ripped
 04     [f4bf4e2f] (05/96) Accurately ripped
 05     [41449ea5] (05/95) Accurately ripped
 06     [2593e723] (05/96) Accurately ripped
 07     [0520c4a6] (05/98) Accurately ripped
 08     [af793adf] (05/96) Accurately ripped
 09     [8cec0109] (05/96) Accurately ripped
 10     [db02612f] (05/96) Accurately ripped
 11     [cb85b647] (05/95) Accurately ripped
 12     [8e291d29] (05/94) Accurately ripped
 13     [f2d4990b] (05/95) Accurately ripped
 14     [c675171e] (05/95) Accurately ripped
 15     [d82c811f] (05/94) Accurately ripped
 16     [01a19e9f] (05/97) Accurately ripped
 17     [ac8351b8] (05/96) Accurately ripped
 18     [e12a6e07] (05/95) Accurately ripped
Offsetted by -437:
 01     [e09f617d] (06/97) Accurately ripped
 02     [62e87d3b] (06/97) Accurately ripped
 03     [ad612772] (06/97) Accurately ripped
 04     [e7903e58] (06/96) Accurately ripped
 05     [2c809ea5] (06/95) Accurately ripped
 06     [b901cb99] (06/96) Accurately ripped
 07     [bc5cc4a6] (06/98) Accurately ripped
 08     [2e1248a4] (06/96) Accurately ripped
 09     [e4980109] (06/96) Accurately ripped
 10     [e7f11372] (06/96) Accurately ripped
 11     [e58f70ec] (06/95) Accurately ripped
 12     [dbdfbdae] (06/94) Accurately ripped
 13     [a167a99e] (06/95) Accurately ripped
 14     [421869b8] (06/95) Accurately ripped
 15     [bc0c4c81] (06/94) Accurately ripped
 16     [fee48e65] (06/97) Accurately ripped
 17     [079e90fd] (06/96) Accurately ripped
 18     [b54d3b4e] (06/95) Accurately ripped
Offsetted by -1263:
 01     [3f9e4e1a] (00/97) No match (V2 was not tested)
 02     [dae5b374] (00/97) No match (V2 was not tested)
 03     [dbd915f1] (00/97) No match (V2 was not tested)
 04     [0de2fb21] (00/96) No match (V2 was not tested)
 05     [8ee89ea5] (00/95) No match (V2 was not tested)
 06     [d115ebdd] (00/96) No match (V2 was not tested)
 07     [e6c4c4a6] (00/98) No match (V2 was not tested)
 08     [a7e83882] (00/96) No match (V2 was not tested)
 09     [2da00109] (00/96) No match (V2 was not tested)
 10     [94b819fd] (00/96) No match (V2 was not tested)
 11     [489e34d0] (00/95) No match (V2 was not tested)
 12     [c27416ca] (00/94) No match (V2 was not tested)
 13     [8d30591a] (00/95) No match (V2 was not tested)
 14     [282612ac] (00/95) No match (V2 was not tested)
 15     [146016b6] (00/94) No match (V2 was not tested)
 16     [3372d6da] (00/97) No match (V2 was not tested)
 17     [136721a1] (00/96) No match (V2 was not tested)
 18     [ad746489] (00/95) No match (V2 was not tested)
Offsetted by -518:
 01     [38f2ec6d] (00/97) No match (V2 was not tested)
 02     [f4438180] (00/97) No match (V2 was not tested)
 03     [5727079c] (00/97) No match (V2 was not tested)
 04     [fa820a58] (00/96) No match (V2 was not tested)
 05     [73849ea5] (00/95) No match (V2 was not tested)
 06     [29b3cec3] (00/96) No match (V2 was not tested)
 07     [7760c4a6] (00/98) No match (V2 was not tested)
 08     [b069470f] (00/96) No match (V2 was not tested)
 09     [502c0109] (00/96) No match (V2 was not tested)
 10     [c038e161] (00/96) No match (V2 was not tested)
 11     [19421137] (00/95) No match (V2 was not tested)
 12     [61af63bd] (00/94) No match (V2 was not tested)
 13     [d69779f3] (00/95) No match (V2 was not tested)
 14     [0ff91e7d] (00/95) No match (V2 was not tested)
 15     [bf00a92a] (00/94) No match (V2 was not tested)
 16     [f19a94f3] (00/97) No match (V2 was not tested)
 17     [615f4a24] (00/96) No match (V2 was not tested)
 18     [6bab3477] (00/95) No match (V2 was not tested)
Track Peak [ CRC32  ] [W/O NULL]
 --   99,9 [7A96C9E5] [4ED2667E]
 01   99,9 [38C2849B] [6E38E73D]
 02   99,9 [C4917689] [F112DF88]
 03   99,9 [04C34A5C] [3F528581]
 04   76,2 [483A9527] [E29E5CC8]
 05   93,6 [54C127C9] [131C69FC]
 06   99,9 [67867E36] [497FF696]
 07   50,1 [68E92392] [2F494AF9]
 08   99,9 [C26EE97F] [BF89000E]
 09   90,4 [51F5C8B4] [AAAC5971]
 10   88,0 [763DC795] [ED7ED4E6]
 11   94,7 [20F05E04] [9B27F45F]
 12   94,1 [2D4465AA] [2B0510B2]
 13   67,7 [814D62DE] [45A9C37D]
 14   94,2 [A32FA56F] [CF543EE6]
 15   99,9 [C93E178A] [5B651E0B]
 16   99,9 [14F91207] [D1D2751E]
 17   99,9 [49B6E518] [44CBCC11]
 18   66,9 [363870CE] [3DE4E864]
Bennett's tribute to songs that Fred Astaire made famous (including standards by Gershwin, Cole Porter, Irving Berlin, and Jerome Kern) is as strong a record as anything he has made recently, including the acclaimed Perfectly Frank.
Правила, инструкции, FAQ!!!
Торрент  Добавлен [22 июн 2020, 15:37] Скачать торрент Магнет ссылка
Скачать торрент
[ Размер 12.62 КБ / Просмотров 2 ]

Статус
Проверен 
 
Размер  267.57 МБ
Приватный: Нет (DHT включён)
.torrent скачан  0
 


     Отправить личное сообщение
   
Страница 1 из 1
Показать сообщения за:  Поле сортировки  
Начать новую тему Ответить на тему


Сейчас этот форум просматривают: нет зарегистрированных пользователей и гости: 0


Вы не можете начинать темы
Вы не можете отвечать на сообщения
Вы не можете редактировать свои сообщения
Вы не можете удалять свои сообщения
Вы не можете добавлять вложения

Перейти:  
cron
cron