Начать новую тему Ответить на тему
Статистика раздачи
Размер: 387.75 МБ | Добавлен: 22 июн 2020, 15:37 | Скачали: 0
Сидеров: 0  [0 байт/сек]    Личеров: 0  [0 байт/сек]
Пред. тема | След. тема 

Автор
Сообщение

СообщениеДобавлено: 22 июн 2020, 15:37 

Ответить с цитатой 

Tony Bennett - Here's to the Ladies
Жанр: Vocal Jazz
Носитель: CD
Страна-производитель диска (релиза): США
Год издания: 1995
Издатель (лейбл): Columbia
Номер по каталогу: CK 67349
Аудиокодек: FLAC (*.flac)
Тип рипа: tracks+.cue
Продолжительность: 01:07:15
Источник: FrankPoole3001
Наличие сканов в содержимом раздачи: сетевые
Треклист:
01. People (4:45)
02. I'm in Love Again (3:52)
03. Somewhere over the Rainbow (3:59)
04. My Love Went to London (5:12)
05. Poor Butterfly (5:43)
06. Sentimental Journey (3:29)
07. Cloudy Morning (4:45)
08. Tenderly (3:47)
09. Down in the Depths (2:11)
10. Moonlight in Vermont (2:54)
11. Tangerine (4:07)
12. God Bless the Child (2:51)
13. Daybreak (3:45)
14. You Showed Me the Way (5:32)
15. Honeysuckle Rose (2:58)
16. Maybe This Time (3:27)
17. I Got Rhythm (2:02)
18. My Ideal (1:56)
Код:
Exact Audio Copy V1.3 from 2. September 2016
EAC extraction logfile from 22. August 2017, 12:11
Tony Bennett / Here's To The Ladies
Used drive  : ATAPI   iHAS324   F   Adapter: 1  ID: 0
Read mode               : Secure
Utilize accurate stream : Yes
Defeat audio cache      : Yes
Make use of C2 pointers : No
Read offset correction                      : 6
Overread into Lead-In and Lead-Out          : No
Fill up missing offset samples with silence : Yes
Delete leading and trailing silent blocks   : No
Null samples used in CRC calculations       : Yes
Used interface                              : Native Win32 interface for Win NT & 2000
Gap handling                                : Appended to previous track
Used output format              : User Defined Encoder
Selected bitrate                : 1024 kBit/s
Quality                         : High
Add ID3 tag                     : No
Command line compressor         : C:\Program Files (x86)\Exact Audio Copy\Flac\flac.exe
Additional command line options : -8 -e -p -V -T "ARTIST=%artist%" -T "TITLE=%title%" -T "ALBUM=%albumtitle%" -T "DATE=%year%" -T "TRACKNUMBER=%tracknr%" -T "GENRE=%genre%" -T "PERFORMER=%albuminterpret%" -T "COMPOSER=%composer%" %haslyrics%--tag-from-file=LYRICS="%lyricsfile%"%haslyrics% -T "ALBUMARTIST=%albumartist%" -T "DISCNUMBER=%cdnumber%" -T "TOTALDISCS=%totalcds%" -T "TOTALTRACKS=%numtracks%" -T "COMMENT=%comment%" %source% -o %dest%
TOC of the extracted CD
     Track |   Start  |  Length  | Start sector | End sector
    ---------------------------------------------------------
        1  |  0:00.00 |  4:44.69 |         0    |    21368
        2  |  4:44.69 |  3:52.21 |     21369    |    38789
        3  |  8:37.15 |  3:59.25 |     38790    |    56739
        4  | 12:36.40 |  5:11.62 |     56740    |    80126
        5  | 17:48.27 |  5:43.13 |     80127    |   105864
        6  | 23:31.40 |  3:29.37 |    105865    |   121576
        7  | 27:01.02 |  4:44.73 |    121577    |   142949
        8  | 31:46.00 |  3:47.37 |    142950    |   160011
        9  | 35:33.37 |  2:11.03 |    160012    |   169839
       10  | 37:44.40 |  2:53.72 |    169840    |   182886
       11  | 40:38.37 |  4:06.60 |    182887    |   201396
       12  | 44:45.22 |  2:51.30 |    201397    |   214251
       13  | 47:36.52 |  3:45.25 |    214252    |   231151
       14  | 51:22.02 |  5:31.58 |    231152    |   256034
       15  | 56:53.60 |  2:57.55 |    256035    |   269364
       16  | 59:51.40 |  3:26.47 |    269365    |   284861
       17  | 63:18.12 |  2:01.68 |    284862    |   294004
       18  | 65:20.05 |  1:55.52 |    294005    |   302681
Track  1
     Filename C:\EAC Rips\New folder\01 People.wav
     Pre-gap length  0:00:02.00
     Peak level 96.3 %
     Extraction speed 6.1 X
     Track quality 100.0 %
     Test CRC 6A9CAC67
     Copy CRC 6A9CAC67
     Accurately ripped (confidence 3)  [A490F8F2]  (AR v2)
     Copy OK
Track  2
     Filename C:\EAC Rips\New folder\02 I'm In Love Again.wav
     Pre-gap length  0:00:02.09
     Peak level 83.6 %
     Extraction speed 6.6 X
     Track quality 100.0 %
     Test CRC F36D8C6E
     Copy CRC F36D8C6E
     Accurately ripped (confidence 4)  [11773F80]  (AR v2)
     Copy OK
Track  3
     Filename C:\EAC Rips\New folder\03 Over The Rainbow.wav
     Pre-gap length  0:00:01.77
     Peak level 96.5 %
     Extraction speed 7.1 X
     Track quality 100.0 %
     Test CRC 3D93FE0C
     Copy CRC 3D93FE0C
     Accurately ripped (confidence 4)  [E4E51621]  (AR v2)
     Copy OK
Track  4
     Filename C:\EAC Rips\New folder\04 My Love Went To London.wav
     Pre-gap length  0:00:02.10
     Peak level 88.2 %
     Extraction speed 7.9 X
     Track quality 100.0 %
     Test CRC D332F2BC
     Copy CRC D332F2BC
     Accurately ripped (confidence 4)  [1AD23E21]  (AR v2)
     Copy OK
Track  5
     Filename C:\EAC Rips\New folder\05 Poor Butterfly.wav
     Peak level 85.7 %
     Extraction speed 8.5 X
     Track quality 100.0 %
     Test CRC 94931C55
     Copy CRC 94931C55
     Accurately ripped (confidence 4)  [281313FF]  (AR v2)
     Copy OK
Track  6
     Filename C:\EAC Rips\New folder\06 Sentimental Journey.wav
     Pre-gap length  0:00:01.90
     Peak level 85.3 %
     Extraction speed 6.8 X
     Track quality 99.9 %
     Test CRC 7EBE11A9
     Copy CRC 7EBE11A9
     Accurately ripped (confidence 3)  [CD47B7C9]  (AR v2)
     Copy OK
Track  7
     Filename C:\EAC Rips\New folder\07 Cloudy Morning.wav
     Pre-gap length  0:00:01.30
     Peak level 85.6 %
     Extraction speed 9.3 X
     Track quality 100.0 %
     Test CRC B9CCF9C9
     Copy CRC B9CCF9C9
     Accurately ripped (confidence 3)  [054EC233]  (AR v2)
     Copy OK
Track  8
     Filename C:\EAC Rips\New folder\08 Tenderly.wav
     Pre-gap length  0:00:02.30
     Peak level 76.4 %
     Extraction speed 9.3 X
     Track quality 100.0 %
     Test CRC C64E240E
     Copy CRC C64E240E
     Accurately ripped (confidence 3)  [7925D580]  (AR v2)
     Copy OK
Track  9
     Filename C:\EAC Rips\New folder\09 Down In The Depths.wav
     Pre-gap length  0:00:01.86
     Peak level 89.2 %
     Extraction speed 8.8 X
     Track quality 100.0 %
     Test CRC 0B942B89
     Copy CRC 0B942B89
     Accurately ripped (confidence 4)  [56A2D1B9]  (AR v2)
     Copy OK
Track 10
     Filename C:\EAC Rips\New folder\10 Moonlight In Vermont.wav
     Pre-gap length  0:00:01.57
     Peak level 80.9 %
     Extraction speed 7.2 X
     Track quality 99.9 %
     Test CRC 139CCE70
     Copy CRC 139CCE70
     Accurately ripped (confidence 3)  [C3BC2083]  (AR v2)
     Copy OK
Track 11
     Filename C:\EAC Rips\New folder\11 Tangerine.wav
     Pre-gap length  0:00:01.53
     Peak level 91.8 %
     Extraction speed 10.2 X
     Track quality 100.0 %
     Test CRC 028FEF0C
     Copy CRC 028FEF0C
     Accurately ripped (confidence 3)  [484B6ABA]  (AR v2)
     Copy OK
Track 12
     Filename C:\EAC Rips\New folder\12 God Bless The Child.wav
     Pre-gap length  0:00:02.20
     Peak level 87.8 %
     Extraction speed 10.0 X
     Track quality 100.0 %
     Test CRC 19DC3631
     Copy CRC 19DC3631
     Accurately ripped (confidence 4)  [6128E623]  (AR v2)
     Copy OK
Track 13
     Filename C:\EAC Rips\New folder\13 Daybreak.wav
     Pre-gap length  0:00:01.93
     Peak level 85.4 %
     Extraction speed 10.7 X
     Track quality 100.0 %
     Test CRC 071662B2
     Copy CRC 071662B2
     Accurately ripped (confidence 3)  [AB5C40C3]  (AR v2)
     Copy OK
Track 14
     Filename C:\EAC Rips\New folder\14 You Showed Me The Way.wav
     Pre-gap length  0:00:01.86
     Peak level 84.7 %
     Extraction speed 11.5 X
     Track quality 100.0 %
     Test CRC 15E00AD0
     Copy CRC 15E00AD0
     Accurately ripped (confidence 3)  [AAE95F90]  (AR v2)
     Copy OK
Track 15
     Filename C:\EAC Rips\New folder\15 Honeysuckle Rose.wav
     Pre-gap length  0:00:02.17
     Peak level 85.5 %
     Extraction speed 10.9 X
     Track quality 100.0 %
     Test CRC FCE285C6
     Copy CRC FCE285C6
     Accurately ripped (confidence 3)  [86CD1F01]  (AR v2)
     Copy OK
Track 16
     Filename C:\EAC Rips\New folder\16 Maybe This Time.wav
     Pre-gap length  0:00:01.80
     Peak level 85.1 %
     Extraction speed 11.3 X
     Track quality 100.0 %
     Test CRC 0900C324
     Copy CRC 0900C324
     Accurately ripped (confidence 3)  [81130A99]  (AR v2)
     Copy OK
Track 17
     Filename C:\EAC Rips\New folder\17 I Got Rhythm.wav
     Pre-gap length  0:00:01.49
     Peak level 89.2 %
     Extraction speed 10.2 X
     Track quality 100.0 %
     Test CRC FD5EB2A7
     Copy CRC FD5EB2A7
     Accurately ripped (confidence 3)  [BF89AFAB]  (AR v2)
     Copy OK
Track 18
     Filename C:\EAC Rips\New folder\18 My Ideal.wav
     Pre-gap length  0:00:02.30
     Peak level 77.8 %
     Extraction speed 10.3 X
     Track quality 100.0 %
     Test CRC A22831AC
     Copy CRC A22831AC
     Accurately ripped (confidence 3)  [55B59159]  (AR v2)
     Copy OK
All tracks accurately ripped
No errors occurred
End of status report
---- CUETools DB Plugin V2.1.6
[CTDB TOCID: 2wNWK5IDd64tEPsvZrTXccZZQ4c-] found
Submit result: 2wNWK5IDd64tEPsvZrTXccZZQ4c- has been confirmed
Track | CTDB Status
  1   | ( 5/45) Accurately ripped, or (37/45) differs in 6 samples @00:00:27
  2   | (45/45) Accurately ripped
  3   | (45/45) Accurately ripped
  4   | (44/45) Accurately ripped
  5   | (45/45) Accurately ripped
  6   | (45/45) Accurately ripped
  7   | (45/45) Accurately ripped
  8   | (43/45) Accurately ripped
  9   | (45/45) Accurately ripped
 10   | (43/45) Accurately ripped
 11   | (44/45) Accurately ripped
 12   | (43/45) Accurately ripped
 13   | (45/45) Accurately ripped
 14   | (44/45) Accurately ripped
 15   | (44/45) Accurately ripped
 16   | (45/45) Accurately ripped
 17   | (45/45) Accurately ripped
 18   | (45/45) Accurately ripped
If you are sure that your rip contains errors, you can use CUETools to repair it.
==== Log checksum C7A433B59B7E8BA8FFBCB95AF659666988381F1EE2F9DCF27E506600E37340EE ====
Код:
REM GENRE Jazz
REM DATE 1995
REM DISCID 030FC312
REM COMMENT "ExactAudioCopy v1.3"
PERFORMER "Tony Bennett"
TITLE "Here's to the Ladies"
FILE "01 - People.wav" WAVE
  TRACK 01 AUDIO
    TITLE "People"
    PERFORMER "Tony Bennett"
    INDEX 01 00:00:00
  TRACK 02 AUDIO
    TITLE "I'm in Love Again"
    PERFORMER "Tony Bennett"
    INDEX 00 04:42:62
FILE "02 - I'm in Love Again.wav" WAVE
    INDEX 01 00:00:00
  TRACK 03 AUDIO
    TITLE "Somewhere over the Rainbow"
    PERFORMER "Tony Bennett"
    INDEX 00 03:50:38
FILE "03 - Somewhere over the Rainbow.wav" WAVE
    INDEX 01 00:00:00
  TRACK 04 AUDIO
    TITLE "My Love Went to London"
    PERFORMER "Tony Bennett"
    INDEX 00 03:57:17
FILE "04 - My Love Went to London.wav" WAVE
    INDEX 01 00:00:00
FILE "05 - Poor Butterfly.wav" WAVE
  TRACK 05 AUDIO
    TITLE "Poor Butterfly"
    PERFORMER "Tony Bennett"
    INDEX 01 00:00:00
  TRACK 06 AUDIO
    TITLE "Sentimental Journey"
    PERFORMER "Tony Bennett"
    INDEX 00 05:41:20
FILE "06 - Sentimental Journey.wav" WAVE
    INDEX 01 00:00:00
  TRACK 07 AUDIO
    TITLE "Cloudy Morning"
    PERFORMER "Tony Bennett"
    INDEX 00 03:28:14
FILE "07 - Cloudy Morning.wav" WAVE
    INDEX 01 00:00:00
  TRACK 08 AUDIO
    TITLE "Tenderly"
    PERFORMER "Tony Bennett"
    INDEX 00 04:42:50
FILE "08 - Tenderly.wav" WAVE
    INDEX 01 00:00:00
  TRACK 09 AUDIO
    TITLE "Down in the Depths"
    PERFORMER "Tony Bennett"
    INDEX 00 03:45:47
FILE "09 - Down in the Depths.wav" WAVE
    INDEX 01 00:00:00
  TRACK 10 AUDIO
    TITLE "Moonlight in Vermont"
    PERFORMER "Tony Bennett"
    INDEX 00 02:09:35
FILE "10 - Moonlight in Vermont.wav" WAVE
    INDEX 01 00:00:00
  TRACK 11 AUDIO
    TITLE "Tangerine"
    PERFORMER "Tony Bennett"
    INDEX 00 02:52:32
FILE "11 - Tangerine.wav" WAVE
    INDEX 01 00:00:00
  TRACK 12 AUDIO
    TITLE "God Bless the Child"
    PERFORMER "Tony Bennett"
    INDEX 00 04:04:45
FILE "12 - God Bless the Child.wav" WAVE
    INDEX 01 00:00:00
  TRACK 13 AUDIO
    TITLE "Daybreak"
    PERFORMER "Tony Bennett"
    INDEX 00 02:49:35
FILE "13 - Daybreak.wav" WAVE
    INDEX 01 00:00:00
  TRACK 14 AUDIO
    TITLE "You Showed Me the Way"
    PERFORMER "Tony Bennett"
    INDEX 00 03:43:35
FILE "14 - You Showed Me the Way.wav" WAVE
    INDEX 01 00:00:00
  TRACK 15 AUDIO
    TITLE "Honeysuckle Rose"
    PERFORMER "Tony Bennett"
    INDEX 00 05:29:45
FILE "15 - Honeysuckle Rose.wav" WAVE
    INDEX 01 00:00:00
  TRACK 16 AUDIO
    TITLE "Maybe This Time"
    PERFORMER "Tony Bennett"
    INDEX 00 02:55:70
FILE "16 - Maybe This Time.wav" WAVE
    INDEX 01 00:00:00
  TRACK 17 AUDIO
    TITLE "I Got Rhythm"
    PERFORMER "Tony Bennett"
    INDEX 00 03:25:10
FILE "17 - I Got Rhythm.wav" WAVE
    INDEX 01 00:00:00
  TRACK 18 AUDIO
    TITLE "My Ideal"
    PERFORMER "Tony Bennett"
    INDEX 00 01:59:45
FILE "18 - My Ideal.wav" WAVE
    INDEX 01 00:00:00
Код:
[CUETools log; Date: 28.05.2020 0:59:56; Version: 2.1.6]
[CTDB TOCID: 2wNWK5IDd64tEPsvZrTXccZZQ4c-] found.
Track | CTDB Status
  1   | ( 13/108) Accurately ripped, or (90/108) differs in 6 samples @00:00:27
  2   | (107/108) Accurately ripped
  3   | (107/108) Accurately ripped
  4   | (106/108) Accurately ripped
  5   | (107/108) Accurately ripped
  6   | (107/108) Accurately ripped
  7   | (107/108) Accurately ripped
  8   | (105/108) Accurately ripped
  9   | (107/108) Accurately ripped
 10   | (105/108) Accurately ripped
 11   | (106/108) Accurately ripped
 12   | (105/108) Accurately ripped
 13   | (107/108) Accurately ripped
 14   | (106/108) Accurately ripped
 15   | (106/108) Accurately ripped
 16   | (107/108) Accurately ripped
 17   | (107/108) Accurately ripped
 18   | (107/108) Accurately ripped
[AccurateRip ID: 002fd1d3-02723c89-030fc312] found.
Track   [  CRC   |   V2   ] Status
 01     [6bf83583|a490f8f2] (02+07/93) Accurately ripped
 02     [4e52373f|11773f80] (02+08/95) Accurately ripped
 03     [36ae2c73|e4e51621] (02+08/97) Accurately ripped
 04     [08fec680|1ad23e21] (02+08/97) Accurately ripped
 05     [d125df2f|281313ff] (02+08/95) Accurately ripped
 06     [73e53898|cd47b7c9] (02+07/94) Accurately ripped
 07     [7a0c1fcf|054ec233] (02+07/95) Accurately ripped
 08     [0b0f51cf|7925d580] (02+07/94) Accurately ripped
 09     [a38da024|56a2d1b9] (02+08/93) Accurately ripped
 10     [0c3ab9b6|c3bc2083] (02+07/93) Accurately ripped
 11     [d154904f|484b6aba] (02+07/94) Accurately ripped
 12     [77008d72|6128e623] (02+08/96) Accurately ripped
 13     [1c41d3f0|ab5c40c3] (02+07/93) Accurately ripped
 14     [63842a5d|aae95f90] (02+07/91) Accurately ripped
 15     [6393a9a3|86cd1f01] (02+07/93) Accurately ripped
 16     [79721c48|81130a99] (02+07/92) Accurately ripped
 17     [606423ef|bf89afab] (02+07/93) Accurately ripped
 18     [31ecd54c|55b59159] (02+06/93) Accurately ripped
Offsetted by -717:
 01     [18dd6cd1] (00/93) No match (V2 was not tested)
 02     [d0d9e413] (00/95) No match (V2 was not tested)
 03     [ed2f5fe4] (00/97) No match (V2 was not tested)
 04     [3a9dfe9c] (00/97) No match (V2 was not tested)
 05     [4cd2f107] (00/95) No match (V2 was not tested)
 06     [dabe340d] (00/94) No match (V2 was not tested)
 07     [d75cae7e] (00/95) No match (V2 was not tested)
 08     [ec8516c7] (00/94) No match (V2 was not tested)
 09     [207cd205] (00/93) No match (V2 was not tested)
 10     [486110a3] (00/93) No match (V2 was not tested)
 11     [803dac68] (00/94) No match (V2 was not tested)
 12     [7f7a79ba] (00/96) No match (V2 was not tested)
 13     [6398f322] (00/93) No match (V2 was not tested)
 14     [379ad118] (00/91) No match (V2 was not tested)
 15     [498dfcc3] (00/93) No match (V2 was not tested)
 16     [efca93f5] (00/92) No match (V2 was not tested)
 17     [902c6836] (00/93) No match (V2 was not tested)
 18     [4050bbdb] (00/93) No match (V2 was not tested)
Offsetted by -43:
 01     [0059c4a0] (00/93) No match (V2 was not tested)
 02     [315fb54b] (13/95) Accurately ripped
 03     [1335be5a] (13/97) Accurately ripped
 04     [e50dae04] (13/97) Accurately ripped
 05     [43522b97] (13/95) Accurately ripped
 06     [9ed6bddb] (13/94) Accurately ripped
 07     [c1b256c8] (13/95) Accurately ripped
 08     [d62bce17] (13/94) Accurately ripped
 09     [2915021b] (12/93) Accurately ripped
 10     [aacb20c1] (12/93) Accurately ripped
 11     [b5f9374e] (13/94) Accurately ripped
 12     [e51f6dea] (13/96) Accurately ripped
 13     [241b22ee] (13/93) Accurately ripped
 14     [3c1b7b6a] (12/91) Accurately ripped
 15     [6af13983] (13/93) Accurately ripped
 16     [880a8493] (13/92) Accurately ripped
 17     [2e0ead90] (13/93) Accurately ripped
 18     [9521ee34] (00/93) No match (V2 was not tested)
Offsetted by 219:
 01     [a8eff285] (00/93) No match (V2 was not tested)
 02     [233d2073] (11/95) Accurately ripped
 03     [a3e3e61c] (11/97) Accurately ripped
 04     [54e27ebc] (11/97) Accurately ripped
 05     [fcc73c47] (10/95) Accurately ripped
 06     [57b1f125] (10/94) Accurately ripped
 07     [ade14f46] (11/95) Accurately ripped
 08     [303cc107] (10/94) Accurately ripped
 09     [7e76e8bd] (10/93) Accurately ripped
 10     [026d23fb] (11/93) Accurately ripped
 11     [c7d27360] (10/94) Accurately ripped
 12     [f2ce757a] (11/96) Accurately ripped
 13     [beb38912] (10/93) Accurately ripped
 14     [6db71680] (10/91) Accurately ripped
 15     [381c5bc3] (10/93) Accurately ripped
 16     [0b63f14d] (09/92) Accurately ripped
 17     [cbe7c63e] (10/93) Accurately ripped
 18     [5b550df5] (00/93) No match (V2 was not tested)
Offsetted by 221:
 01     [70856cf4] (00/93) No match (V2 was not tested)
 02     [c554502b] (00/95) No match (V2 was not tested)
 03     [81d1afb2] (00/97) No match (V2 was not tested)
 04     [20f99da4] (00/97) No match (V2 was not tested)
 05     [b006a9d7] (00/95) No match (V2 was not tested)
 06     [b4f41a93] (00/94) No match (V2 was not tested)
 07     [7aeb7070] (00/95) No match (V2 was not tested)
 08     [3e9aaf57] (00/94) No match (V2 was not tested)
 09     [b9be01f3] (00/93) No match (V2 was not tested)
 10     [89ef5ab9] (00/93) No match (V2 was not tested)
 11     [fead0666] (00/94) No match (V2 was not tested)
 12     [c4029aaa] (00/96) No match (V2 was not tested)
 13     [238ba91e] (00/93) No match (V2 was not tested)
 14     [104ad732] (00/91) No match (V2 was not tested)
 15     [b4ca9c83] (00/93) No match (V2 was not tested)
 16     [f8d9e08b] (00/92) No match (V2 was not tested)
 17     [03d3ef78] (00/93) No match (V2 was not tested)
 18     [b1e83268] (00/93) No match (V2 was not tested)
Offsetted by 1171:
 01     [dc70b281] (00/93) No match (V2 was not tested)
 02     [8659da93] (06/95) Accurately ripped
 03     [4a06b904] (06/97) Accurately ripped
 04     [cfdff61c] (06/97) Accurately ripped
 05     [46b6f407] (06/95) Accurately ripped
 06     [beb6f9ad] (06/94) Accurately ripped
 07     [ecb6f95e] (06/95) Accurately ripped
 08     [e6e3ddc7] (06/94) Accurately ripped
 09     [b6a9c925] (05/93) Accurately ripped
 10     [f88aed43] (05/93) Accurately ripped
 11     [c63bd288] (06/94) Accurately ripped
 12     [efc39aba] (06/96) Accurately ripped
 13     [408f1f62] (06/93) Accurately ripped
 14     [b8716178] (06/91) Accurately ripped
 15     [0c1cc0c3] (06/93) Accurately ripped
 16     [92acc895] (06/92) Accurately ripped
 17     [c7046e16] (06/93) Accurately ripped
 18     [3b5bba31] (00/93) No match (V2 was not tested)
Track Peak [ CRC32  ] [W/O NULL] [  LOG   ]
 --   96,5 [B2595DF4] [A011808B]
 01   96,3 [6A9CAC67] [A5C4D377]   CRC32
 02   83,6 [F36D8C6E] [476D40FA]   CRC32
 03   96,5 [3D93FE0C] [589DD826]   CRC32
 04   88,2 [D332F2BC] [B4CA9548]   CRC32
 05   85,7 [94931C55] [3B7B1AD4]   CRC32
 06   85,3 [7EBE11A9] [BB069899]   CRC32
 07   85,6 [B9CCF9C9] [8014B9E8]   CRC32
 08   76,4 [C64E240E] [25B991A0]   CRC32
 09   89,2 [0B942B89] [66791402]   CRC32
 10   80,9 [139CCE70] [3DF35D96]   CRC32
 11   91,8 [028FEF0C] [04F21F1E]   CRC32
 12   87,8 [19DC3631] [FE381B0F]   CRC32
 13   85,4 [071662B2] [DB0B8230]   CRC32
 14   84,7 [15E00AD0] [53A18951]   CRC32
 15   85,5 [FCE285C6] [361E8A13]   CRC32
 16   85,1 [0900C324] [325DA88B]   CRC32
 17   89,2 [FD5EB2A7] [07F6B567]   CRC32
 18   77,8 [A22831AC] [ECF24325]   CRC32
For years, it was rumored that Frank Sinatra was going to record an album called Here's to the Ladies, but the Chairman of the Board never got around to actually making the record. However, Tony Bennett did and his record covers a wider range of artists and styles than Sinatra's scheduled record. Naturally, Bennett turns in a thoroughly entertaining, professional performance. It's a solid contribution to his impressively assured and diverse comeback.
Правила, инструкции, FAQ!!!
Торрент  Добавлен [22 июн 2020, 15:37] Скачать торрент Магнет ссылка
Скачать торрент
[ Размер 17.1 КБ / Просмотров 1 ]

Статус
Проверен 
 
Размер  387.75 МБ
Приватный: Нет (DHT включён)
.torrent скачан  0
 


     Отправить личное сообщение
   
Страница 1 из 1
Показать сообщения за:  Поле сортировки  
Начать новую тему Ответить на тему


Сейчас этот форум просматривают: нет зарегистрированных пользователей и гости: 0


Вы не можете начинать темы
Вы не можете отвечать на сообщения
Вы не можете редактировать свои сообщения
Вы не можете удалять свои сообщения
Вы не можете добавлять вложения

Перейти:  
cron