Начать новую тему Ответить на тему
Статистика раздачи
Размер: 239.65 МБ | Добавлен: 22 июн 2020, 15:38 | Скачали: 0
Сидеров: 0  [0 байт/сек]    Личеров: 0  [0 байт/сек]
Пред. тема | След. тема 

Автор
Сообщение

СообщениеДобавлено: 22 июн 2020, 15:38 

Ответить с цитатой 

Shirley Bassey - Shirley
Жанр: Vocal Jazz
Носитель: CD
Страна-производитель диска (релиза): Великобритания
Год издания: 1961 (1997)
Издатель (лейбл): EMI
Номер по каталогу: 7243 8 56474 2 0
Аудиокодек: FLAC (*.flac)
Тип рипа: tracks+.cue
Продолжительность: 00:42:24
Источник: just_a_sundog
Наличие сканов в содержимом раздачи: нет
Треклист:
01. In the Still of the Night (Porter) - 3:24
02. Let There Be Love (Grant-Rand) - 3:15
03. All at Once (Deja) (Cochran-Stern-Marnay) - 3:33
04. For Every Man There's a Woman (Robin-Arlen) - 3:54
05. I'm in the Mood for Love (McHugh-Fields) - 3:24
06. So in Love (Porter) - 3:05
07. If I Were a Bell (Loesser) - 2:55
08. There Will Never Be Another You (Warren-Gordon) - 4:24
09. Hooray for Love (Arlen-Robin) - 3:13
10. Too Late Now (Lerner-Lane) - 3:41
11. I'm Shooting High (Koehler-McHugh) - 2:22
12. Ev'ry Time We Say Goodbye (Porter) - 5:14
Код:
Exact Audio Copy V1.3 from 2. September 2016
EAC extraction logfile from 8. June 2020, 16:48
Shirley Bassey / Shirley
Used drive  : PIONEER BD-RW   BDR-UD03   Adapter: 1  ID: 0
Read mode               : Secure
Utilize accurate stream : Yes
Defeat audio cache      : Yes
Make use of C2 pointers : No
Read offset correction                      : 667
Overread into Lead-In and Lead-Out          : No
Fill up missing offset samples with silence : Yes
Delete leading and trailing silent blocks   : No
Null samples used in CRC calculations       : Yes
Used interface                              : Native Win32 interface for Win NT & 2000
Gap handling                                : Appended to previous track
Used output format              : User Defined Encoder
Selected bitrate                : 1024 kBit/s
Quality                         : High
Add ID3 tag                     : No
Command line compressor         : C:\EAC\Flac\flac.exe
Additional command line options : -8 -V -T "ARTIST=%artist%" -T "TITLE=%title%" -T "ALBUM=%albumtitle%" -T "DATE=%year%" -T "TRACKNUMBER=%tracknr%" -T "GENRE=%genre%" -T "PERFORMER=%albuminterpret%" -T "COMPOSER=%composer%" %haslyrics%--tag-from-file=LYRICS="%lyricsfile%"%haslyrics% -T "ALBUMARTIST=%albumartist%" -T "DISCNUMBER=%cdnumber%" -T "TOTALDISCS=%totalcds%" -T "TOTALTRACKS=%numtracks%" -T "COMMENT=%comment%" %source% -o %dest%
TOC of the extracted CD
     Track |   Start  |  Length  | Start sector | End sector
    ---------------------------------------------------------
        1  |  0:00.00 |  3:24.02 |         0    |    15301
        2  |  3:24.02 |  3:14.43 |     15302    |    29894
        3  |  6:38.45 |  3:33.35 |     29895    |    45904
        4  | 10:12.05 |  3:54.02 |     45905    |    63456
        5  | 14:06.07 |  3:23.55 |     63457    |    78736
        6  | 17:29.62 |  3:04.50 |     78737    |    92586
        7  | 20:34.37 |  2:54.45 |     92587    |   105681
        8  | 23:29.07 |  4:24.13 |    105682    |   125494
        9  | 27:53.20 |  3:13.22 |    125495    |   139991
       10  | 31:06.42 |  3:40.55 |    139992    |   156546
       11  | 34:47.22 |  2:22.10 |    156547    |   167206
       12  | 37:09.32 |  5:14.10 |    167207    |   190766
Track  1
     Filename C:\EAC\Rips\Shirley Bassey - Shirley (Remastered) (1997) [FLAC]\01 - In the Still of the Night.wav
     Pre-gap length  0:00:02.00
     Peak level 99.9 %
     Extraction speed 2.8 X
     Track quality 100.0 %
     Test CRC 27F5CF30
     Copy CRC 27F5CF30
     Accurately ripped (confidence 4)  [E587CE7C]  (AR v2)
     Copy OK
Track  2
     Filename C:\EAC\Rips\Shirley Bassey - Shirley (Remastered) (1997) [FLAC]\02 - Let There Be Love.wav
     Pre-gap length  0:00:02.42
     Peak level 97.3 %
     Extraction speed 3.0 X
     Track quality 100.0 %
     Test CRC 797D00AE
     Copy CRC 797D00AE
     Accurately ripped (confidence 4)  [5145B243]  (AR v2)
     Copy OK
Track  3
     Filename C:\EAC\Rips\Shirley Bassey - Shirley (Remastered) (1997) [FLAC]\03 - All at Once.wav
     Pre-gap length  0:00:03.26
     Peak level 90.6 %
     Extraction speed 2.9 X
     Track quality 99.9 %
     Test CRC 3511B4EF
     Copy CRC 3511B4EF
     Accurately ripped (confidence 4)  [8DBEC237]  (AR v2)
     Copy OK
Track  4
     Filename C:\EAC\Rips\Shirley Bassey - Shirley (Remastered) (1997) [FLAC]\04 - For Every Man There's a Woman.wav
     Pre-gap length  0:00:02.93
     Peak level 99.9 %
     Extraction speed 3.2 X
     Track quality 99.9 %
     Test CRC 68A07C2D
     Copy CRC 68A07C2D
     Accurately ripped (confidence 4)  [C4F7F4AB]  (AR v2)
     Copy OK
Track  5
     Filename C:\EAC\Rips\Shirley Bassey - Shirley (Remastered) (1997) [FLAC]\05 - I'm in the Mood for Love.wav
     Pre-gap length  0:00:02.69
     Peak level 82.6 %
     Extraction speed 3.8 X
     Track quality 100.0 %
     Test CRC 136BD514
     Copy CRC 136BD514
     Accurately ripped (confidence 4)  [745F857A]  (AR v2)
     Copy OK
Track  6
     Filename C:\EAC\Rips\Shirley Bassey - Shirley (Remastered) (1997) [FLAC]\06 - So in Love.wav
     Pre-gap length  0:00:03.80
     Peak level 92.5 %
     Extraction speed 3.9 X
     Track quality 100.0 %
     Test CRC ABEC3BAD
     Copy CRC ABEC3BAD
     Accurately ripped (confidence 4)  [6A17EFF9]  (AR v2)
     Copy OK
Track  7
     Filename C:\EAC\Rips\Shirley Bassey - Shirley (Remastered) (1997) [FLAC]\07 - If I Were a Bell.wav
     Pre-gap length  0:00:03.02
     Peak level 99.9 %
     Extraction speed 3.5 X
     Track quality 99.9 %
     Test CRC 55E01A9B
     Copy CRC 55E01A9B
     Accurately ripped (confidence 4)  [6E554C6F]  (AR v2)
     Copy OK
Track  8
     Filename C:\EAC\Rips\Shirley Bassey - Shirley (Remastered) (1997) [FLAC]\08 - There Will Never Be Another You.wav
     Pre-gap length  0:00:02.96
     Peak level 89.1 %
     Extraction speed 4.4 X
     Track quality 100.0 %
     Test CRC 9FD8E19C
     Copy CRC 9FD8E19C
     Accurately ripped (confidence 4)  [1DD046E4]  (AR v2)
     Copy OK
Track  9
     Filename C:\EAC\Rips\Shirley Bassey - Shirley (Remastered) (1997) [FLAC]\09 - Hooray for Love.wav
     Pre-gap length  0:00:02.57
     Peak level 99.9 %
     Extraction speed 4.5 X
     Track quality 100.0 %
     Test CRC 10A5C988
     Copy CRC 10A5C988
     Accurately ripped (confidence 4)  [594AEE3A]  (AR v2)
     Copy OK
Track 10
     Filename C:\EAC\Rips\Shirley Bassey - Shirley (Remastered) (1997) [FLAC]\10 - Too Late Now.wav
     Pre-gap length  0:00:03.02
     Peak level 89.7 %
     Extraction speed 4.1 X
     Track quality 99.9 %
     Test CRC 2407571F
     Copy CRC 2407571F
     Accurately ripped (confidence 3)  [7ECA0DDA]  (AR v2)
     Copy OK
Track 11
     Filename C:\EAC\Rips\Shirley Bassey - Shirley (Remastered) (1997) [FLAC]\11 - I'm Shooting High.wav
     Pre-gap length  0:00:03.09
     Peak level 95.5 %
     Extraction speed 4.5 X
     Track quality 100.0 %
     Test CRC 940D4443
     Copy CRC 940D4443
     Accurately ripped (confidence 3)  [06674837]  (AR v2)
     Copy OK
Track 12
     Filename C:\EAC\Rips\Shirley Bassey - Shirley (Remastered) (1997) [FLAC]\12 - Ev'ry Time We Say Goodbye.wav
     Pre-gap length  0:00:02.49
     Peak level 81.9 %
     Extraction speed 5.3 X
     Track quality 100.0 %
     Test CRC 6CCE6875
     Copy CRC 6CCE6875
     Accurately ripped (confidence 4)  [4BE601C4]  (AR v2)
     Copy OK
All tracks accurately ripped
No errors occurred
End of status report
---- CUETools DB Plugin V2.1.6
[CTDB TOCID: kojCyVUEgB5Ra1lsMSQ2jMCTFxM-] found
Submit result: kojCyVUEgB5Ra1lsMSQ2jMCTFxM- has been confirmed
Track | CTDB Status
  1   | (9/9) Accurately ripped
  2   | (9/9) Accurately ripped
  3   | (9/9) Accurately ripped
  4   | (9/9) Accurately ripped
  5   | (9/9) Accurately ripped
  6   | (9/9) Accurately ripped
  7   | (9/9) Accurately ripped
  8   | (9/9) Accurately ripped
  9   | (9/9) Accurately ripped
 10   | (8/9) Accurately ripped
 11   | (8/9) Accurately ripped
 12   | (9/9) Accurately ripped
==== Log checksum 2BF20461697DFF9E03B0F5202795452E2264ACBF83A6D98E522E216809E4932D ====
Код:
REM GENRE Jazz
REM DATE 1961
REM DISCID 8C09EF0C
REM COMMENT "ExactAudioCopy v1.3"
CATALOG 0724385647420
PERFORMER "Shirley Bassey"
TITLE "Shirley"
FILE "01 - In the Still of the Night.wav" WAVE
  TRACK 01 AUDIO
    TITLE "In the Still of the Night"
    PERFORMER "Shirley Bassey"
    INDEX 01 00:00:00
  TRACK 02 AUDIO
    TITLE "Let There Be Love"
    PERFORMER "Shirley Bassey"
    INDEX 00 03:21:45
FILE "02 - Let There Be Love.wav" WAVE
    INDEX 01 00:00:00
  TRACK 03 AUDIO
    TITLE "All at Once (Deja)"
    PERFORMER "Shirley Bassey"
    INDEX 00 03:11:23
FILE "03 - All at Once (Deja).wav" WAVE
    INDEX 01 00:00:00
  TRACK 04 AUDIO
    TITLE "For Every Man There's a Woman"
    PERFORMER "Shirley Bassey"
    INDEX 00 03:30:40
FILE "04 - For Every Man There's a Woman.wav" WAVE
    INDEX 01 00:00:00
  TRACK 05 AUDIO
    TITLE "I'm in the Mood for Love"
    PERFORMER "Shirley Bassey"
    INDEX 00 03:51:25
FILE "05 - I'm in the Mood for Love.wav" WAVE
    INDEX 01 00:00:00
  TRACK 06 AUDIO
    TITLE "So in Love"
    PERFORMER "Shirley Bassey"
    INDEX 00 03:19:70
FILE "06 - So in Love.wav" WAVE
    INDEX 01 00:00:00
  TRACK 07 AUDIO
    TITLE "If I Were a Bell"
    PERFORMER "Shirley Bassey"
    INDEX 00 03:01:48
FILE "07 - If I Were a Bell.wav" WAVE
    INDEX 01 00:00:00
  TRACK 08 AUDIO
    TITLE "There Will Never Be Another You"
    PERFORMER "Shirley Bassey"
    INDEX 00 02:51:48
FILE "08 - There Will Never Be Another You.wav" WAVE
    INDEX 01 00:00:00
  TRACK 09 AUDIO
    TITLE "Hooray for Love"
    PERFORMER "Shirley Bassey"
    INDEX 00 04:21:45
FILE "09 - Hooray for Love.wav" WAVE
    INDEX 01 00:00:00
  TRACK 10 AUDIO
    TITLE "Too Late Now"
    PERFORMER "Shirley Bassey"
    INDEX 00 03:10:20
FILE "10 - Too Late Now.wav" WAVE
    INDEX 01 00:00:00
  TRACK 11 AUDIO
    TITLE "I'm Shooting High"
    PERFORMER "Shirley Bassey"
    INDEX 00 03:37:48
FILE "11 - I'm Shooting High.wav" WAVE
    INDEX 01 00:00:00
  TRACK 12 AUDIO
    TITLE "Ev'ry Time We Say Goodbye"
    PERFORMER "Shirley Bassey"
    INDEX 00 02:19:48
FILE "12 - Ev'ry Time We Say Goodbye.wav" WAVE
    INDEX 01 00:00:00
Код:
[CUETools log; Date: 09.06.2020 11:43:25; Version: 2.1.6]
[CTDB TOCID: kojCyVUEgB5Ra1lsMSQ2jMCTFxM-] found.
Track | CTDB Status
  1   | (10/10) Accurately ripped
  2   | (10/10) Accurately ripped
  3   | (10/10) Accurately ripped
  4   | (10/10) Accurately ripped
  5   | (10/10) Accurately ripped
  6   | (10/10) Accurately ripped
  7   | (10/10) Accurately ripped
  8   | (10/10) Accurately ripped
  9   | (10/10) Accurately ripped
 10   | ( 9/10) Accurately ripped
 11   | ( 9/10) Accurately ripped
 12   | (10/10) Accurately ripped
[AccurateRip ID: 00127cb5-00acce65-8c09ef0c] found.
Track   [  CRC   |   V2   ] Status
 01     [8dc0efd6|e587ce7c] (3+4/7) Accurately ripped
 02     [a8e9c59e|5145b243] (3+4/7) Accurately ripped
 03     [f8f76410|8dbec237] (3+4/7) Accurately ripped
 04     [895a9040|c4f7f4ab] (3+4/7) Accurately ripped
 05     [2e8c151e|745f857a] (3+4/7) Accurately ripped
 06     [58005081|6a17eff9] (3+4/7) Accurately ripped
 07     [cfbf156a|6e554c6f] (3+4/7) Accurately ripped
 08     [8b9c8f4e|1dd046e4] (3+4/7) Accurately ripped
 09     [de7e9a7a|594aee3a] (3+4/7) Accurately ripped
 10     [2a36d378|7eca0dda] (3+3/6) Accurately ripped
 11     [2952a223|06674837] (3+3/6) Accurately ripped
 12     [4c77fc4f|4be601c4] (3+4/7) Accurately ripped
Track Peak [ CRC32  ] [W/O NULL] [  LOG   ]
 --   99,9 [4138D7F9] [1BD4F0AE]
 01   99,9 [27F5CF30] [35A91618]   CRC32
 02   97,3 [797D00AE] [B14CFB60]   CRC32
 03   90,6 [3511B4EF] [AE74EB3A]   CRC32
 04   99,9 [68A07C2D] [3A88E0D5]   CRC32
 05   82,6 [136BD514] [449D7D6F]   CRC32
 06   92,5 [ABEC3BAD] [00D95DE7]   CRC32
 07   99,9 [55E01A9B] [A3D7FCCF]   CRC32
 08   89,1 [9FD8E19C] [DCE22179]   CRC32
 09   99,9 [10A5C988] [8B706722]   CRC32
 10   89,7 [2407571F] [F00B6BBE]   CRC32
 11   95,5 [940D4443] [A225A7C0]   CRC32
 12   81,9 [6CCE6875] [2310665C]   CRC32
Shirley Bassey's second album for EMI/Columbia is something of a letdown after her debut, The Fabulous Shirley Bassey. Producer Norman Newell again employs the services of Geoff Love & His Orchestra, who provide rather thick-textured accompaniment that sometimes seems out of sync with the singer's full abilities, which never get used on this LP. Bassey's singing is assured and rich-toned, whether she's doing straight pop or bluesy torch ballads like "For Every Man There's a Woman," and she does plumb some unexpected depths of emotion in a slow, impassioned "I'm in the Mood for Love," on which the orchestra is a little too busy for the good of the singer or the song. Love's accompaniments throughout are rather problematic -- the bandleader evidently favored the use of bongos on some of this repertory, but, as with all instruments with the least bit of exoticism, a little bongos go a long way. Generally, Bassey seems less comfortable with both the songs and the arrangements on this album than she did on her debut, although she does have a few beautiful moments here. This was reissued at the end of the 1990s as part of EMI's anniversary series in 24-bit sound.
Правила, инструкции, FAQ!!!
Торрент  Добавлен [22 июн 2020, 15:38] Скачать торрент Магнет ссылка
Скачать торрент
[ Размер 20.25 КБ / Просмотров 1 ]

Статус
Проверен 
 
Размер  239.65 МБ
Приватный: Нет (DHT включён)
.torrent скачан  0
 


     Отправить личное сообщение
   
Страница 1 из 1
Показать сообщения за:  Поле сортировки  
Начать новую тему Ответить на тему


Сейчас этот форум просматривают: нет зарегистрированных пользователей и гости: 0


Вы не можете начинать темы
Вы не можете отвечать на сообщения
Вы не можете редактировать свои сообщения
Вы не можете удалять свои сообщения
Вы не можете добавлять вложения

Перейти:  
cron