Начать новую тему Ответить на тему
Статистика раздачи
Размер: 256.58 МБ | Добавлен: 22 июн 2020, 15:37 | Скачали: 0
Сидеров: 0  [0 байт/сек]    Личеров: 0  [0 байт/сек]
Пред. тема | След. тема 

Автор
Сообщение

СообщениеДобавлено: 22 июн 2020, 15:37 

Ответить с цитатой 

Johnny Mathis - In a Sentimental Mood: Mathis Sings Ellington
Жанр: Vocal Jazz, Pop
Носитель: CD
Страна-производитель диска (релиза): США
Год издания: 1990
Издатель (лейбл): Columbia
Номер по каталогу: CK 46069
Аудиокодек: FLAC (*.flac)
Тип рипа: tracks+.cue
Продолжительность: 00:54:45
Источник: mrprobe
Наличие сканов в содержимом раздачи: нет
Треклист:
01. Overture: A Musical Tribute to Duke Ellington (2:17)
02. Lush Life (4:17)
03. Don't You Know I Care (Don't You Care I Know)/I Didn't Know About You (4:49)
04. Things Ain't What They Used to Be (Instrumental) (1:19)
05. In a Sentimental Mood (4:07)
06. What Am I Here For (4:23)
07. I Got It Bad and That Ain't Good (Instrumental) (1:44)
08. Something to Live For (3:40)
09. Solitude (3:44)
10. Perdido (Instrumental) (1:07)
11. Prelude to a Kiss (2:53)
12. In a Mellow Tone (3:21)
13. Don't Get Around Much Anymore (3:20)
14. Satin Doll (Instrumental) (1:10)
15. Come Sunday (3:28)
16. Do Nothin' Till You Hear from Me (4:42)
17. Caravan (Instrumental) (0:56)
18. Day Dream (3:28)
Код:
Exact Audio Copy V1.3 from 2. September 2016
EAC extraction logfile from 11. May 2020, 4:08
Johnny Mathis / In a Sentimental Mood: Mathis Sings Ellington
Used drive  : HL-DT-STBD-RE  WH14NS40   Adapter: 1  ID: 0
Read mode               : Secure
Utilize accurate stream : Yes
Defeat audio cache      : Yes
Make use of C2 pointers : No
Read offset correction                      : 6
Overread into Lead-In and Lead-Out          : No
Fill up missing offset samples with silence : Yes
Delete leading and trailing silent blocks   : No
Null samples used in CRC calculations       : Yes
Used interface                              : Native Win32 interface for Win NT & 2000
Gap handling                                : Appended to previous track
Used output format              : User Defined Encoder
Selected bitrate                : 1024 kBit/s
Quality                         : High
Add ID3 tag                     : No
Command line compressor         : C:\Program Files (x86)\Exact Audio Copy\Flac\flac.exe
Additional command line options : -8 -V -T "ARTIST=%artist%" -T "TITLE=%title%" -T "ALBUM=%albumtitle%" -T "DATE=%year%" -T "TRACKNUMBER=%tracknr%" -T "GENRE=%genre%" -T "PERFORMER=%albuminterpret%" -T "COMPOSER=%composer%" %haslyrics%--tag-from-file=LYRICS="%lyricsfile%"%haslyrics% -T "ALBUMARTIST=%albumartist%" -T "DISCNUMBER=%cdnumber%" -T "TOTALDISCS=%totalcds%" -T "TOTALTRACKS=%numtracks%" -T "COMMENT=%comment%" %source% -o %dest%
TOC of the extracted CD
     Track |   Start  |  Length  | Start sector | End sector
    ---------------------------------------------------------
        1  |  0:00.00 |  2:16.60 |         0    |    10259
        2  |  2:16.60 |  4:17.17 |     10260    |    29551
        3  |  6:34.02 |  4:48.50 |     29552    |    51201
        4  | 11:22.52 |  1:19.08 |     51202    |    57134
        5  | 12:41.60 |  4:07.20 |     57135    |    75679
        6  | 16:49.05 |  4:23.30 |     75680    |    95434
        7  | 21:12.35 |  1:43.57 |     95435    |   103216
        8  | 22:56.17 |  3:40.00 |    103217    |   119716
        9  | 26:36.17 |  3:43.48 |    119717    |   136489
       10  | 30:19.65 |  1:07.32 |    136490    |   141546
       11  | 31:27.22 |  2:53.25 |    141547    |   154546
       12  | 34:20.47 |  3:21.05 |    154547    |   169626
       13  | 37:41.52 |  3:19.60 |    169627    |   184611
       14  | 41:01.37 |  1:09.45 |    184612    |   189831
       15  | 42:11.07 |  3:27.60 |    189832    |   205416
       16  | 45:38.67 |  4:41.50 |    205417    |   226541
       17  | 50:20.42 |  0:55.48 |    226542    |   230714
       18  | 51:16.15 |  3:27.47 |    230715    |   246286
Track  1
     Filename C:\EAC\Johnny Mathis ‎– In A Sentimental Mood Mathis Sings Ellington(1990){Columbia ‎– CK 46069}{FLAC}\01 Overture- A Musical Tribute to Duke Ellington.wav
     Pre-gap length  0:00:02.00
     Peak level 74.5 %
     Extraction speed 1.9 X
     Track quality 99.9 %
     Test CRC 401E8336
     Copy CRC 401E8336
     Accurately ripped (confidence 2)  [92E4A9FD]  (AR v2)
     Copy OK
Track  2
     Filename C:\EAC\Johnny Mathis ‎– In A Sentimental Mood Mathis Sings Ellington(1990){Columbia ‎– CK 46069}{FLAC}\02 Lush Life.wav
     Peak level 69.4 %
     Extraction speed 1.6 X
     Track quality 100.0 %
     Test CRC 97A26486
     Copy CRC 97A26486
     Accurately ripped (confidence 2)  [B2B5C4A7]  (AR v2)
     Copy OK
Track  3
     Filename C:\EAC\Johnny Mathis ‎– In A Sentimental Mood Mathis Sings Ellington(1990){Columbia ‎– CK 46069}{FLAC}\03 I Didn't Know About You.wav
     Pre-gap length  0:00:01.61
     Peak level 76.9 %
     Extraction speed 1.2 X
     Track quality 100.0 %
     Test CRC 916C058F
     Copy CRC 916C058F
     Accurately ripped (confidence 2)  [2DE947E6]  (AR v2)
     Copy OK
Track  4
     Filename C:\EAC\Johnny Mathis ‎– In A Sentimental Mood Mathis Sings Ellington(1990){Columbia ‎– CK 46069}{FLAC}\04 Things Ain't What They Used to Be (instrumental).wav
     Peak level 65.4 %
     Extraction speed 1.0 X
     Track quality 100.0 %
     Test CRC 0982700E
     Copy CRC 0982700E
     Accurately ripped (confidence 2)  [75E340E8]  (AR v2)
     Copy OK
Track  5
     Filename C:\EAC\Johnny Mathis ‎– In A Sentimental Mood Mathis Sings Ellington(1990){Columbia ‎– CK 46069}{FLAC}\05 In a Sentimental Mood.wav
     Pre-gap length  0:00:01.29
     Peak level 64.5 %
     Extraction speed 1.4 X
     Track quality 100.0 %
     Test CRC 98133E5F
     Copy CRC 98133E5F
     Accurately ripped (confidence 2)  [A1E9A142]  (AR v2)
     Copy OK
Track  6
     Filename C:\EAC\Johnny Mathis ‎– In A Sentimental Mood Mathis Sings Ellington(1990){Columbia ‎– CK 46069}{FLAC}\06 What Am I Here For.wav
     Pre-gap length  0:00:01.98
     Peak level 100.0 %
     Extraction speed 1.5 X
     Track quality 100.0 %
     Test CRC 663CF22A
     Copy CRC 663CF22A
     Accurately ripped (confidence 2)  [60244F37]  (AR v2)
     Copy OK
Track  7
     Filename C:\EAC\Johnny Mathis ‎– In A Sentimental Mood Mathis Sings Ellington(1990){Columbia ‎– CK 46069}{FLAC}\07 I Got It Bad (and That Ain't Good) (instrumental).wav
     Pre-gap length  0:00:00.82
     Peak level 26.0 %
     Extraction speed 1.3 X
     Track quality 100.0 %
     Test CRC 001A7827
     Copy CRC 001A7827
     Accurately ripped (confidence 2)  [6B5424CF]  (AR v2)
     Copy OK
Track  8
     Filename C:\EAC\Johnny Mathis ‎– In A Sentimental Mood Mathis Sings Ellington(1990){Columbia ‎– CK 46069}{FLAC}\08 Something to Live For.wav
     Peak level 90.4 %
     Extraction speed 1.6 X
     Track quality 100.0 %
     Test CRC A6674A3E
     Copy CRC A6674A3E
     Accurately ripped (confidence 2)  [DB715F04]  (AR v2)
     Copy OK
Track  9
     Filename C:\EAC\Johnny Mathis ‎– In A Sentimental Mood Mathis Sings Ellington(1990){Columbia ‎– CK 46069}{FLAC}\09 Solitude.wav
     Pre-gap length  0:00:01.48
     Peak level 64.1 %
     Extraction speed 1.6 X
     Track quality 100.0 %
     Test CRC E50949E6
     Copy CRC E50949E6
     Accurately ripped (confidence 2)  [17A7D48A]  (AR v2)
     Copy OK
Track 10
     Filename C:\EAC\Johnny Mathis ‎– In A Sentimental Mood Mathis Sings Ellington(1990){Columbia ‎– CK 46069}{FLAC}\10 Perdido (instrumental).wav
     Pre-gap length  0:00:03.16
     Peak level 87.6 %
     Extraction speed 1.2 X
     Track quality 100.0 %
     Test CRC 3AED09C3
     Copy CRC 3AED09C3
     Accurately ripped (confidence 2)  [4A6CC5C7]  (AR v2)
     Copy OK
Track 11
     Filename C:\EAC\Johnny Mathis ‎– In A Sentimental Mood Mathis Sings Ellington(1990){Columbia ‎– CK 46069}{FLAC}\11 Prelude to a Kiss.wav
     Pre-gap length  0:00:01.85
     Peak level 78.9 %
     Extraction speed 1.6 X
     Track quality 100.0 %
     Test CRC A3CA34BC
     Copy CRC A3CA34BC
     Accurately ripped (confidence 2)  [1B615A33]  (AR v2)
     Copy OK
Track 12
     Filename C:\EAC\Johnny Mathis ‎– In A Sentimental Mood Mathis Sings Ellington(1990){Columbia ‎– CK 46069}{FLAC}\12 In a Mellow Tone.wav
     Pre-gap length  0:00:00.72
     Peak level 100.0 %
     Extraction speed 1.7 X
     Track quality 100.0 %
     Test CRC CF21255C
     Copy CRC CF21255C
     Accurately ripped (confidence 2)  [2F120B19]  (AR v2)
     Copy OK
Track 13
     Filename C:\EAC\Johnny Mathis ‎– In A Sentimental Mood Mathis Sings Ellington(1990){Columbia ‎– CK 46069}{FLAC}\13 Don't Get Around Much Anymore.wav
     Pre-gap length  0:00:01.78
     Peak level 93.3 %
     Extraction speed 1.8 X
     Track quality 100.0 %
     Test CRC AD06DB6E
     Copy CRC AD06DB6E
     Accurately ripped (confidence 2)  [6C273389]  (AR v2)
     Copy OK
Track 14
     Filename C:\EAC\Johnny Mathis ‎– In A Sentimental Mood Mathis Sings Ellington(1990){Columbia ‎– CK 46069}{FLAC}\14 Satin Doll (instrumental).wav
     Pre-gap length  0:00:02.28
     Peak level 46.0 %
     Extraction speed 1.4 X
     Track quality 100.0 %
     Test CRC 01D205E3
     Copy CRC 01D205E3
     Accurately ripped (confidence 2)  [B7D3DE0C]  (AR v2)
     Copy OK
Track 15
     Filename C:\EAC\Johnny Mathis ‎– In A Sentimental Mood Mathis Sings Ellington(1990){Columbia ‎– CK 46069}{FLAC}\15 Come Sunday.wav
     Pre-gap length  0:00:01.74
     Peak level 83.1 %
     Extraction speed 1.6 X
     Track quality 99.9 %
     Test CRC B68AB078
     Copy CRC B68AB078
     Accurately ripped (confidence 2)  [9B9919E0]  (AR v2)
     Copy OK
Track 16
     Filename C:\EAC\Johnny Mathis ‎– In A Sentimental Mood Mathis Sings Ellington(1990){Columbia ‎– CK 46069}{FLAC}\16 Do Nothin' Till You Hear From Me.wav
     Pre-gap length  0:00:02.38
     Peak level 95.5 %
     Extraction speed 2.0 X
     Track quality 100.0 %
     Test CRC 30AF49CC
     Copy CRC 30AF49CC
     Accurately ripped (confidence 2)  [10EEB9EB]  (AR v2)
     Copy OK
Track 17
     Filename C:\EAC\Johnny Mathis ‎– In A Sentimental Mood Mathis Sings Ellington(1990){Columbia ‎– CK 46069}{FLAC}\17 Caravan (instrumental).wav
     Pre-gap length  0:00:01.58
     Peak level 38.1 %
     Extraction speed 1.4 X
     Track quality 100.0 %
     Test CRC C3D413B2
     Copy CRC C3D413B2
     Accurately ripped (confidence 2)  [B6072BAD]  (AR v2)
     Copy OK
Track 18
     Filename C:\EAC\Johnny Mathis ‎– In A Sentimental Mood Mathis Sings Ellington(1990){Columbia ‎– CK 46069}{FLAC}\18 Day Dream.wav
     Pre-gap length  0:00:00.98
     Peak level 74.1 %
     Extraction speed 2.0 X
     Track quality 100.0 %
     Test CRC 8E14438C
     Copy CRC 8E14438C
     Accurately ripped (confidence 2)  [444C430B]  (AR v2)
     Copy OK
All tracks accurately ripped
No errors occurred
End of status report
---- CUETools DB Plugin V2.1.6
[CTDB TOCID: 3vgY13fq_uq9Rk2qcG82Meuzpuk-] found
Submit result: 3vgY13fq_uq9Rk2qcG82Meuzpuk- has been confirmed
Track | CTDB Status
  1   | (18/18) Accurately ripped
  2   | (18/18) Accurately ripped
  3   | (18/18) Accurately ripped
  4   | (18/18) Accurately ripped
  5   | (18/18) Accurately ripped
  6   | (18/18) Accurately ripped
  7   | (18/18) Accurately ripped
  8   | (18/18) Accurately ripped
  9   | (18/18) Accurately ripped
 10   | (18/18) Accurately ripped
 11   | (18/18) Accurately ripped
 12   | (17/18) Accurately ripped
 13   | (18/18) Accurately ripped
 14   | (18/18) Accurately ripped
 15   | (18/18) Accurately ripped
 16   | (18/18) Accurately ripped
 17   | (18/18) Accurately ripped
 18   | (18/18) Accurately ripped
==== Log checksum 764B6E043F80E0E73076B4AFF84BF7E036BD19AEE224D7E4A68D69825DCB5A4A ====
Код:
REM GENRE Jazz
REM DATE 1990
REM DISCID FC0CD312
REM COMMENT "ExactAudioCopy v1.3"
PERFORMER "Johnny Mathis"
TITLE "In a Sentimental Mood: Mathis Sings Ellington"
FILE "01 - Overture- A Musical Tribute to Duke Ellington.wav" WAVE
  TRACK 01 AUDIO
    TITLE "Overture: A Musical Tribute to Duke Ellington"
    PERFORMER "Johnny Mathis"
    INDEX 01 00:00:00
FILE "02 - Lush Life.wav" WAVE
  TRACK 02 AUDIO
    TITLE "Lush Life"
    PERFORMER "Johnny Mathis"
    INDEX 01 00:00:00
  TRACK 03 AUDIO
    TITLE "Don't You Know I Care (Don't You Care I Know)/I Didn't Know About You"
    PERFORMER "Johnny Mathis"
    INDEX 00 04:15:46
FILE "03 - Don't You Know I Care (Don't You Care I Know),I Didn't Know About You.wav" WAVE
    INDEX 01 00:00:00
FILE "04 - Things Ain't What They Used to Be (Instrumental).wav" WAVE
  TRACK 04 AUDIO
    TITLE "Things Ain't What They Used to Be (Instrumental)"
    PERFORMER "Johnny Mathis"
    INDEX 01 00:00:00
  TRACK 05 AUDIO
    TITLE "In a Sentimental Mood"
    PERFORMER "Johnny Mathis"
    INDEX 00 01:17:61
FILE "05 - In a Sentimental Mood.wav" WAVE
    INDEX 01 00:00:00
  TRACK 06 AUDIO
    TITLE "What Am I Here For"
    PERFORMER "Johnny Mathis"
    INDEX 00 04:05:21
FILE "06 - What Am I Here For.wav" WAVE
    INDEX 01 00:00:00
  TRACK 07 AUDIO
    TITLE "I Got It Bad and That Ain't Good (Instrumental)"
    PERFORMER "Johnny Mathis"
    INDEX 00 04:22:43
FILE "07 - I Got It Bad and That Ain't Good (Instrumental).wav" WAVE
    INDEX 01 00:00:00
FILE "08 - Something to Live For.wav" WAVE
  TRACK 08 AUDIO
    TITLE "Something to Live For"
    PERFORMER "Johnny Mathis"
    INDEX 01 00:00:00
  TRACK 09 AUDIO
    TITLE "Solitude"
    PERFORMER "Johnny Mathis"
    INDEX 00 03:38:39
FILE "09 - Solitude.wav" WAVE
    INDEX 01 00:00:00
  TRACK 10 AUDIO
    TITLE "Perdido (Instrumental)"
    PERFORMER "Johnny Mathis"
    INDEX 00 03:40:36
FILE "10 - Perdido (Instrumental).wav" WAVE
    INDEX 01 00:00:00
  TRACK 11 AUDIO
    TITLE "Prelude to a Kiss"
    PERFORMER "Johnny Mathis"
    INDEX 00 01:05:43
FILE "11 - Prelude to a Kiss.wav" WAVE
    INDEX 01 00:00:00
  TRACK 12 AUDIO
    TITLE "In a Mellow Tone"
    PERFORMER "Johnny Mathis"
    INDEX 00 02:52:46
FILE "12 - In a Mellow Tone.wav" WAVE
    INDEX 01 00:00:00
  TRACK 13 AUDIO
    TITLE "Don't Get Around Much Anymore"
    PERFORMER "Johnny Mathis"
    INDEX 00 03:19:21
FILE "13 - Don't Get Around Much Anymore.wav" WAVE
    INDEX 01 00:00:00
  TRACK 14 AUDIO
    TITLE "Satin Doll (Instrumental)"
    PERFORMER "Johnny Mathis"
    INDEX 00 03:17:39
FILE "14 - Satin Doll (Instrumental).wav" WAVE
    INDEX 01 00:00:00
  TRACK 15 AUDIO
    TITLE "Come Sunday"
    PERFORMER "Johnny Mathis"
    INDEX 00 01:07:64
FILE "15 - Come Sunday.wav" WAVE
    INDEX 01 00:00:00
  TRACK 16 AUDIO
    TITLE "Do Nothin' Till You Hear from Me"
    PERFORMER "Johnny Mathis"
    INDEX 00 03:25:31
FILE "16 - Do Nothin' Till You Hear from Me.wav" WAVE
    INDEX 01 00:00:00
  TRACK 17 AUDIO
    TITLE "Caravan (Instrumental)"
    PERFORMER "Johnny Mathis"
    INDEX 00 04:40:06
FILE "17 - Caravan (Instrumental).wav" WAVE
    INDEX 01 00:00:00
  TRACK 18 AUDIO
    TITLE "Day Dream"
    PERFORMER "Johnny Mathis"
    INDEX 00 00:54:49
FILE "18 - Day Dream.wav" WAVE
    INDEX 01 00:00:00
Код:
[CUETools log; Date: 28.05.2020 19:56:17; Version: 2.1.6]
[CTDB TOCID: 3vgY13fq_uq9Rk2qcG82Meuzpuk-] found.
Track | CTDB Status
  1   | (19/19) Accurately ripped
  2   | (19/19) Accurately ripped
  3   | (19/19) Accurately ripped
  4   | (19/19) Accurately ripped
  5   | (19/19) Accurately ripped
  6   | (19/19) Accurately ripped
  7   | (19/19) Accurately ripped
  8   | (19/19) Accurately ripped
  9   | (19/19) Accurately ripped
 10   | (19/19) Accurately ripped
 11   | (19/19) Accurately ripped
 12   | (18/19) Accurately ripped
 13   | (19/19) Accurately ripped
 14   | (19/19) Accurately ripped
 15   | (19/19) Accurately ripped
 16   | (19/19) Accurately ripped
 17   | (19/19) Accurately ripped
 18   | (19/19) Accurately ripped
[AccurateRip ID: 00250ba6-01e86a9f-fc0cd312] found.
Track   [  CRC   |   V2   ] Status
 01     [630d4cf5|92e4a9fd] (00+02/11) Accurately ripped
 02     [d7144646|b2b5c4a7] (00+02/08) Accurately ripped
 03     [d7f2444a|2de947e6] (00+02/09) Accurately ripped
 04     [564a6f32|75e340e8] (00+02/09) Accurately ripped
 05     [e7dcc2d1|a1e9a142] (00+02/09) Accurately ripped
 06     [13c55782|60244f37] (00+02/09) Accurately ripped
 07     [e66ba892|6b5424cf] (00+02/09) Accurately ripped
 08     [03bc4cdd|db715f04] (00+02/09) Accurately ripped
 09     [c9df7b65|17a7d48a] (00+02/08) Accurately ripped
 10     [8e0b20c9|4a6cc5c7] (00+02/09) Accurately ripped
 11     [e1e71600|1b615a33] (00+02/08) Accurately ripped
 12     [58a9d0c0|2f120b19] (00+02/08) Accurately ripped
 13     [fd2d3d83|6c273389] (00+02/09) Accurately ripped
 14     [bdf02549|b7d3de0c] (00+02/09) Accurately ripped
 15     [5b8d6ccb|9b9919e0] (00+02/09) Accurately ripped
 16     [a56534d0|10eeb9eb] (00+02/08) Accurately ripped
 17     [9ede9163|b6072bad] (00+02/09) Accurately ripped
 18     [ea823705|444c430b] (00+02/09) Accurately ripped
Offsetted by -136:
 01     [612a762c] (00/11) No match (V2 was not tested)
 02     [1094481f] (00/08) No match (V2 was not tested)
 03     [1a0d8445] (00/09) No match (V2 was not tested)
 04     [0da4241f] (00/09) No match (V2 was not tested)
 05     [518aacf9] (00/09) No match (V2 was not tested)
 06     [9c692612] (00/09) No match (V2 was not tested)
 07     [49a7ba22] (00/09) No match (V2 was not tested)
 08     [f827e33d] (00/09) No match (V2 was not tested)
 09     [5e2a22d5] (00/08) No match (V2 was not tested)
 10     [24eaa8f1] (00/09) No match (V2 was not tested)
 11     [93e2c4c0] (00/08) No match (V2 was not tested)
 12     [a3303b80] (00/08) No match (V2 was not tested)
 13     [18494ed3] (00/09) No match (V2 was not tested)
 14     [b755a5e9] (00/09) No match (V2 was not tested)
 15     [81e886c3] (00/09) No match (V2 was not tested)
 16     [171c99d0] (00/08) No match (V2 was not tested)
 17     [3f7885fb] (00/09) No match (V2 was not tested)
 18     [8d94ec75] (00/09) No match (V2 was not tested)
Offsetted by 171:
 01     [8b2437be] (02/11) Accurately ripped
 02     [258ba33f] (00/08) No match (V2 was not tested)
 03     [5b87bc78] (00/09) No match (V2 was not tested)
 04     [337ebc9f] (00/09) No match (V2 was not tested)
 05     [520b802a] (00/09) No match (V2 was not tested)
 06     [cd9d069c] (00/09) No match (V2 was not tested)
 07     [0400218c] (00/09) No match (V2 was not tested)
 08     [142d7ed9] (00/09) No match (V2 was not tested)
 09     [7e7a160b] (00/08) No match (V2 was not tested)
 10     [39c120e2] (00/09) No match (V2 was not tested)
 11     [78b40b38] (00/08) No match (V2 was not tested)
 12     [536dfb78] (00/08) No match (V2 was not tested)
 13     [79353e55] (00/09) No match (V2 was not tested)
 14     [b54cc1ad] (00/09) No match (V2 was not tested)
 15     [00080e06] (00/09) No match (V2 was not tested)
 16     [c1b533f0] (00/08) No match (V2 was not tested)
 17     [8b866742] (00/09) No match (V2 was not tested)
 18     [f9b41a6b] (00/09) No match (V2 was not tested)
Track Peak [ CRC32  ] [W/O NULL] [  LOG   ]
 --  100,0 [D7FB7CC6] [E46BABD2]
 01   74,5 [401E8336] [56D33D44]   CRC32
 02   69,4 [97A26486] [E09BECC7]   CRC32
 03   76,9 [916C058F] [9F90B146]   CRC32
 04   65,4 [0982700E] [1285F596]   CRC32
 05   64,5 [98133E5F] [6DE917A5]   CRC32
 06  100,0 [663CF22A] [326ED924]   CRC32
 07   26,0 [001A7827] [8E267EF7]   CRC32
 08   90,4 [A6674A3E] [83CD90E2]   CRC32
 09   64,1 [E50949E6] [0612B919]   CRC32
 10   87,6 [3AED09C3] [7411A0D6]   CRC32
 11   78,9 [A3CA34BC] [CBA3816A]   CRC32
 12  100,0 [CF21255C] [A522ECBE]   CRC32
 13   93,3 [AD06DB6E] [B05DFDD4]   CRC32
 14   46,0 [01D205E3] [3C550F68]   CRC32
 15   83,1 [B68AB078] [599DCFEA]   CRC32
 16   95,5 [30AF49CC] [D4950DE9]   CRC32
 17   38,1 [C3D413B2] [DFF6B7BE]   CRC32
 18   74,1 [8E14438C] [12069516]   CRC32
When Johnny Mathis got around to recording an album dedicated to Duke Ellington, he had been in the upper echelon of pop vocalists for more than 30 years. While his voice is a little lower than when he started out, he has lost none of that special taste and phrasing which made his records consistently favored by a wide segment of the listening public, both here and abroad. (This album was recorded in England). He still delivers each song with emotional intensity and personal intimacy which lends itself well to such melancholy tunes as "Lush Life." Musical tastes came and went, but Mathis seemed to be unfazed by it all. This album not only is a tribute to his endurance, but to the steadfastness of Duke Ellington and Billy Strayhorn's compositional ingenuity. Most of the arrangements by Brad Dechter and Byron Olson are lush, sentimental, and languid. Yet the music remains as absorbing and enticing as if it were arranged by Ellington himself and played by an all star group of jazz performers. There are a few outstanding jazz performers on this disc to give it a taste, albeit a tiny one, of jazz. Bill Berry's trumpet and Ronny Ross' baritone sax can be heard in the background on the some of the cuts. Fred Hersch's piano shines on such cuts as "In a Sentimental Mood" and "Day Dreams" and he gets a few seconds in the solo spotlight on "Caravan." The arrangements of "Do Nothin' Till You Hear From Me" and "In a Mello Tone" swing, or at least as much as Mathis's vocal ballad style lets them. Ellington purists may flinch a bit at this one, but for most this will be an entertaining 55 minutes of music.
Правила, инструкции, FAQ!!!
Торрент  Добавлен [22 июн 2020, 15:37] Скачать торрент Магнет ссылка
Скачать торрент
[ Размер 12.19 КБ / Просмотров 1 ]

Статус
Проверен 
 
Размер  256.58 МБ
Приватный: Нет (DHT включён)
.torrent скачан  0
 


     Отправить личное сообщение
   
Страница 1 из 1
Показать сообщения за:  Поле сортировки  
Начать новую тему Ответить на тему


Сейчас этот форум просматривают: нет зарегистрированных пользователей и гости: 0


Вы не можете начинать темы
Вы не можете отвечать на сообщения
Вы не можете редактировать свои сообщения
Вы не можете удалять свои сообщения
Вы не можете добавлять вложения

Перейти:  
cron