Начать новую тему Ответить на тему
Статистика раздачи
Размер: 353.6 МБ | Добавлен: 22 июн 2020, 15:37 | Скачали: 0
Сидеров: 0  [0 байт/сек]    Личеров: 0  [0 байт/сек]
Пред. тема | След. тема 

Автор
Сообщение

СообщениеДобавлено: 22 июн 2020, 15:37 

Ответить с цитатой 

Peters Drury Trio - When Old Met New
Жанр: Vocal Jazz
Носитель: CD
Страна-производитель диска (релиза): Канада
Год издания: 1999
Издатель (лейбл): Self-Released
Номер по каталогу: PDT001
Аудиокодек: FLAC (*.flac)
Тип рипа: tracks+.cue
Продолжительность: 01:01:21
Источник: saladgreens
Наличие сканов в содержимом раздачи: нет
Треклист:
01. Fly Me to the Moon (3:25)
02. Not Meant to Fall (5:16)
03. Summertime (5:14)
04. All or Nothing at All (6:59)
05. Simple Words (4:24)
06. Is You Is or Is You Ain't/Steppin' Out (5:53)
07. I Get a Kick Out of You (3:49)
08. Fever (4:16)
09. When Your Lover Has Gone (5:16)
10. Baby, I Don't Want to Know (3:43)
11. Let's Fall in Love (5:13)
12. The Days of Wine and Roses (3:17)
13. Cheek to Cheek (4:36)
Код:
Exact Audio Copy V1.5 from 20. February 2020
EAC extraction logfile from 17. May 2020, 18:47
Peters Drury Trio / When Old Met New
Used drive  : ASUS    DRW-24F1ST   a   Adapter: 1  ID: 0
Read mode               : Secure
Utilize accurate stream : Yes
Defeat audio cache      : Yes
Make use of C2 pointers : No
Read offset correction                      : 6
Overread into Lead-In and Lead-Out          : No
Fill up missing offset samples with silence : Yes
Delete leading and trailing silent blocks   : No
Null samples used in CRC calculations       : Yes
Used interface                              : Native Win32 interface for Win NT & 2000
Gap handling                                : Appended to previous track
Used output format              : User Defined Encoder
Selected bitrate                : 1024 kBit/s
Quality                         : High
Add ID3 tag                     : No
Command line compressor         : C:\Users\Ben\Documents\flac-1.3.2-win\win64\flac.exe
Additional command line options : -8 -V -T "ARTIST=%artist%" -T "TITLE=%title%" -T "ALBUM=%albumtitle%" -T "DATE=%year%" -T "TRACKNUMBER=%tracknr%" -T "GENRE=%genre%" -T "PERFORMER=%albuminterpret%" -T "COMPOSER=%composer%" %haslyrics%--tag-from-file=LYRICS="%lyricsfile%"%haslyrics% -T "ALBUMARTIST=%albumartist%" -T "DISCNUMBER=%cdnumber%" -T "TOTALDISCS=%totalcds%" -T "TOTALTRACKS=%numtracks%" -T "COMMENT=%comment%" %source% -o %dest%
TOC of the extracted CD
     Track |   Start  |  Length  | Start sector | End sector
    ---------------------------------------------------------
        1  |  0:00.00 |  3:25.28 |         0    |    15402
        2  |  3:25.28 |  5:16.09 |     15403    |    39111
        3  |  8:41.37 |  5:14.09 |     39112    |    62670
        4  | 13:55.46 |  6:58.71 |     62671    |    94091
        5  | 20:54.42 |  4:23.59 |     94092    |   113875
        6  | 25:18.26 |  5:52.53 |    113876    |   140328
        7  | 31:11.04 |  3:49.13 |    140329    |   157516
        8  | 35:00.17 |  4:16.25 |    157517    |   176741
        9  | 39:16.42 |  5:16.29 |    176742    |   200470
       10  | 44:32.71 |  3:43.22 |    200471    |   217217
       11  | 48:16.18 |  5:12.51 |    217218    |   240668
       12  | 53:28.69 |  3:17.11 |    240669    |   255454
       13  | 56:46.05 |  4:36.13 |    255455    |   276167
Track  1
     Filename C:\EAC Rips\Peters Drury Trio - When Old Met New - (1999) [FLAC]\01 Fly Me to the Moon.wav
     Pre-gap length  0:00:02.00
     Peak level 96.6 %
     Extraction speed 4.2 X
     Track quality 100.0 %
     Test CRC 597E8FDB
     Copy CRC 597E8FDB
     Accurately ripped (confidence 3)  [C218D07B]  (AR v2)
     Copy OK
Track  2
     Filename C:\EAC Rips\Peters Drury Trio - When Old Met New - (1999) [FLAC]\02 Not Meant to Fall.wav
     Pre-gap length  0:00:02.00
     Peak level 96.6 %
     Extraction speed 5.0 X
     Track quality 100.0 %
     Test CRC 22B341BB
     Copy CRC 22B341BB
     Accurately ripped (confidence 3)  [9305656C]  (AR v2)
     Copy OK
Track  3
     Filename C:\EAC Rips\Peters Drury Trio - When Old Met New - (1999) [FLAC]\03 Summertime.wav
     Pre-gap length  0:00:02.00
     Peak level 96.6 %
     Extraction speed 5.5 X
     Track quality 100.0 %
     Test CRC A0CA17BA
     Copy CRC A0CA17BA
     Accurately ripped (confidence 3)  [C94D9F51]  (AR v2)
     Copy OK
Track  4
     Filename C:\EAC Rips\Peters Drury Trio - When Old Met New - (1999) [FLAC]\04 All or Nothing at All.wav
     Pre-gap length  0:00:02.00
     Peak level 99.2 %
     Extraction speed 5.4 X
     Track quality 99.9 %
     Test CRC A46B99D3
     Copy CRC A46B99D3
     Accurately ripped (confidence 3)  [F0525B9F]  (AR v2)
     Copy OK
Track  5
     Filename C:\EAC Rips\Peters Drury Trio - When Old Met New - (1999) [FLAC]\05 Simple Words.wav
     Pre-gap length  0:00:02.00
     Peak level 33.5 %
     Extraction speed 6.4 X
     Track quality 100.0 %
     Test CRC 3E1F9ACF
     Copy CRC 3E1F9ACF
     Accurately ripped (confidence 3)  [C3D504A7]  (AR v2)
     Copy OK
Track  6
     Filename C:\EAC Rips\Peters Drury Trio - When Old Met New - (1999) [FLAC]\06 Is You Is or Is You Ain't , Steppin' Out.wav
     Pre-gap length  0:00:02.00
     Peak level 96.6 %
     Extraction speed 7.0 X
     Track quality 100.0 %
     Test CRC 9793FEA8
     Copy CRC 9793FEA8
     Accurately ripped (confidence 3)  [4A9F8E69]  (AR v2)
     Copy OK
Track  7
     Filename C:\EAC Rips\Peters Drury Trio - When Old Met New - (1999) [FLAC]\07 I Get a Kick Out of You.wav
     Pre-gap length  0:00:02.00
     Peak level 96.6 %
     Extraction speed 6.9 X
     Track quality 100.0 %
     Test CRC 319CDABC
     Copy CRC 319CDABC
     Accurately ripped (confidence 3)  [9E70DBC9]  (AR v2)
     Copy OK
Track  8
     Filename C:\EAC Rips\Peters Drury Trio - When Old Met New - (1999) [FLAC]\08 Fever.wav
     Pre-gap length  0:00:02.00
     Peak level 74.1 %
     Extraction speed 7.3 X
     Track quality 100.0 %
     Test CRC 41629FA1
     Copy CRC 41629FA1
     Accurately ripped (confidence 3)  [1479F07F]  (AR v2)
     Copy OK
Track  9
     Filename C:\EAC Rips\Peters Drury Trio - When Old Met New - (1999) [FLAC]\09 When Your Lover Has Gone.wav
     Pre-gap length  0:00:02.00
     Peak level 96.6 %
     Extraction speed 6.4 X
     Track quality 99.9 %
     Test CRC 322636B8
     Copy CRC 322636B8
     Accurately ripped (confidence 3)  [9D78B464]  (AR v2)
     Copy OK
Track 10
     Filename C:\EAC Rips\Peters Drury Trio - When Old Met New - (1999) [FLAC]\10 Baby, I Don't Want to Know.wav
     Pre-gap length  0:00:02.00
     Peak level 96.6 %
     Extraction speed 7.7 X
     Track quality 100.0 %
     Test CRC 9DD4D118
     Copy CRC 9DD4D118
     Accurately ripped (confidence 3)  [0E2306EE]  (AR v2)
     Copy OK
Track 11
     Filename C:\EAC Rips\Peters Drury Trio - When Old Met New - (1999) [FLAC]\11 Let's Fall in Love.wav
     Pre-gap length  0:00:02.00
     Peak level 96.6 %
     Extraction speed 8.3 X
     Track quality 100.0 %
     Test CRC E9236D5A
     Copy CRC E9236D5A
     Accurately ripped (confidence 3)  [D2E5851E]  (AR v2)
     Copy OK
Track 12
     Filename C:\EAC Rips\Peters Drury Trio - When Old Met New - (1999) [FLAC]\12 The Days of Wine and Roses.wav
     Pre-gap length  0:00:02.00
     Peak level 96.6 %
     Extraction speed 8.0 X
     Track quality 100.0 %
     Test CRC 341202DA
     Copy CRC 341202DA
     Accurately ripped (confidence 3)  [AE4925FA]  (AR v2)
     Copy OK
Track 13
     Filename C:\EAC Rips\Peters Drury Trio - When Old Met New - (1999) [FLAC]\13 Cheek to Cheek.wav
     Pre-gap length  0:00:02.00
     Peak level 96.6 %
     Extraction speed 8.6 X
     Track quality 100.0 %
     Test CRC CC13E314
     Copy CRC CC13E314
     Accurately ripped (confidence 3)  [F4BDF64D]  (AR v2)
     Copy OK
All tracks accurately ripped
No errors occurred
End of status report
---- CUETools DB Plugin V2.1.6
[CTDB TOCID: unt_i7xvNYPNQ2cgx7hZLAqGVdA-] found
Submit result: unt_i7xvNYPNQ2cgx7hZLAqGVdA- has been confirmed
Track | CTDB Status
  1   | (6/6) Accurately ripped
  2   | (6/6) Accurately ripped
  3   | (6/6) Accurately ripped
  4   | (6/6) Accurately ripped
  5   | (6/6) Accurately ripped
  6   | (6/6) Accurately ripped
  7   | (6/6) Accurately ripped
  8   | (6/6) Accurately ripped
  9   | (6/6) Accurately ripped
 10   | (6/6) Accurately ripped
 11   | (6/6) Accurately ripped
 12   | (6/6) Accurately ripped
 13   | (6/6) Accurately ripped
==== Log checksum 45051E3CCB84D927EC500937F7D52B490AC18D4123F2902939C19F35A81A1022 ====
Код:
REM GENRE Jazz
REM DATE 1999
REM DISCID AA0E620D
REM COMMENT "ExactAudioCopy v1.5"
PERFORMER "Peters Drury Trio"
TITLE "When Old Met New"
FILE "01 - Fly Me to the Moon.wav" WAVE
  TRACK 01 AUDIO
    TITLE "Fly Me to the Moon"
    PERFORMER "Peters Drury Trio"
    INDEX 01 00:00:00
  TRACK 02 AUDIO
    TITLE "Not Meant to Fall"
    PERFORMER "Peters Drury Trio"
    INDEX 00 03:23:28
FILE "02 - Not Meant to Fall.wav" WAVE
    INDEX 01 00:00:00
  TRACK 03 AUDIO
    TITLE "Summertime"
    PERFORMER "Peters Drury Trio"
    INDEX 00 05:14:09
FILE "03 - Summertime.wav" WAVE
    INDEX 01 00:00:00
  TRACK 04 AUDIO
    TITLE "All or Nothing at All"
    PERFORMER "Peters Drury Trio"
    INDEX 00 05:12:09
FILE "04 - All or Nothing at All.wav" WAVE
    INDEX 01 00:00:00
  TRACK 05 AUDIO
    TITLE "Simple Words"
    PERFORMER "Peters Drury Trio"
    INDEX 00 06:56:71
FILE "05 - Simple Words.wav" WAVE
    INDEX 01 00:00:00
  TRACK 06 AUDIO
    TITLE "Is You Is or Is You Ain't/Steppin' Out"
    PERFORMER "Peters Drury Trio"
    INDEX 00 04:21:59
FILE "06 - Is You Is or Is You Ain't,Steppin' Out.wav" WAVE
    INDEX 01 00:00:00
  TRACK 07 AUDIO
    TITLE "I Get a Kick Out of You"
    PERFORMER "Peters Drury Trio"
    INDEX 00 05:50:53
FILE "07 - I Get a Kick Out of You.wav" WAVE
    INDEX 01 00:00:00
  TRACK 08 AUDIO
    TITLE "Fever"
    PERFORMER "Peters Drury Trio"
    INDEX 00 03:47:13
FILE "08 - Fever.wav" WAVE
    INDEX 01 00:00:00
  TRACK 09 AUDIO
    TITLE "When Your Lover Has Gone"
    PERFORMER "Peters Drury Trio"
    INDEX 00 04:14:25
FILE "09 - When Your Lover Has Gone.wav" WAVE
    INDEX 01 00:00:00
  TRACK 10 AUDIO
    TITLE "Baby, I Don't Want to Know"
    PERFORMER "Peters Drury Trio"
    INDEX 00 05:14:29
FILE "10 - Baby, I Don't Want to Know.wav" WAVE
    INDEX 01 00:00:00
  TRACK 11 AUDIO
    TITLE "Let's Fall in Love"
    PERFORMER "Peters Drury Trio"
    INDEX 00 03:41:22
FILE "11 - Let's Fall in Love.wav" WAVE
    INDEX 01 00:00:00
  TRACK 12 AUDIO
    TITLE "The Days of Wine and Roses"
    PERFORMER "Peters Drury Trio"
    INDEX 00 05:10:51
FILE "12 - The Days of Wine and Roses.wav" WAVE
    INDEX 01 00:00:00
  TRACK 13 AUDIO
    TITLE "Cheek to Cheek"
    PERFORMER "Peters Drury Trio"
    INDEX 00 03:15:11
FILE "13 - Cheek to Cheek.wav" WAVE
    INDEX 01 00:00:00
Код:
[CUETools log; Date: 28.05.2020 15:55:46; Version: 2.1.6]
[CTDB TOCID: unt_i7xvNYPNQ2cgx7hZLAqGVdA-] found.
Track | CTDB Status
  1   | (7/7) Accurately ripped
  2   | (7/7) Accurately ripped
  3   | (7/7) Accurately ripped
  4   | (7/7) Accurately ripped
  5   | (7/7) Accurately ripped
  6   | (7/7) Accurately ripped
  7   | (7/7) Accurately ripped
  8   | (7/7) Accurately ripped
  9   | (7/7) Accurately ripped
 10   | (7/7) Accurately ripped
 11   | (7/7) Accurately ripped
 12   | (7/7) Accurately ripped
 13   | (7/7) Accurately ripped
[AccurateRip ID: 001e5c5b-012ef6d7-aa0e620d] found.
Track   [  CRC   |   V2   ] Status
 01     [823f136c|c218d07b] (0+3/3) Accurately ripped
 02     [df02feab|9305656c] (0+3/3) Accurately ripped
 03     [8d7c2d40|c94d9f51] (0+3/3) Accurately ripped
 04     [57455b63|f0525b9f] (0+3/3) Accurately ripped
 05     [22548c79|c3d504a7] (0+3/3) Accurately ripped
 06     [a4069d94|4a9f8e69] (0+3/3) Accurately ripped
 07     [4c3b4b09|9e70dbc9] (0+3/3) Accurately ripped
 08     [68895e58|1479f07f] (0+3/3) Accurately ripped
 09     [2f2f52cf|9d78b464] (0+3/3) Accurately ripped
 10     [8d898b9d|0e2306ee] (0+3/3) Accurately ripped
 11     [0847c70b|d2e5851e] (0+3/3) Accurately ripped
 12     [0be4066d|ae4925fa] (0+3/3) Accurately ripped
 13     [ce1a4399|f4bdf64d] (0+3/3) Accurately ripped
Track Peak [ CRC32  ] [W/O NULL] [  LOG   ]
 --   99,2 [682E49A9] [392D8C9D]
 01   96,6 [597E8FDB] [DDE7B3E8]   CRC32
 02   96,6 [22B341BB] [B76C068F]   CRC32
 03   96,6 [A0CA17BA] [71B998E7]   CRC32
 04   99,2 [A46B99D3] [ECDFEAC0]   CRC32
 05   33,5 [3E1F9ACF] [D25EB41B]   CRC32
 06   96,6 [9793FEA8] [7ED9C8E7]   CRC32
 07   96,6 [319CDABC] [E899DA3F]   CRC32
 08   74,1 [41629FA1] [66292A6F]   CRC32
 09   96,6 [322636B8] [0368979C]   CRC32
 10   96,6 [9DD4D118] [210174C6]   CRC32
 11   96,6 [E9236D5A] [4A0D6117]   CRC32
 12   96,6 [341202DA] [6862BB99]   CRC32
 13   96,6 [CC13E314] [BD4FBD77]   CRC32
After much encouragement from local audiences, the Peters Drury Trio released their debut album When Old Met New in 1999. Recorded in Vancouver with producer and bassist Rick Kilburn and jazz trumpeter Ingrid Jensen, the album launched their signature sound of classic vocal jazz featuring a memorable swing sound with songs such as Fly Me To The Moon, Summertime and Cheek to Cheek that made PDT a hit with listeners worldwide. Caroline and Jesse were 18 years old and Graeme was 16 years old when they released their first album in a sold out concert at the Yukon Arts Centre.
Правила, инструкции, FAQ!!!
Торрент  Добавлен [22 июн 2020, 15:37] Скачать торрент Магнет ссылка
Скачать торрент
[ Размер 15.39 КБ / Просмотров 1 ]

Статус
Проверен 
 
Размер  353.6 МБ
Приватный: Нет (DHT включён)
.torrent скачан  0
 


     Отправить личное сообщение
   
Страница 1 из 1
Показать сообщения за:  Поле сортировки  
Начать новую тему Ответить на тему


Сейчас этот форум просматривают: нет зарегистрированных пользователей и гости: 0


Вы не можете начинать темы
Вы не можете отвечать на сообщения
Вы не можете редактировать свои сообщения
Вы не можете удалять свои сообщения
Вы не можете добавлять вложения

Перейти:  
cron