Начать новую тему Ответить на тему
Статистика раздачи
Размер: 332.15 МБ | Добавлен: 22 июн 2020, 15:37 | Скачали: 0
Сидеров: 0  [0 байт/сек]    Личеров: 0  [0 байт/сек]
Пред. тема | След. тема 

Автор
Сообщение

СообщениеДобавлено: 22 июн 2020, 15:37 

Ответить с цитатой 

Peters Drury Trio - Backbeat
Жанр: Vocal Jazz
Носитель: CD
Страна-производитель диска (релиза): Канада
Год издания: 2001
Издатель (лейбл): Self-Released
Номер по каталогу: PDT2018
Аудиокодек: FLAC (*.flac)
Тип рипа: tracks+.cue
Продолжительность: 00:57:43
Источник: saladgreens
Наличие сканов в содержимом раздачи: нет
Треклист:
01. Backbeat (3:43)
02. They Can't Take That Away from Me (5:02)
03. My Funny Valentine (7:14)
04. Centerpiece (4:48)
05. Beyond the Sea (4:01)
06. Lonely for You (5:49)
07. Speak Low (5:36)
08. God Bless the Child (5:20)
09. You'd Be So Nice (3:30)
10. Lover Man (5:04)
11. Little Girl/Little Boy (2:38)
12. It Don't Mean a Thing (4:58)
Код:
Exact Audio Copy V1.5 from 20. February 2020
EAC extraction logfile from 17. May 2020, 19:13
Peters Drury Trio / Backbeat
Used drive  : ASUS    DRW-24F1ST   a   Adapter: 1  ID: 0
Read mode               : Secure
Utilize accurate stream : Yes
Defeat audio cache      : Yes
Make use of C2 pointers : No
Read offset correction                      : 6
Overread into Lead-In and Lead-Out          : No
Fill up missing offset samples with silence : Yes
Delete leading and trailing silent blocks   : No
Null samples used in CRC calculations       : Yes
Used interface                              : Native Win32 interface for Win NT & 2000
Gap handling                                : Appended to previous track
Used output format              : User Defined Encoder
Selected bitrate                : 1024 kBit/s
Quality                         : High
Add ID3 tag                     : No
Command line compressor         : C:\Users\Ben\Documents\flac-1.3.2-win\win64\flac.exe
Additional command line options : -8 -V -T "ARTIST=%artist%" -T "TITLE=%title%" -T "ALBUM=%albumtitle%" -T "DATE=%year%" -T "TRACKNUMBER=%tracknr%" -T "GENRE=%genre%" -T "PERFORMER=%albuminterpret%" -T "COMPOSER=%composer%" %haslyrics%--tag-from-file=LYRICS="%lyricsfile%"%haslyrics% -T "ALBUMARTIST=%albumartist%" -T "DISCNUMBER=%cdnumber%" -T "TOTALDISCS=%totalcds%" -T "TOTALTRACKS=%numtracks%" -T "COMMENT=%comment%" %source% -o %dest%
TOC of the extracted CD
     Track |   Start  |  Length  | Start sector | End sector
    ---------------------------------------------------------
        1  |  0:00.00 |  3:42.63 |         0    |    16712
        2  |  3:42.63 |  5:02.03 |     16713    |    39365
        3  |  8:44.66 |  7:13.41 |     39366    |    71881
        4  | 15:58.32 |  4:48.31 |     71882    |    93512
        5  | 20:46.63 |  4:01.08 |     93513    |   111595
        6  | 24:47.71 |  5:49.00 |    111596    |   137770
        7  | 30:36.71 |  5:36.31 |    137771    |   163001
        8  | 36:13.27 |  5:20.05 |    163002    |   187006
        9  | 41:33.32 |  3:30.29 |    187007    |   202785
       10  | 45:03.61 |  5:03.39 |    202786    |   225549
       11  | 50:07.25 |  2:37.67 |    225550    |   237391
       12  | 52:45.17 |  4:58.01 |    237392    |   259742
Track  1
     Filename C:\EAC Rips\Peters Drury Trio - Backbeat - (2001) [FLAC]\01 Backbeat.wav
     Pre-gap length  0:00:02.00
     Peak level 96.6 %
     Extraction speed 4.3 X
     Track quality 100.0 %
     Test CRC 8E5D684B
     Copy CRC 8E5D684B
     Accurately ripped (confidence 4)  [50551995]  (AR v2)
     Copy OK
Track  2
     Filename C:\EAC Rips\Peters Drury Trio - Backbeat - (2001) [FLAC]\02 They Can't Take That Away From Me.wav
     Pre-gap length  0:00:04.00
     Peak level 68.3 %
     Extraction speed 4.9 X
     Track quality 100.0 %
     Test CRC E781BE84
     Copy CRC E781BE84
     Accurately ripped (confidence 4)  [8F8B4903]  (AR v2)
     Copy OK
Track  3
     Filename C:\EAC Rips\Peters Drury Trio - Backbeat - (2001) [FLAC]\03 My Funny Valentine.wav
     Pre-gap length  0:00:02.00
     Peak level 76.7 %
     Extraction speed 5.0 X
     Track quality 99.9 %
     Test CRC 5307D9A3
     Copy CRC 5307D9A3
     Accurately ripped (confidence 4)  [1236F141]  (AR v2)
     Copy OK
Track  4
     Filename C:\EAC Rips\Peters Drury Trio - Backbeat - (2001) [FLAC]\04 Centerpiece.wav
     Pre-gap length  0:00:02.00
     Peak level 96.6 %
     Extraction speed 6.0 X
     Track quality 100.0 %
     Test CRC AA224202
     Copy CRC AA224202
     Accurately ripped (confidence 4)  [AF04561F]  (AR v2)
     Copy OK
Track  5
     Filename C:\EAC Rips\Peters Drury Trio - Backbeat - (2001) [FLAC]\05 Beyond the Sea.wav
     Pre-gap length  0:00:02.00
     Peak level 96.5 %
     Extraction speed 6.3 X
     Track quality 100.0 %
     Test CRC AE63C8E0
     Copy CRC AE63C8E0
     Accurately ripped (confidence 4)  [727A19E7]  (AR v2)
     Copy OK
Track  6
     Filename C:\EAC Rips\Peters Drury Trio - Backbeat - (2001) [FLAC]\06 Lonely for You.wav
     Pre-gap length  0:00:02.00
     Peak level 68.3 %
     Extraction speed 7.0 X
     Track quality 100.0 %
     Test CRC 44408DAB
     Copy CRC 44408DAB
     Accurately ripped (confidence 4)  [B142FF28]  (AR v2)
     Copy OK
Track  7
     Filename C:\EAC Rips\Peters Drury Trio - Backbeat - (2001) [FLAC]\07 Speak Low.wav
     Pre-gap length  0:00:02.00
     Peak level 86.0 %
     Extraction speed 7.3 X
     Track quality 100.0 %
     Test CRC 371C4E1B
     Copy CRC 371C4E1B
     Accurately ripped (confidence 4)  [7549903E]  (AR v2)
     Copy OK
Track  8
     Filename C:\EAC Rips\Peters Drury Trio - Backbeat - (2001) [FLAC]\08 God Bless the Child.wav
     Pre-gap length  0:00:04.00
     Peak level 96.6 %
     Extraction speed 7.5 X
     Track quality 100.0 %
     Test CRC 73B111C8
     Copy CRC 73B111C8
     Accurately ripped (confidence 4)  [699EACB3]  (AR v2)
     Copy OK
Track  9
     Filename C:\EAC Rips\Peters Drury Trio - Backbeat - (2001) [FLAC]\09 You'd Be So Nice.wav
     Pre-gap length  0:00:02.00
     Peak level 96.5 %
     Extraction speed 7.4 X
     Track quality 100.0 %
     Test CRC 775B8EC6
     Copy CRC 775B8EC6
     Accurately ripped (confidence 4)  [76CA7995]  (AR v2)
     Copy OK
Track 10
     Filename C:\EAC Rips\Peters Drury Trio - Backbeat - (2001) [FLAC]\10 Lover Man.wav
     Pre-gap length  0:00:02.00
     Peak level 76.7 %
     Extraction speed 8.1 X
     Track quality 100.0 %
     Test CRC A82A3178
     Copy CRC A82A3178
     Accurately ripped (confidence 4)  [47626461]  (AR v2)
     Copy OK
Track 11
     Filename C:\EAC Rips\Peters Drury Trio - Backbeat - (2001) [FLAC]\11 Little Girl , Little Boy.wav
     Pre-gap length  0:00:02.00
     Peak level 76.7 %
     Extraction speed 7.5 X
     Track quality 100.0 %
     Test CRC E96EB8DD
     Copy CRC E96EB8DD
     Accurately ripped (confidence 4)  [60865C61]  (AR v2)
     Copy OK
Track 12
     Filename C:\EAC Rips\Peters Drury Trio - Backbeat - (2001) [FLAC]\12 It Don't Mean a Thing.wav
     Pre-gap length  0:00:02.00
     Peak level 96.6 %
     Extraction speed 8.5 X
     Track quality 100.0 %
     Test CRC AFEA6CD5
     Copy CRC AFEA6CD5
     Accurately ripped (confidence 4)  [6179D141]  (AR v2)
     Copy OK
All tracks accurately ripped
No errors occurred
End of status report
---- CUETools DB Plugin V2.1.6
[CTDB TOCID: _MKRZ9ED.nevedzh0dgeRLwhShU-] found
Submit result: _MKRZ9ED.nevedzh0dgeRLwhShU- has been confirmed
Track | CTDB Status
  1   | (3/3) Accurately ripped
  2   | (3/3) Accurately ripped
  3   | (3/3) Accurately ripped
  4   | (3/3) Accurately ripped
  5   | (3/3) Accurately ripped
  6   | (3/3) Accurately ripped
  7   | (3/3) Accurately ripped
  8   | (3/3) Accurately ripped
  9   | (3/3) Accurately ripped
 10   | (3/3) Accurately ripped
 11   | (3/3) Accurately ripped
 12   | (3/3) Accurately ripped
==== Log checksum C4662CF3C28923B362FD099592948B3DA7B01EE239015AF58DBC0C84BFF56096 ====
Код:
REM GENRE Jazz
REM DATE 2001
REM DISCID AD0D870C
REM COMMENT "ExactAudioCopy v1.5"
PERFORMER "Peters Drury Trio"
TITLE "Backbeat"
FILE "01 - Backbeat.wav" WAVE
  TRACK 01 AUDIO
    TITLE "Backbeat"
    PERFORMER "Peters Drury Trio"
    INDEX 01 00:00:00
  TRACK 02 AUDIO
    TITLE "They Can't Take That Away from Me"
    PERFORMER "Peters Drury Trio"
    INDEX 00 03:38:63
FILE "02 - They Can't Take That Away from Me.wav" WAVE
    INDEX 01 00:00:00
  TRACK 03 AUDIO
    TITLE "My Funny Valentine"
    PERFORMER "Peters Drury Trio"
    INDEX 00 05:00:03
FILE "03 - My Funny Valentine.wav" WAVE
    INDEX 01 00:00:00
  TRACK 04 AUDIO
    TITLE "Centerpiece"
    PERFORMER "Peters Drury Trio"
    INDEX 00 07:11:41
FILE "04 - Centerpiece.wav" WAVE
    INDEX 01 00:00:00
  TRACK 05 AUDIO
    TITLE "Beyond the Sea"
    PERFORMER "Peters Drury Trio"
    INDEX 00 04:46:31
FILE "05 - Beyond the Sea.wav" WAVE
    INDEX 01 00:00:00
  TRACK 06 AUDIO
    TITLE "Lonely for You"
    PERFORMER "Peters Drury Trio"
    INDEX 00 03:59:08
FILE "06 - Lonely for You.wav" WAVE
    INDEX 01 00:00:00
  TRACK 07 AUDIO
    TITLE "Speak Low"
    PERFORMER "Peters Drury Trio"
    INDEX 00 05:47:00
FILE "07 - Speak Low.wav" WAVE
    INDEX 01 00:00:00
  TRACK 08 AUDIO
    TITLE "God Bless the Child"
    PERFORMER "Peters Drury Trio"
    INDEX 00 05:32:31
FILE "08 - God Bless the Child.wav" WAVE
    INDEX 01 00:00:00
  TRACK 09 AUDIO
    TITLE "You'd Be So Nice"
    PERFORMER "Peters Drury Trio"
    INDEX 00 05:18:05
FILE "09 - You'd Be So Nice.wav" WAVE
    INDEX 01 00:00:00
  TRACK 10 AUDIO
    TITLE "Lover Man"
    PERFORMER "Peters Drury Trio"
    INDEX 00 03:28:29
FILE "10 - Lover Man.wav" WAVE
    INDEX 01 00:00:00
  TRACK 11 AUDIO
    TITLE "Little Girl/Little Boy"
    PERFORMER "Peters Drury Trio"
    INDEX 00 05:01:39
FILE "11 - Little Girl,Little Boy.wav" WAVE
    INDEX 01 00:00:00
  TRACK 12 AUDIO
    TITLE "It Don't Mean a Thing"
    PERFORMER "Peters Drury Trio"
    INDEX 00 02:35:67
FILE "12 - It Don't Mean a Thing.wav" WAVE
    INDEX 01 00:00:00
Код:
[CUETools log; Date: 28.05.2020 16:08:46; Version: 2.1.6]
[CTDB TOCID: _MKRZ9ED.nevedzh0dgeRLwhShU-] found.
Track | CTDB Status
  1   | (4/4) Accurately ripped
  2   | (4/4) Accurately ripped
  3   | (4/4) Accurately ripped
  4   | (4/4) Accurately ripped
  5   | (4/4) Accurately ripped
  6   | (4/4) Accurately ripped
  7   | (4/4) Accurately ripped
  8   | (4/4) Accurately ripped
  9   | (4/4) Accurately ripped
 10   | (4/4) Accurately ripped
 11   | (4/4) Accurately ripped
 12   | (4/4) Accurately ripped
[AccurateRip ID: 001aa591-00f82337-ad0d870c] found.
Track   [  CRC   |   V2   ] Status
 01     [cc5c9b8d|50551995] (0+4/4) Accurately ripped
 02     [695e21ec|8f8b4903] (0+4/4) Accurately ripped
 03     [935021b0|1236f141] (0+4/4) Accurately ripped
 04     [ab2961f2|af04561f] (0+4/4) Accurately ripped
 05     [0e9b1631|727a19e7] (0+4/4) Accurately ripped
 06     [60df299a|b142ff28] (0+4/4) Accurately ripped
 07     [43cee0af|7549903e] (0+4/4) Accurately ripped
 08     [94e127d9|699eacb3] (0+4/4) Accurately ripped
 09     [629fd232|76ca7995] (0+4/4) Accurately ripped
 10     [4299300a|47626461] (0+4/4) Accurately ripped
 11     [899528b4|60865c61] (0+4/4) Accurately ripped
 12     [c48e21b6|6179d141] (0+4/4) Accurately ripped
Track Peak [ CRC32  ] [W/O NULL] [  LOG   ]
 --   96,6 [43623E7E] [7E1E636A]
 01   96,6 [8E5D684B] [98AB0E57]   CRC32
 02   68,3 [E781BE84] [882A5CCC]   CRC32
 03   76,7 [5307D9A3] [71726A10]   CRC32
 04   96,5 [AA224202] [AEBA8F8C]   CRC32
 05   96,5 [AE63C8E0] [CBE6811B]   CRC32
 06   68,3 [44408DAB] [A4C7288F]   CRC32
 07   86,0 [371C4E1B] [F46D51CA]   CRC32
 08   96,6 [73B111C8] [47F2BC30]   CRC32
 09   96,5 [775B8EC6] [702F162F]   CRC32
 10   76,7 [A82A3178] [7A59D232]   CRC32
 11   76,7 [E96EB8DD] [9FFB9EB1]   CRC32
 12   96,6 [AFEA6CD5] [0BD9818D]   CRC32
Backbeat was recorded two years later and opens with an original song written by Jesse. The album harkens back to the Big Band era so a horn section of some of Canada's finest jazz musicians joined the Trio in studio to give it a big band flavour. The disc features songs like God Bless The Child, the Bobby Darin signature tune Beyond The Sea, You'd Be So Nice, and My Funny Valentine. The artwork of this CD reflects the time in Yukon's history when sternwheelers like the SS Klondike, now a national historic site, plied the waters of the Yukon River. This was about the same time as the Big Bands were all the rage. In fact, one archival photo shows a party going on in the belly of the boat, the music likely similar to what you'll hear on this CD.
Правила, инструкции, FAQ!!!
Торрент  Добавлен [22 июн 2020, 15:37] Скачать торрент Магнет ссылка
Скачать торрент
[ Размер 14.33 КБ / Просмотров 1 ]

Статус
Проверен 
 
Размер  332.15 МБ
Приватный: Нет (DHT включён)
.torrent скачан  0
 


     Отправить личное сообщение
   
Страница 1 из 1
Показать сообщения за:  Поле сортировки  
Начать новую тему Ответить на тему


Сейчас этот форум просматривают: нет зарегистрированных пользователей и гости: 0


Вы не можете начинать темы
Вы не можете отвечать на сообщения
Вы не можете редактировать свои сообщения
Вы не можете удалять свои сообщения
Вы не можете добавлять вложения

Перейти:  
cron
cron