Начать новую тему Ответить на тему
Статистика раздачи
Размер: 282.58 МБ | Добавлен: 05 янв 2020, 15:25 | Скачали: 0
Сидеров: 2  [0 байт/сек]    Личеров: 1  [0 байт/сек]
Пред. тема | След. тема 

Автор
Сообщение

СообщениеДобавлено: 05 янв 2020, 15:25 

Ответить с цитатой 

Michael Feinstein - The MGM Album
Жанр: Vocal Jazz
Носитель: CD
Страна-производитель диска (релиза): США
Год издания: 1989
Издатель (лейбл): Elektra
Номер по каталогу: 9 60893-2
Аудиокодек: FLAC (*.flac)
Тип рипа: tracks+.cue
Продолжительность: 00:52:28
Источник: zeptosecond
Наличие сканов в содержимом раздачи: нет
Треклист:
01. M.G.M. Fanfare (0:16)
02. That's Entertainment (2:06)
03. It's a Most Unusual Day (3:56)
04. Time After Time (4:39)
05. Spring, Spring, Spring (3:38)
06. Medley: Friendly Star/This Heart of Mine (6:03)
07. Our Love Affair (4:08)
08. Please Don't Say No, Say Maybe (3:26)
09. Wonder Why (3:46)
10. Medley: All I Do Is Dream of You/You Are My Lucky Star (5:26)
11. If I Only Had a Brain (6:36)
12. You and I (3:32)
13. Singing in the Rain (3:10)
14. That's Entertainment (Reprise) (1:46)
Код:
X Lossless Decoder version 20181019 (151.1)
XLD extraction logfile from 2018-10-31 16:46:54 -0500
Michael Feinstein / The MGM Album
Used drive : MATSHITA BD-MLT UJ272 (revision 1.02)
Media type : Pressed CD
Ripper mode             : XLD Secure Ripper
Disable audio cache     : OK for the drive with a cache less than 1375KiB
Make use of C2 pointers : NO
Read offset correction  : 103
Max retry count         : 100
Gap status              : Analyzed, Appended (except HTOA)
TOC of the extracted CD
     Track |   Start  |  Length  | Start sector | End sector
    ---------------------------------------------------------
        1  | 00:00:32 | 00:15:73 |        32    |     1229
        2  | 00:16:30 | 02:06:20 |      1230    |    10699
        3  | 02:22:50 | 03:55:70 |     10700    |    28394
        4  | 06:18:45 | 04:38:55 |     28395    |    49299
        5  | 10:57:25 | 03:37:57 |     49300    |    65631
        6  | 14:35:07 | 06:02:70 |     65632    |    92851
        7  | 20:38:02 | 04:07:40 |     92852    |   111416
        8  | 24:45:42 | 03:25:73 |    111417    |   126864
        9  | 28:11:40 | 03:46:37 |    126865    |   143851
       10  | 31:58:02 | 05:26:08 |    143852    |   168309
       11  | 37:24:10 | 06:36:37 |    168310    |   198046
       12  | 44:00:47 | 03:31:58 |    198047    |   213929
       13  | 47:32:30 | 03:09:40 |    213930    |   228144
       14  | 50:41:70 | 01:46:27 |    228145    |   236121
List of alternate offset correction values
        #  | Absolute | Relative | Confidence
    ------------------------------------------
        1  |    655   |    552   |      8
AccurateRip Summary (DiscID: 00198e4d-011ca711-bc0c4c0e)
    Track 01 : OK (v1+v2, confidence 23/31)
    Track 02 : OK (v1+v2, confidence 24/32)
    Track 03 : OK (v1+v2, confidence 25/33)
    Track 04 : OK (v1+v2, confidence 25/33)
    Track 05 : OK (v1+v2, confidence 24/32)
    Track 06 : OK (v1+v2, confidence 24/32)
    Track 07 : OK (v1+v2, confidence 24/32)
    Track 08 : OK (v1+v2, confidence 24/32)
    Track 09 : OK (v1+v2, confidence 23/31)
    Track 10 : OK (v1+v2, confidence 23/31)
    Track 11 : OK (v1+v2, confidence 24/32)
    Track 12 : OK (v1+v2, confidence 23/31)
    Track 13 : OK (v1+v2, confidence 23/31)
    Track 14 : OK (v1+v2, confidence 22/30)
        ->All tracks accurately ripped.
All Tracks
    Album gain               : -0.27 dB
    Peak                     : 0.997101
    Statistics
        Read error                           : 0
        Jitter error (maybe fixed)           : 0
        Retry sector count                   : 0
        Damaged sector count                 : 0
Track 01
    Filename : /XLD Output/Michael Feinstein - The MGM Album - 1989 (CD - FLAC)/01 M.G.M. Fanfare.flac
    Pre-gap length : 00:02:32
    Track gain               : -6.76 dB
    Peak                     : 0.997101
    CRC32 hash (test run)    : BBB3D0A9
    CRC32 hash               : BBB3D0A9
    CRC32 hash (skip zero)   : DCD999F0
    AccurateRip v1 signature : ACB41F17
    AccurateRip v2 signature : C8C064FB
        ->Accurately ripped (v1+v2, confidence 8+15/31)
    Statistics
        Read error                           : 0
        Jitter error (maybe fixed)           : 0
        Retry sector count                   : 0
        Damaged sector count                 : 0
Track 02
    Filename : /XLD Output/Michael Feinstein - The MGM Album - 1989 (CD - FLAC)/02 That's Entertainment.flac
    Track gain               : -1.61 dB
    Peak                     : 0.685333
    CRC32 hash (test run)    : C5D26866
    CRC32 hash               : C5D26866
    CRC32 hash (skip zero)   : 7D7FD27A
    AccurateRip v1 signature : F8669F7D
    AccurateRip v2 signature : 33B74BCA
        ->Accurately ripped (v1+v2, confidence 10+14/32)
    Statistics
        Read error                           : 0
        Jitter error (maybe fixed)           : 0
        Retry sector count                   : 0
        Damaged sector count                 : 0
Track 03
    Filename : /XLD Output/Michael Feinstein - The MGM Album - 1989 (CD - FLAC)/03 It's a Most Unusual Day.flac
    Track gain               : -2.08 dB
    Peak                     : 0.739288
    CRC32 hash (test run)    : 7D8A5483
    CRC32 hash               : 7D8A5483
    CRC32 hash (skip zero)   : 2486B4C2
    AccurateRip v1 signature : 60001597
    AccurateRip v2 signature : B74CF1EF
        ->Accurately ripped (v1+v2, confidence 9+16/33)
    Statistics
        Read error                           : 0
        Jitter error (maybe fixed)           : 0
        Retry sector count                   : 0
        Damaged sector count                 : 0
Track 04
    Filename : /XLD Output/Michael Feinstein - The MGM Album - 1989 (CD - FLAC)/04 Time After Time.flac
    Pre-gap length : 00:01:00
    Track gain               : -0.39 dB
    Peak                     : 0.688629
    CRC32 hash (test run)    : A19D0652
    CRC32 hash               : A19D0652
    CRC32 hash (skip zero)   : 00A54CEF
    AccurateRip v1 signature : C52FC1E5
    AccurateRip v2 signature : 5BA19A11
        ->Accurately ripped (v1+v2, confidence 9+16/33)
    Statistics
        Read error                           : 0
        Jitter error (maybe fixed)           : 0
        Retry sector count                   : 0
        Damaged sector count                 : 0
Track 05
    Filename : /XLD Output/Michael Feinstein - The MGM Album - 1989 (CD - FLAC)/05 Spring, Spring, Spring.flac
    Pre-gap length : 00:01:10
    Track gain               : -0.43 dB
    Peak                     : 0.786407
    CRC32 hash (test run)    : 2E847B1C
    CRC32 hash               : 2E847B1C
    CRC32 hash (skip zero)   : 83162321
    AccurateRip v1 signature : 9526F5D8
    AccurateRip v2 signature : D83FE777
        ->Accurately ripped (v1+v2, confidence 9+15/32)
    Statistics
        Read error                           : 0
        Jitter error (maybe fixed)           : 0
        Retry sector count                   : 0
        Damaged sector count                 : 0
Track 06
    Filename : /XLD Output/Michael Feinstein - The MGM Album - 1989 (CD - FLAC)/06 Friendly Star  -  This Heart of Mine.flac
    Track gain               : 0.40 dB
    Peak                     : 0.604797
    CRC32 hash (test run)    : D0B5FD61
    CRC32 hash               : D0B5FD61
    CRC32 hash (skip zero)   : 06FAA6E1
    AccurateRip v1 signature : C96D9F2E
    AccurateRip v2 signature : 5FEC591E
        ->Accurately ripped (v1+v2, confidence 9+15/32)
    Statistics
        Read error                           : 0
        Jitter error (maybe fixed)           : 0
        Retry sector count                   : 0
        Damaged sector count                 : 0
Track 07
    Filename : /XLD Output/Michael Feinstein - The MGM Album - 1989 (CD - FLAC)/07 Our Love Affair.flac
    Pre-gap length : 00:00:50
    Track gain               : 2.41 dB
    Peak                     : 0.567993
    CRC32 hash (test run)    : 88D9AB5C
    CRC32 hash               : 88D9AB5C
    CRC32 hash (skip zero)   : DE2B728E
    AccurateRip v1 signature : E966E36D
    AccurateRip v2 signature : 0A64A9FF
        ->Accurately ripped (v1+v2, confidence 9+15/32)
    Statistics
        Read error                           : 0
        Jitter error (maybe fixed)           : 0
        Retry sector count                   : 0
        Damaged sector count                 : 0
Track 08
    Filename : /XLD Output/Michael Feinstein - The MGM Album - 1989 (CD - FLAC)/08 Please Don't Say No, Say Maybe.flac
    Pre-gap length : 00:00:55
    Track gain               : 0.72 dB
    Peak                     : 0.654724
    CRC32 hash (test run)    : 19733D34
    CRC32 hash               : 19733D34
    CRC32 hash (skip zero)   : 0DB510C8
    AccurateRip v1 signature : C7743113
    AccurateRip v2 signature : 22D26BE9
        ->Accurately ripped (v1+v2, confidence 9+15/32)
    Statistics
        Read error                           : 0
        Jitter error (maybe fixed)           : 0
        Retry sector count                   : 0
        Damaged sector count                 : 0
Track 09
    Filename : /XLD Output/Michael Feinstein - The MGM Album - 1989 (CD - FLAC)/09 Wonder Why.flac
    Pre-gap length : 00:00:25
    Track gain               : -0.46 dB
    Peak                     : 0.700531
    CRC32 hash (test run)    : 38DD03AD
    CRC32 hash               : 38DD03AD
    CRC32 hash (skip zero)   : 8D291E85
    AccurateRip v1 signature : A5B634D6
    AccurateRip v2 signature : E14321E6
        ->Accurately ripped (v1+v2, confidence 9+14/31)
    Statistics
        Read error                           : 0
        Jitter error (maybe fixed)           : 0
        Retry sector count                   : 0
        Damaged sector count                 : 0
Track 10
    Filename : /XLD Output/Michael Feinstein - The MGM Album - 1989 (CD - FLAC)/10 All I Do Is Dream of You  -  You Are My Lucky Star.flac
    Pre-gap length : 00:00:27
    Track gain               : -0.21 dB
    Peak                     : 0.870605
    CRC32 hash (test run)    : B388151E
    CRC32 hash               : B388151E
    CRC32 hash (skip zero)   : A1492507
    AccurateRip v1 signature : ADA56F34
    AccurateRip v2 signature : EAA7CF43
        ->Accurately ripped (v1+v2, confidence 9+14/31)
    Statistics
        Read error                           : 0
        Jitter error (maybe fixed)           : 0
        Retry sector count                   : 0
        Damaged sector count                 : 0
Track 11
    Filename : /XLD Output/Michael Feinstein - The MGM Album - 1989 (CD - FLAC)/11 If I Only Had a Brain.flac
    Pre-gap length : 00:01:03
    Track gain               : 1.22 dB
    Peak                     : 0.879486
    CRC32 hash (test run)    : 2ED685B9
    CRC32 hash               : 2ED685B9
    CRC32 hash (skip zero)   : 88044953
    AccurateRip v1 signature : 5E7FB752
    AccurateRip v2 signature : 4A04046C
        ->Accurately ripped (v1+v2, confidence 8+16/32)
    Statistics
        Read error                           : 0
        Jitter error (maybe fixed)           : 0
        Retry sector count                   : 0
        Damaged sector count                 : 0
Track 12
    Filename : /XLD Output/Michael Feinstein - The MGM Album - 1989 (CD - FLAC)/12 You and I.flac
    Pre-gap length : 00:00:30
    Track gain               : -0.24 dB
    Peak                     : 0.671234
    CRC32 hash (test run)    : 4C08F733
    CRC32 hash               : 4C08F733
    CRC32 hash (skip zero)   : 69C4745E
    AccurateRip v1 signature : 8BE89A14
    AccurateRip v2 signature : 4A6B30C6
        ->Accurately ripped (v1+v2, confidence 8+15/31)
    Statistics
        Read error                           : 0
        Jitter error (maybe fixed)           : 0
        Retry sector count                   : 0
        Damaged sector count                 : 0
Track 13
    Filename : /XLD Output/Michael Feinstein - The MGM Album - 1989 (CD - FLAC)/13 Singing in the Rain.flac
    Pre-gap length : 00:00:08
    Track gain               : -0.66 dB
    Peak                     : 0.817535
    CRC32 hash (test run)    : 8FE31E66
    CRC32 hash               : 8FE31E66
    CRC32 hash (skip zero)   : 4E6B5E75
    AccurateRip v1 signature : 8D2EAD21
    AccurateRip v2 signature : D8965D6D
        ->Accurately ripped (v1+v2, confidence 8+15/31)
    Statistics
        Read error                           : 0
        Jitter error (maybe fixed)           : 0
        Retry sector count                   : 0
        Damaged sector count                 : 0
Track 14
    Filename : /XLD Output/Michael Feinstein - The MGM Album - 1989 (CD - FLAC)/14 That's Entertainment.flac
    Pre-gap length : 00:00:25
    Track gain               : -2.06 dB
    Peak                     : 0.740997
    CRC32 hash (test run)    : 093CF52E
    CRC32 hash               : 093CF52E
    CRC32 hash (skip zero)   : 0C964C0A
    AccurateRip v1 signature : B844904B
    AccurateRip v2 signature : F79CD965
        ->Accurately ripped (v1+v2, confidence 7+15/30)
    Statistics
        Read error                           : 0
        Jitter error (maybe fixed)           : 0
        Retry sector count                   : 0
        Damaged sector count                 : 0
No errors occurred
End of status report
-----BEGIN XLD SIGNATURE-----
gHz8fpy4v6mYVu6jvsQIfiVoIYKxAGzLAgF9e7QlBrP2AKdDw1GCWa3OL9g12HyHqkD09t65ovlUjFWk7siz_jOcBAEwtodS2zwDDS4
-----END XLD SIGNATURE-----
Код:
TITLE "The MGM Album"
PERFORMER "Michael Feinstein"
CATALOG 0075596089326
REM GENRE "Jazz"
REM DATE "1989"
REM DISCID BC0C4C0E
REM REPLAYGAIN_ALBUM_GAIN -0.27 dB
REM REPLAYGAIN_ALBUM_PEAK 0.997101
FILE "01 - M.G.M. Fanfare.flac" WAVE
  TRACK 01 AUDIO
    TITLE "M.G.M. Fanfare"
    REM REPLAYGAIN_TRACK_GAIN -6.76 dB
    REM REPLAYGAIN_TRACK_PEAK 0.997101
    PREGAP 00:00:32
    INDEX 01 00:00:00
FILE "02 - That's Entertainment.flac" WAVE
  TRACK 02 AUDIO
    TITLE "That's Entertainment"
    REM REPLAYGAIN_TRACK_GAIN -1.61 dB
    REM REPLAYGAIN_TRACK_PEAK 0.685333
    INDEX 01 00:00:00
FILE "03 - It's a Most Unusual Day.flac" WAVE
  TRACK 03 AUDIO
    TITLE "It's a Most Unusual Day"
    REM REPLAYGAIN_TRACK_GAIN -2.08 dB
    REM REPLAYGAIN_TRACK_PEAK 0.739288
    INDEX 01 00:00:00
  TRACK 04 AUDIO
    TITLE "Time After Time"
    REM REPLAYGAIN_TRACK_GAIN -0.39 dB
    REM REPLAYGAIN_TRACK_PEAK 0.688629
    INDEX 00 03:54:70
FILE "04 - Time After Time.flac" WAVE
    INDEX 01 00:00:00
  TRACK 05 AUDIO
    TITLE "Spring, Spring, Spring"
    REM REPLAYGAIN_TRACK_GAIN -0.43 dB
    REM REPLAYGAIN_TRACK_PEAK 0.786407
    INDEX 00 04:37:45
FILE "05 - Spring, Spring, Spring.flac" WAVE
    INDEX 01 00:00:00
FILE "06 - Medley- Friendly Star,This Heart of Mine.flac" WAVE
  TRACK 06 AUDIO
    TITLE "Medley: Friendly Star/This Heart of Mine"
    REM REPLAYGAIN_TRACK_GAIN 0.40 dB
    REM REPLAYGAIN_TRACK_PEAK 0.604797
    INDEX 01 00:00:00
  TRACK 07 AUDIO
    TITLE "Our Love Affair"
    REM REPLAYGAIN_TRACK_GAIN 2.41 dB
    REM REPLAYGAIN_TRACK_PEAK 0.567993
    INDEX 00 06:02:20
FILE "07 - Our Love Affair.flac" WAVE
    INDEX 01 00:00:00
  TRACK 08 AUDIO
    TITLE "Please Don't Say No, Say Maybe"
    REM REPLAYGAIN_TRACK_GAIN 0.72 dB
    REM REPLAYGAIN_TRACK_PEAK 0.654724
    INDEX 00 04:06:60
FILE "08 - Please Don't Say No, Say Maybe.flac" WAVE
    INDEX 01 00:00:00
  TRACK 09 AUDIO
    TITLE "Wonder Why"
    REM REPLAYGAIN_TRACK_GAIN -0.46 dB
    REM REPLAYGAIN_TRACK_PEAK 0.700531
    INDEX 00 03:25:48
FILE "09 - Wonder Why.flac" WAVE
    INDEX 01 00:00:00
  TRACK 10 AUDIO
    TITLE "Medley: All I Do Is Dream of You/You Are My Lucky Star"
    REM REPLAYGAIN_TRACK_GAIN -0.21 dB
    REM REPLAYGAIN_TRACK_PEAK 0.870605
    INDEX 00 03:46:10
FILE "10 - Medley- All I Do Is Dream of You,You Are My Lucky Star.flac" WAVE
    INDEX 01 00:00:00
  TRACK 11 AUDIO
    TITLE "If I Only Had a Brain"
    REM REPLAYGAIN_TRACK_GAIN 1.22 dB
    REM REPLAYGAIN_TRACK_PEAK 0.879486
    INDEX 00 05:25:05
FILE "11 - If I Only Had a Brain.flac" WAVE
    INDEX 01 00:00:00
  TRACK 12 AUDIO
    TITLE "You and I"
    REM REPLAYGAIN_TRACK_GAIN -0.24 dB
    REM REPLAYGAIN_TRACK_PEAK 0.671234
    INDEX 00 06:36:07
FILE "12 - You and I.flac" WAVE
    INDEX 01 00:00:00
  TRACK 13 AUDIO
    TITLE "Singing in the Rain"
    REM REPLAYGAIN_TRACK_GAIN -0.66 dB
    REM REPLAYGAIN_TRACK_PEAK 0.817535
    INDEX 00 03:31:50
FILE "13 - Singing in the Rain.flac" WAVE
    INDEX 01 00:00:00
  TRACK 14 AUDIO
    TITLE "That's Entertainment (Reprise)"
    REM REPLAYGAIN_TRACK_GAIN -2.06 dB
    REM REPLAYGAIN_TRACK_PEAK 0.740997
    INDEX 00 03:09:15
FILE "14 - That's Entertainment (Reprise).flac" WAVE
    INDEX 01 00:00:00
Код:
[CUETools log; Date: 31.12.2019 14:09:42; Version: 2.1.6]
Pregap length 00:00:32.
[CTDB TOCID: ibDYIspcoKGMyGz0R_5K6GqnrDw-] found.
Track | CTDB Status
  1   | (20/20) Accurately ripped
  2   | (18/20) Accurately ripped
  3   | (20/20) Accurately ripped
  4   | (20/20) Accurately ripped
  5   | (20/20) Accurately ripped
  6   | (18/20) Accurately ripped
  7   | (19/20) Accurately ripped
  8   | (19/20) Accurately ripped
  9   | (20/20) Accurately ripped
 10   | (19/20) Accurately ripped
 11   | (20/20) Accurately ripped
 12   | (19/20) Accurately ripped
 13   | (20/20) Accurately ripped
 14   | (20/20) Accurately ripped
[AccurateRip ID: 00198e4d-011ca711-bc0c4c0e] found.
Track   [  CRC   |   V2   ] Status
 01     [acb41f17|c8c064fb] (08+19/35) Accurately ripped
 02     [f8669f7d|33b74bca] (10+18/36) Accurately ripped
 03     [60001597|b74cf1ef] (09+20/37) Accurately ripped
 04     [c52fc1e5|5ba19a11] (09+20/37) Accurately ripped
 05     [9526f5d8|d83fe777] (09+19/36) Accurately ripped
 06     [c96d9f2e|5fec591e] (09+19/36) Accurately ripped
 07     [e966e36d|0a64a9ff] (09+19/36) Accurately ripped
 08     [c7743113|22d26be9] (09+19/36) Accurately ripped
 09     [a5b634d6|e14321e6] (09+18/35) Accurately ripped
 10     [ada56f34|eaa7cf43] (09+18/35) Accurately ripped
 11     [5e7fb752|4a04046c] (08+20/36) Accurately ripped
 12     [8be89a14|4a6b30c6] (08+19/35) Accurately ripped
 13     [8d2ead21|d8965d6d] (08+19/35) Accurately ripped
 14     [b844904b|f79cd965] (07+19/34) Accurately ripped
Offsetted by 552:
 01     [ca5f9ad2] (06/35) Accurately ripped
 02     [b88a828b] (06/36) Accurately ripped
 03     [b98e4b7e] (06/37) Accurately ripped
 04     [ba784fbd] (06/37) Accurately ripped
 05     [37365856] (06/36) Accurately ripped
 06     [23ab2960] (06/36) Accurately ripped
 07     [6a7810fd] (06/36) Accurately ripped
 08     [f4176273] (06/36) Accurately ripped
 09     [babb797e] (06/35) Accurately ripped
 10     [c73f0cc4] (06/35) Accurately ripped
 11     [86e08422] (06/36) Accurately ripped
 12     [9dee99a4] (06/35) Accurately ripped
 13     [a1d306d9] (06/35) Accurately ripped
 14     [e4a54304] (06/34) Accurately ripped
Offsetted by 1430:
 01     [7d72e4fa] (00/35) No match (V2 was not tested)
 02     [7e6628ab] (00/36) No match (V2 was not tested)
 03     [1f100de2] (00/37) No match (V2 was not tested)
 04     [25b6d84f] (00/37) No match (V2 was not tested)
 05     [5e2cb78e] (00/36) No match (V2 was not tested)
 06     [8eec7ef4] (00/36) No match (V2 was not tested)
 07     [e535b549] (00/36) No match (V2 was not tested)
 08     [906c943b] (00/36) No match (V2 was not tested)
 09     [6eb7cbcc] (00/35) No match (V2 was not tested)
 10     [f3ace510] (00/35) No match (V2 was not tested)
 11     [4d982a5e] (00/36) No match (V2 was not tested)
 12     [86a85f70] (00/35) No match (V2 was not tested)
 13     [81bac213] (00/35) No match (V2 was not tested)
 14     [dfd00bac] (00/34) No match (V2 was not tested)
Track Peak [ CRC32  ] [W/O NULL]
 --   99,7 [04179E8D] [52AB0375]
 01   99,7 [BBB3D0A9] [DCD999F0]
 02   68,5 [C5D26866] [7D7FD27A]
 03   73,9 [7D8A5483] [2486B4C2]
 04   68,8 [A19D0652] [00A54CEF]
 05   78,6 [2E847B1C] [83162321]
 06   60,4 [D0B5FD61] [06FAA6E1]
 07   56,8 [88D9AB5C] [DE2B728E]
 08   65,4 [19733D34] [0DB510C8]
 09   70,0 [38DD03AD] [8D291E85]
 10   87,0 [B388151E] [A1492507]
 11   87,9 [2ED685B9] [88044953]
 12   67,1 [4C08F733] [69C4745E]
 13   81,7 [8FE31E66] [4E6B5E75]
 14   74,1 [093CF52E] [0C964C0A]
Interpretive singers, particularly contemporary nightclub entertainers, tend to design one-hour sets (later recycled as albums) around particular concepts or themes, and as the years go by, coming up with new ones can be challenging. So says Michael Feinstein in his annotations to his sixth LP, The M.G.M. Album. The concept he's come up with this time is embodied in the title, but even that is a little broad -- songs used in M-G-M movies. So, he narrowed it, eliminating songs not specifically written for those movies (such as Broadway show tunes used in a movie adaptation) and songs written by songwriters better known for their work in New York than in Hollywood, meaning no Jerome Kern or Rodgers & Hart. He was still left with quite a list, songs by the likes of Sammy Cahn, Sammy Fain, Johnny Mercer, and Harry Warren, among others. (Also included are works by Harold Arlen, Howard Dietz, E.Y. Harburg, Arthur Schwartz, and Jule Styne, all of whom, one might argue, are really more Broadway guys than movie guys.) The choices range from the well known ("That's Entertainment!," "Time After Time," "Singin' in the Rain") to the more obscure, and typically Feinstein finds ways to make even the more familiar material different, especially by using the introductory verses that sometimes turned up only in the sheet music for the songs, not up on the screen. (He also induced Cahn to come up with a whole new lyric to "Wonder Why.") The best example of a song full of passages most people won't have heard is the lengthy rendition of "If I Only Had a Brain" from The Wizard of Oz, which has explanatory sections for the Scarecrow, the Tin Man, and the Cowardly Lion before they get around to wishing they had a brain, a heart, and courage. None of these extra words were heard in the movie, and no one seems to have sung them since, until now. Feinstein employs arranger/conductor Ian Bernard, who uses good-sized orchestras that suggest what came off of the Hollywood soundstages. As usual, Feinstein sings in his earnest tenor, which has gained range and expression as an instrument over his recording career, and he savors the words with a scholar's affection. He serves the material, sometimes reverently, although it is still true that the least impressive thing about a Michael Feinstein album tends to be Michael Feinstein himself.
Правила, инструкции, FAQ!!!
Торрент  Добавлен [05 янв 2020, 15:25] Скачать торрент Магнет ссылка
Скачать торрент
[ Размер 12.76 КБ / Просмотров 2 ]

Статус
Проверен 
 
Размер  282.58 МБ
Приватный: Нет (DHT включён)
.torrent скачан  0
 


     Отправить личное сообщение
   
Страница 1 из 1
Показать сообщения за:  Поле сортировки  
Начать новую тему Ответить на тему


Сейчас этот форум просматривают: нет зарегистрированных пользователей и гости: 0


Вы не можете начинать темы
Вы не можете отвечать на сообщения
Вы не можете редактировать свои сообщения
Вы не можете удалять свои сообщения
Вы не можете добавлять вложения

Перейти:  
cron
cron