Начать новую тему Ответить на тему
Статистика раздачи
Размер: 307.28 МБ | Добавлен: 05 янв 2020, 15:24 | Скачали: 0
Сидеров: 0  [0 байт/сек]    Личеров: 0  [0 байт/сек]
Пред. тема | След. тема 

Автор
Сообщение

СообщениеДобавлено: 05 янв 2020, 15:24 

Ответить с цитатой 

Michael Feinstein - Such Sweet Sorrow
Жанр: Vocal Jazz
Носитель: CD
Страна-производитель диска (релиза): США
Год издания: 1995
Издатель (лейбл): Atlantic
Номер по каталогу: 82740-2
Аудиокодек: FLAC (*.flac)
Тип рипа: tracks+.cue
Продолжительность: 00:55:37
Источник: Napaskiak
Наличие сканов в содержимом раздачи: нет
Треклист:
01. Let's Face the Music and Dance (4:27)
02. Easy to Love (4:46)
03. Wind in the Willow (4:55)
04. I See Your Face Before Me (5:08)
05. Body and Soul (5:13)
06. For Love Alone (3:18)
07. Theme from The Bad and The Beautiful (3:38)
08. Such Sweet Sorrow (3:45)
09. Love Is Just Around the Corner (6:08)
10. I'm a Dreamer, Aren't We All (3:28)
11. But Beautiful (4:28)
12. Wasn't There a Moment (3:03)
13. And So to Bed (3:20)
Код:
Exact Audio Copy V1.3 from 2. September 2016
EAC extraction logfile from 1. November 2019, 11:00
Michael Feinstein / Such Sweet Sorrow
Used drive  : ASUS    DRW-2014L1T   Adapter: 1  ID: 0
Read mode               : Secure
Utilize accurate stream : Yes
Defeat audio cache      : Yes
Make use of C2 pointers : No
Read offset correction                      : 6
Overread into Lead-In and Lead-Out          : No
Fill up missing offset samples with silence : Yes
Delete leading and trailing silent blocks   : No
Null samples used in CRC calculations       : Yes
Used interface                              : Native Win32 interface for Win NT & 2000
Gap handling                                : Appended to previous track
Used output format              : User Defined Encoder
Selected bitrate                : 768 kBit/s
Quality                         : High
Add ID3 tag                     : No
Command line compressor         : C:\Program Files (x86)\Exact Audio Copy\Flac\flac.exe
Additional command line options : -6 -V -T "ARTIST=%artist%" -T "TITLE=%title%" -T "ALBUM=%albumtitle%" -T "DATE=%year%" -T "TRACKNUMBER=%tracknr%" -T "GENRE=%genre%" -T "COMMENT=%comment%" -T "BAND=%albuminterpret%" -T "ALBUMARTIST=%albuminterpret%" -T "COMPOSER=%composer%" %haslyrics%--tag-from-file=LYRICS="%lyricsfile%"%haslyrics% -T "DISCNUMBER=%cdnumber%" -T "TOTALDISCS=%totalcds%" -T "TOTALTRACKS=%numtracks%" %hascover%--picture="%coverfile%"%hascover% %source% -o %dest%
TOC of the extracted CD
     Track |   Start  |  Length  | Start sector | End sector
    ---------------------------------------------------------
        1  |  0:00.32 |  4:27.18 |        32    |    20074
        2  |  4:27.50 |  4:46.05 |     20075    |    41529
        3  |  9:13.55 |  4:55.27 |     41530    |    63681
        4  | 14:09.07 |  5:08.33 |     63682    |    86814
        5  | 19:17.40 |  5:13.32 |     86815    |   110321
        6  | 24:30.72 |  3:18.25 |    110322    |   125196
        7  | 27:49.22 |  3:38.08 |    125197    |   141554
        8  | 31:27.30 |  3:44.70 |    141555    |   158424
        9  | 35:12.25 |  6:08.35 |    158425    |   186059
       10  | 41:20.60 |  3:27.42 |    186060    |   201626
       11  | 44:48.27 |  4:27.40 |    201627    |   221691
       12  | 49:15.67 |  3:03.13 |    221692    |   235429
       13  | 52:19.05 |  3:20.15 |    235430    |   250444
Track  1
     Filename D:\Michael Feinstein\Such Sweet Sorrow\01 - Let's Face the Music and Dance.wav
     Pre-gap length  0:00:02.32
     Peak level 97.9 %
     Extraction speed 4.1 X
     Track quality 99.9 %
     Test CRC 6CE00B3F
     Copy CRC 6CE00B3F
     Accurately ripped (confidence 15)  [C5D29293]  (AR v2)
     Copy OK
Track  2
     Filename D:\Michael Feinstein\Such Sweet Sorrow\02 - Easy to Love.wav
     Pre-gap length  0:00:00.35
     Peak level 94.1 %
     Extraction speed 5.3 X
     Track quality 100.0 %
     Test CRC 8A2615BF
     Copy CRC 8A2615BF
     Accurately ripped (confidence 16)  [DE7E9901]  (AR v2)
     Copy OK
Track  3
     Filename D:\Michael Feinstein\Such Sweet Sorrow\03 - Wind in the Willow.wav
     Pre-gap length  0:00:02.18
     Peak level 94.2 %
     Extraction speed 5.9 X
     Track quality 100.0 %
     Test CRC 50AA6FBB
     Copy CRC 50AA6FBB
     Accurately ripped (confidence 15)  [F7FD27B8]  (AR v2)
     Copy OK
Track  4
     Filename D:\Michael Feinstein\Such Sweet Sorrow\04 - I See Your Face Before Me.wav
     Pre-gap length  0:00:00.60
     Peak level 95.1 %
     Extraction speed 5.8 X
     Track quality 99.9 %
     Test CRC F27251EF
     Copy CRC F27251EF
     Accurately ripped (confidence 16)  [C9591378]  (AR v2)
     Copy OK
Track  5
     Filename D:\Michael Feinstein\Such Sweet Sorrow\05 - Body and Soul.wav
     Pre-gap length  0:00:01.40
     Peak level 96.6 %
     Extraction speed 6.7 X
     Track quality 100.0 %
     Test CRC F31AA854
     Copy CRC F31AA854
     Accurately ripped (confidence 16)  [2590BF7A]  (AR v2)
     Copy OK
Track  6
     Filename D:\Michael Feinstein\Such Sweet Sorrow\06 - For Love Alone.wav
     Pre-gap length  0:00:01.70
     Peak level 93.9 %
     Extraction speed 6.8 X
     Track quality 100.0 %
     Test CRC 127863CD
     Copy CRC 127863CD
     Accurately ripped (confidence 15)  [0CB62E27]  (AR v2)
     Copy OK
Track  7
     Filename D:\Michael Feinstein\Such Sweet Sorrow\07 - Theme from The Bad and the Beautiful.wav
     Pre-gap length  0:00:01.07
     Peak level 94.6 %
     Extraction speed 6.2 X
     Track quality 99.9 %
     Test CRC AF12ABBD
     Copy CRC AF12ABBD
     Accurately ripped (confidence 15)  [C9F818D1]  (AR v2)
     Copy OK
Track  8
     Filename D:\Michael Feinstein\Such Sweet Sorrow\08 - Such Sweet Sorrow.wav
     Pre-gap length  0:00:00.68
     Peak level 94.0 %
     Extraction speed 7.4 X
     Track quality 100.0 %
     Test CRC 71653628
     Copy CRC 71653628
     Accurately ripped (confidence 15)  [FB20585C]  (AR v2)
     Copy OK
Track  9
     Filename D:\Michael Feinstein\Such Sweet Sorrow\09 - Love is Just Around the Corner.wav
     Pre-gap length  0:00:02.20
     Peak level 94.2 %
     Extraction speed 7.9 X
     Track quality 100.0 %
     Test CRC 93B9C74C
     Copy CRC 93B9C74C
     Accurately ripped (confidence 16)  [F375378D]  (AR v2)
     Copy OK
Track 10
     Filename D:\Michael Feinstein\Such Sweet Sorrow\10 - I'm a Dreamer, Aren't We All.wav
     Pre-gap length  0:00:01.25
     Peak level 80.9 %
     Extraction speed 7.9 X
     Track quality 100.0 %
     Test CRC 1F6CA8AC
     Copy CRC 1F6CA8AC
     Accurately ripped (confidence 16)  [F567A6FC]  (AR v2)
     Copy OK
Track 11
     Filename D:\Michael Feinstein\Such Sweet Sorrow\11 - But Beautiful.wav
     Pre-gap length  0:00:02.12
     Peak level 93.9 %
     Extraction speed 8.4 X
     Track quality 100.0 %
     Test CRC 5055C344
     Copy CRC 5055C344
     Accurately ripped (confidence 16)  [985E7375]  (AR v2)
     Copy OK
Track 12
     Filename D:\Michael Feinstein\Such Sweet Sorrow\12 - Wasn't There a Moment.wav
     Pre-gap length  0:00:01.37
     Peak level 94.2 %
     Extraction speed 8.1 X
     Track quality 100.0 %
     Test CRC 26851D95
     Copy CRC 26851D95
     Accurately ripped (confidence 15)  [CEBDACA7]  (AR v2)
     Copy OK
Track 13
     Filename D:\Michael Feinstein\Such Sweet Sorrow\13 - And So to Bed.wav
     Pre-gap length  0:00:02.23
     Peak level 86.7 %
     Extraction speed 7.1 X
     Track quality 99.9 %
     Test CRC A05E9C6E
     Copy CRC A05E9C6E
     Accurately ripped (confidence 15)  [094E8EE3]  (AR v2)
     Copy OK
All tracks accurately ripped
No errors occurred
End of status report
---- CUETools DB Plugin V2.1.6
[CTDB TOCID: CTj4QLzz1yCTWupgnI.EiYYAajQ-] found
Submit result: CTj4QLzz1yCTWupgnI.EiYYAajQ- has been confirmed
Track | CTDB Status
  1   | (18/18) Accurately ripped
  2   | (18/18) Accurately ripped
  3   | (18/18) Accurately ripped
  4   | (18/18) Accurately ripped
  5   | (18/18) Accurately ripped
  6   | (18/18) Accurately ripped
  7   | (18/18) Accurately ripped
  8   | (18/18) Accurately ripped
  9   | (18/18) Accurately ripped
 10   | (18/18) Accurately ripped
 11   | (17/18) Accurately ripped
 12   | (17/18) Accurately ripped
 13   | (18/18) Accurately ripped
==== Log checksum 77F8A9B326742EB46EBB44AB024307AA2F00BD8D8DDAEA7CEAB7236954F1C043 ====
Код:
REM GENRE Jazz
REM DATE 1995
REM DISCID C00D0B0D
REM COMMENT "ExactAudioCopy v1.3"
CATALOG 0075678274022
PERFORMER "Michael Feinstein"
TITLE "Such Sweet Sorrow"
FILE "01 - Let's Face the Music and Dance.wav" WAVE
  TRACK 01 AUDIO
    TITLE "Let's Face the Music and Dance"
    PERFORMER "Michael Feinstein"
    PREGAP 00:00:32
    INDEX 01 00:00:00
  TRACK 02 AUDIO
    TITLE "Easy to Love"
    PERFORMER "Michael Feinstein"
    INDEX 00 04:26:58
FILE "02 - Easy to Love.wav" WAVE
    INDEX 01 00:00:00
  TRACK 03 AUDIO
    TITLE "Wind in the Willow"
    PERFORMER "Michael Feinstein"
    INDEX 00 04:43:62
FILE "03 - Wind in the Willow.wav" WAVE
    INDEX 01 00:00:00
  TRACK 04 AUDIO
    TITLE "I See Your Face Before Me"
    PERFORMER "Michael Feinstein"
    INDEX 00 04:54:42
FILE "04 - I See Your Face Before Me.wav" WAVE
    INDEX 01 00:00:00
  TRACK 05 AUDIO
    TITLE "Body and Soul"
    PERFORMER "Michael Feinstein"
    INDEX 00 05:06:68
FILE "05 - Body and Soul.wav" WAVE
    INDEX 01 00:00:00
  TRACK 06 AUDIO
    TITLE "For Love Alone"
    PERFORMER "Michael Feinstein"
    INDEX 00 05:11:37
FILE "06 - For Love Alone.wav" WAVE
    INDEX 01 00:00:00
  TRACK 07 AUDIO
    TITLE "Theme from The Bad and the Beautiful"
    PERFORMER "Michael Feinstein"
    INDEX 00 03:17:18
FILE "07 - Theme from The Bad and the Beautiful.wav" WAVE
    INDEX 01 00:00:00
  TRACK 08 AUDIO
    TITLE "Such Sweet Sorrow"
    PERFORMER "Michael Feinstein"
    INDEX 00 03:37:15
FILE "08 - Such Sweet Sorrow.wav" WAVE
    INDEX 01 00:00:00
  TRACK 09 AUDIO
    TITLE "Love is Just Around the Corner"
    PERFORMER "Michael Feinstein"
    INDEX 00 03:42:50
FILE "09 - Love is Just Around the Corner.wav" WAVE
    INDEX 01 00:00:00
  TRACK 10 AUDIO
    TITLE "I'm a Dreamer, Aren't We All"
    PERFORMER "Michael Feinstein"
    INDEX 00 06:07:10
FILE "10 - I'm a Dreamer, Aren't We All.wav" WAVE
    INDEX 01 00:00:00
  TRACK 11 AUDIO
    TITLE "But Beautiful"
    PERFORMER "Michael Feinstein"
    INDEX 00 03:25:30
FILE "11 - But Beautiful.wav" WAVE
    INDEX 01 00:00:00
  TRACK 12 AUDIO
    TITLE "Wasn't There a Moment"
    PERFORMER "Michael Feinstein"
    INDEX 00 04:26:03
FILE "12 - Wasn't There a Moment.wav" WAVE
    INDEX 01 00:00:00
  TRACK 13 AUDIO
    TITLE "And So to Bed"
    PERFORMER "Michael Feinstein"
    INDEX 00 03:00:65
FILE "13 - And So to Bed.wav" WAVE
    INDEX 01 00:00:00
Код:
[CUETools log; Date: 30.12.2019 1:33:25; Version: 2.1.6]
Pregap length 00:00:32.
[CTDB TOCID: CTj4QLzz1yCTWupgnI.EiYYAajQ-] found.
Track | CTDB Status
  1   | (19/19) Accurately ripped
  2   | (19/19) Accurately ripped
  3   | (19/19) Accurately ripped
  4   | (19/19) Accurately ripped
  5   | (19/19) Accurately ripped
  6   | (19/19) Accurately ripped
  7   | (19/19) Accurately ripped
  8   | (19/19) Accurately ripped
  9   | (19/19) Accurately ripped
 10   | (19/19) Accurately ripped
 11   | (18/19) Accurately ripped
 12   | (18/19) Accurately ripped
 13   | (19/19) Accurately ripped
[AccurateRip ID: 001c1ec7-01168f9c-c00d0b0d] found.
Track   [  CRC   |   V2   ] Status
 01     [c766c88b|c5d29293] (11+15/26) Accurately ripped
 02     [e4778436|de7e9901] (11+16/27) Accurately ripped
 03     [a07b1863|f7fd27b8] (11+15/26) Accurately ripped
 04     [19752b85|c9591378] (11+16/27) Accurately ripped
 05     [5f6dc187|2590bf7a] (11+16/27) Accurately ripped
 06     [a1e92c0d|0cb62e27] (11+15/26) Accurately ripped
 07     [99323408|c9f818d1] (11+15/26) Accurately ripped
 08     [e665301a|fb20585c] (11+15/26) Accurately ripped
 09     [5eb5859b|f375378d] (11+16/27) Accurately ripped
 10     [1d4f9741|f567a6fc] (11+16/27) Accurately ripped
 11     [14a281dc|985e7375] (10+16/26) Accurately ripped
 12     [e66c215b|cebdaca7] (10+15/25) Accurately ripped
 13     [f697546b|094e8ee3] (10+15/25) Accurately ripped
Track Peak [ CRC32  ] [W/O NULL] [  LOG   ]
 --   97,9 [2D814C94] [4B8EDC32]
 01   97,9 [6CE00B3F] [F2F5B8EF]   CRC32
 02   94,1 [8A2615BF] [46317851]   CRC32
 03   94,2 [50AA6FBB] [C04946C0]   CRC32
 04   95,1 [F27251EF] [439FAFF6]   CRC32
 05   96,6 [F31AA854] [75B290AD]   CRC32
 06   93,9 [127863CD] [3A7F2161]   CRC32
 07   94,6 [AF12ABBD] [01DA228F]   CRC32
 08   94,0 [71653628] [121EBD30]   CRC32
 09   94,2 [93B9C74C] [717489AE]   CRC32
 10   80,9 [1F6CA8AC] [C670F6DD]   CRC32
 11   93,9 [5055C344] [6E8B9F79]   CRC32
 12   94,2 [26851D95] [D41020D0]   CRC32
 13   86,7 [A05E9C6E] [FCF9F4FB]   CRC32
Michael Feinstein's label debut for Atlantic was a thematic album of sad love songs, but the emphasis was more on the sweet than the sorrow; this was no album of saloon songs like Frank Sinatra's Only the Lonely. As often as not, Feinstein simply chose songs of not-yet-requited love, like Cole Porter's "Easy to Love" or Leo Robin and Lewis Gensler's "Love Is Just Around the Corner," while he reflected on love's downs as well as its ups in Johnny Burke and Jimmy Van Heusen's "But Beautiful." Feinstein effectively combined such vintage material with "Wasn't There a Moment," a brand-new Jimmy Webb song, and even "For Love Alone," one of his own, and dug up such lost gems as "Theme from the Bad and the Beautiful," Dory Previn's lyrical setting over David Raksin's theme. And Feinstein made a point of inserting arcane lyrics and other musical treats, such as having a quartet of flutes play Coleman Hawkins's famous saxophone solo during "Body and Soul," amaking the album a delight for fellow archivists as well as fans of vocal music.
Правила, инструкции, FAQ!!!
Торрент  Добавлен [05 янв 2020, 15:24] Скачать торрент Магнет ссылка
Скачать торрент
[ Размер 13.61 КБ / Просмотров 4 ]

Статус
Проверен 
 
Размер  307.28 МБ
Приватный: Нет (DHT включён)
.torrent скачан  0
 


     Отправить личное сообщение
   
Страница 1 из 1
Показать сообщения за:  Поле сортировки  
Начать новую тему Ответить на тему


Сейчас этот форум просматривают: нет зарегистрированных пользователей и гости: 0


Вы не можете начинать темы
Вы не можете отвечать на сообщения
Вы не можете редактировать свои сообщения
Вы не можете удалять свои сообщения
Вы не можете добавлять вложения

Перейти:  
cron
cron