Начать новую тему Ответить на тему
Статистика раздачи
Размер: 257.67 МБ | Добавлен: 05 янв 2020, 15:25 | Скачали: 0
Сидеров: 0  [0 байт/сек]    Личеров: 0  [0 байт/сек]
Пред. тема | След. тема 

Автор
Сообщение

СообщениеДобавлено: 05 янв 2020, 15:25 

Ответить с цитатой 

Michael Feinstein - Recorded Live at Feinstein's at The Regency
Жанр: Vocal Jazz
Носитель: CD
Страна-производитель диска (релиза): США
Год издания: 2000
Издатель (лейбл): Concord Records
Номер по каталогу: CCD-4936-2
Аудиокодек: FLAC (*.flac)
Тип рипа: tracks+.cue
Продолжительность: 00:45:13
Источник: Napaskiak
Наличие сканов в содержимом раздачи: нет
Треклист:
01. I'll Take Romance (2:46)
02. Hooray for Love (2:48)
03. My Romance (4:02)
04. How About You (3:49)
05. Tea for Two (5:03)
06. Red, Hot and Blue (3:48)
07. Rhode Island Is Famous for You (3:12)
08. This Can't Be Love (3:18)
09. Rainbow 'Round My Shoulder (3:29)
10. After You've Gone (3:41)
11. Laura (4:00)
12. It All Depends on You (5:17)
Код:
Exact Audio Copy V1.3 from 2. September 2016
EAC extraction logfile from 6. November 2019, 15:47
Michael Feinstein / Recorded Live at Feinstein's at The Regency
Used drive  : ASUS    DRW-2014L1T   Adapter: 1  ID: 0
Read mode               : Secure
Utilize accurate stream : Yes
Defeat audio cache      : Yes
Make use of C2 pointers : No
Read offset correction                      : 6
Overread into Lead-In and Lead-Out          : No
Fill up missing offset samples with silence : Yes
Delete leading and trailing silent blocks   : No
Null samples used in CRC calculations       : Yes
Used interface                              : Native Win32 interface for Win NT & 2000
Gap handling                                : Appended to previous track
Used output format              : User Defined Encoder
Selected bitrate                : 896 kBit/s
Quality                         : High
Add ID3 tag                     : No
Command line compressor         : D:\JKM\Codecs\flac-1.3.3-x64\flac.exe
Additional command line options : -8 -V -T "ARTIST=%artist%" -T "TITLE=%title%" -T "ALBUM=%albumtitle%" -T "DATE=%year%" -T "TRACKNUMBER=%tracknr%" -T "GENRE=%genre%" -T "COMMENT=%comment%" -T "BAND=%albuminterpret%" -T "ALBUMARTIST=%albuminterpret%" -T "COMPOSER=%composer%" %haslyrics%--tag-from-file=LYRICS="%lyricsfile%"%haslyrics% -T "DISCNUMBER=%cdnumber%" -T "TOTALDISCS=%totalcds%" -T "TOTALTRACKS=%numtracks%" %hascover%--picture="%coverfile%"%hascover% %source% -o %dest%
TOC of the extracted CD
     Track |   Start  |  Length  | Start sector | End sector
    ---------------------------------------------------------
        1  |  0:00.00 |  2:45.65 |         0    |    12439
        2  |  2:45.65 |  2:48.07 |     12440    |    25046
        3  |  5:33.72 |  4:01.73 |     25047    |    43194
        4  |  9:35.70 |  3:49.12 |     43195    |    60381
        5  | 13:25.07 |  5:03.20 |     60382    |    83126
        6  | 18:28.27 |  3:47.60 |     83127    |   100211
        7  | 22:16.12 |  3:12.08 |    100212    |   114619
        8  | 25:28.20 |  3:17.52 |    114620    |   129446
        9  | 28:45.72 |  3:28.63 |    129447    |   145109
       10  | 32:14.60 |  3:41.07 |    145110    |   161691
       11  | 35:55.67 |  4:00.20 |    161692    |   179711
       12  | 39:56.12 |  5:16.40 |    179712    |   203451
Track  1
     Filename D:\Michael Feinstein\Recorded Live at Feinstein's at The Regency\01 - I'll Take Romance.wav
     Pre-gap length  0:00:02.00
     Peak level 93.9 %
     Extraction speed 4.9 X
     Track quality 100.0 %
     Test CRC 8897D75C
     Copy CRC 8897D75C
     Accurately ripped (confidence 2)  [6D2D86BC]  (AR v2)
     Copy OK
Track  2
     Filename D:\Michael Feinstein\Recorded Live at Feinstein's at The Regency\02 - Hooray for Love.wav
     Peak level 94.9 %
     Extraction speed 5.2 X
     Track quality 100.0 %
     Test CRC DF1993C2
     Copy CRC DF1993C2
     Accurately ripped (confidence 2)  [F7AC7EF5]  (AR v2)
     Copy OK
Track  3
     Filename D:\Michael Feinstein\Recorded Live at Feinstein's at The Regency\03 - My Romance.wav
     Peak level 96.6 %
     Extraction speed 5.9 X
     Track quality 100.0 %
     Test CRC 027F4D85
     Copy CRC 027F4D85
     Accurately ripped (confidence 2)  [6C14DD0F]  (AR v2)
     Copy OK
Track  4
     Filename D:\Michael Feinstein\Recorded Live at Feinstein's at The Regency\04 - How About You.wav
     Peak level 94.3 %
     Extraction speed 6.4 X
     Track quality 100.0 %
     Test CRC 7D657A2C
     Copy CRC 7D657A2C
     Accurately ripped (confidence 2)  [D3793AC6]  (AR v2)
     Copy OK
Track  5
     Filename D:\Michael Feinstein\Recorded Live at Feinstein's at The Regency\05 - Tea For Two.wav
     Peak level 79.2 %
     Extraction speed 7.1 X
     Track quality 100.0 %
     Test CRC ED92614B
     Copy CRC ED92614B
     Accurately ripped (confidence 2)  [D3E0DED5]  (AR v2)
     Copy OK
Track  6
     Filename D:\Michael Feinstein\Recorded Live at Feinstein's at The Regency\06 - Red, Hot and Blue.wav
     Peak level 93.6 %
     Extraction speed 7.3 X
     Track quality 100.0 %
     Test CRC F63604DF
     Copy CRC F63604DF
     Accurately ripped (confidence 2)  [DCB76746]  (AR v2)
     Copy OK
Track  7
     Filename D:\Michael Feinstein\Recorded Live at Feinstein's at The Regency\07 - Rhode Island Is Famous For You.wav
     Peak level 96.5 %
     Extraction speed 7.3 X
     Track quality 100.0 %
     Test CRC C0250EE0
     Copy CRC C0250EE0
     Accurately ripped (confidence 2)  [6FE0069F]  (AR v2)
     Copy OK
Track  8
     Filename D:\Michael Feinstein\Recorded Live at Feinstein's at The Regency\08 - This Can't Be Love.wav
     Peak level 96.1 %
     Extraction speed 7.6 X
     Track quality 100.0 %
     Test CRC 4C8861B1
     Copy CRC 4C8861B1
     Accurately ripped (confidence 2)  [2CC8F5F1]  (AR v2)
     Copy OK
Track  9
     Filename D:\Michael Feinstein\Recorded Live at Feinstein's at The Regency\09 - Rainbow 'Round My Shoulder.wav
     Peak level 91.9 %
     Extraction speed 5.9 X
     Track quality 99.9 %
     Test CRC 97488F06
     Copy CRC 97488F06
     Accurately ripped (confidence 2)  [3523D185]  (AR v2)
     Copy OK
Track 10
     Filename D:\Michael Feinstein\Recorded Live at Feinstein's at The Regency\10 - After You've Gone.wav
     Peak level 97.2 %
     Extraction speed 6.2 X
     Track quality 99.9 %
     Test CRC A76B4D67
     Copy CRC A76B4D67
     Accurately ripped (confidence 2)  [A82626ED]  (AR v2)
     Copy OK
Track 11
     Filename D:\Michael Feinstein\Recorded Live at Feinstein's at The Regency\11 - Laura.wav
     Peak level 87.5 %
     Extraction speed 7.3 X
     Track quality 100.0 %
     Test CRC 5D395335
     Copy CRC 5D395335
     Accurately ripped (confidence 2)  [C3BF4DAF]  (AR v2)
     Copy OK
Track 12
     Filename D:\Michael Feinstein\Recorded Live at Feinstein's at The Regency\12 - It All Depends On You.wav
     Peak level 96.1 %
     Extraction speed 7.7 X
     Track quality 100.0 %
     Test CRC 62B2837B
     Copy CRC 62B2837B
     Accurately ripped (confidence 2)  [EDB882E3]  (AR v2)
     Copy OK
All tracks accurately ripped
No errors occurred
End of status report
---- CUETools DB Plugin V2.1.6
[CTDB TOCID: xzUqS0voNYqYwqI_9R4.8f2kKIE-] found
Submit result: xzUqS0voNYqYwqI_9R4.8f2kKIE- has been confirmed
Track | CTDB Status
  1   | (3/3) Accurately ripped
  2   | (3/3) Accurately ripped
  3   | (3/3) Accurately ripped
  4   | (3/3) Accurately ripped
  5   | (3/3) Accurately ripped
  6   | (3/3) Accurately ripped
  7   | (3/3) Accurately ripped
  8   | (3/3) Accurately ripped
  9   | (2/3) Accurately ripped
 10   | (3/3) Accurately ripped
 11   | (3/3) Accurately ripped
 12   | (3/3) Accurately ripped
==== Log checksum 99938FFA098267B1BD3C66E4E732B474D3660367C3939F3735A7ADA3ABFF65D1 ====
Код:
REM GENRE Jazz
REM DATE 2000
REM DISCID A10A980C
REM COMMENT "ExactAudioCopy v1.3"
PERFORMER "Michael Feinstein"
TITLE "Recorded Live at Feinstein's at The Regency"
FILE "01 - I'll Take Romance.wav" WAVE
  TRACK 01 AUDIO
    TITLE "I'll Take Romance"
    PERFORMER "Michael Feinstein"
    INDEX 01 00:00:00
FILE "02 - Hooray for Love.wav" WAVE
  TRACK 02 AUDIO
    TITLE "Hooray for Love"
    PERFORMER "Michael Feinstein"
    INDEX 01 00:00:00
FILE "03 - My Romance.wav" WAVE
  TRACK 03 AUDIO
    TITLE "My Romance"
    PERFORMER "Michael Feinstein"
    INDEX 01 00:00:00
FILE "04 - How About You.wav" WAVE
  TRACK 04 AUDIO
    TITLE "How About You"
    PERFORMER "Michael Feinstein"
    INDEX 01 00:00:00
FILE "05 - Tea for Two.wav" WAVE
  TRACK 05 AUDIO
    TITLE "Tea for Two"
    PERFORMER "Michael Feinstein"
    INDEX 01 00:00:00
FILE "06 - Red, Hot and Blue.wav" WAVE
  TRACK 06 AUDIO
    TITLE "Red, Hot and Blue"
    PERFORMER "Michael Feinstein"
    INDEX 01 00:00:00
FILE "07 - Rhode Island Is Famous for You.wav" WAVE
  TRACK 07 AUDIO
    TITLE "Rhode Island Is Famous for You"
    PERFORMER "Michael Feinstein"
    INDEX 01 00:00:00
FILE "08 - This Can't Be Love.wav" WAVE
  TRACK 08 AUDIO
    TITLE "This Can't Be Love"
    PERFORMER "Michael Feinstein"
    INDEX 01 00:00:00
FILE "09 - Rainbow 'Round My Shoulder.wav" WAVE
  TRACK 09 AUDIO
    TITLE "Rainbow 'Round My Shoulder"
    PERFORMER "Michael Feinstein"
    INDEX 01 00:00:00
FILE "10 - After You've Gone.wav" WAVE
  TRACK 10 AUDIO
    TITLE "After You've Gone"
    PERFORMER "Michael Feinstein"
    INDEX 01 00:00:00
FILE "11 - Laura.wav" WAVE
  TRACK 11 AUDIO
    TITLE "Laura"
    PERFORMER "Michael Feinstein"
    INDEX 01 00:00:00
FILE "12 - It All Depends on You.wav" WAVE
  TRACK 12 AUDIO
    TITLE "It All Depends on You"
    PERFORMER "Michael Feinstein"
    INDEX 01 00:00:00
Код:
[CUETools log; Date: 31.12.2019 2:14:29; Version: 2.1.6]
HDCD: peak extend: yes, transient filter: some, gain: -4,0dB..0,0dB
[CTDB TOCID: xzUqS0voNYqYwqI_9R4.8f2kKIE-] found.
Track | CTDB Status
  1   | (4/4) Accurately ripped
  2   | (4/4) Accurately ripped
  3   | (4/4) Accurately ripped
  4   | (4/4) Accurately ripped
  5   | (4/4) Accurately ripped
  6   | (4/4) Accurately ripped
  7   | (4/4) Accurately ripped
  8   | (4/4) Accurately ripped
  9   | (3/4) Accurately ripped
 10   | (4/4) Accurately ripped
 11   | (4/4) Accurately ripped
 12   | (4/4) Accurately ripped
[AccurateRip ID: 001333c4-00b565c9-a10a980c] found.
Track   [  CRC   |   V2   ] Status
 01     [0686d456|6d2d86bc] (0+2/2) Accurately ripped
 02     [3070c1d9|f7ac7ef5] (0+2/2) Accurately ripped
 03     [53999853|6c14dd0f] (0+2/2) Accurately ripped
 04     [53f48c73|d3793ac6] (0+2/2) Accurately ripped
 05     [c78b5b97|d3e0ded5] (0+2/2) Accurately ripped
 06     [0e1b333c|dcb76746] (0+2/2) Accurately ripped
 07     [05bfd6c4|6fe0069f] (0+2/2) Accurately ripped
 08     [f5a1c6ce|2cc8f5f1] (0+2/2) Accurately ripped
 09     [01825f76|3523d185] (0+2/2) Accurately ripped
 10     [cbb9e795|a82626ed] (0+2/2) Accurately ripped
 11     [f47b464e|c3bf4daf] (0+2/2) Accurately ripped
 12     [0859678b|edb882e3] (0+2/2) Accurately ripped
Track Peak [ CRC32  ] [W/O NULL] [  LOG   ]
 --   97,2 [31DB1BCE] [4F665395]
 01   93,9 [8897D75C] [DB17869F]   CRC32
 02   94,9 [DF1993C2] [9D251A99]   CRC32
 03   96,6 [027F4D85] [83A6CFDC]   CRC32
 04   94,3 [7D657A2C] [45EB3BAE]   CRC32
 05   79,2 [ED92614B] [F1E5C102]   CRC32
 06   93,6 [F63604DF] [7DD248A6]   CRC32
 07   96,5 [C0250EE0] [242BF96E]   CRC32
 08   96,1 [4C8861B1] [A6531536]   CRC32
 09   91,9 [97488F06] [6F9C9A4C]   CRC32
 10   97,2 [A76B4D67] [A0FF1117]   CRC32
 11   87,5 [5D395335] [F13BB587]   CRC32
 12   96,1 [62B2837B] [4835A1CC]   CRC32
Правила, инструкции, FAQ!!!
Торрент  Добавлен [05 янв 2020, 15:25] Скачать торрент Магнет ссылка
Скачать торрент
[ Размер 11.69 КБ / Просмотров 5 ]

Статус
Проверен 
 
Размер  257.67 МБ
Приватный: Нет (DHT включён)
.torrent скачан  0
 


     Отправить личное сообщение
   
Страница 1 из 1
Показать сообщения за:  Поле сортировки  
Начать новую тему Ответить на тему


Сейчас этот форум просматривают: нет зарегистрированных пользователей и гости: 0


Вы не можете начинать темы
Вы не можете отвечать на сообщения
Вы не можете редактировать свои сообщения
Вы не можете удалять свои сообщения
Вы не можете добавлять вложения

Перейти:  
cron