Начать новую тему Ответить на тему
Статистика раздачи
Размер: 245.92 МБ | Добавлен: 05 янв 2020, 15:25 | Скачали: 0
Сидеров: 1  [0 байт/сек]    Личеров: 0  [0 байт/сек]
Пред. тема | След. тема 

Автор
Сообщение

СообщениеДобавлено: 05 янв 2020, 15:25 

Ответить с цитатой 

Michael Feinstein - Pure Gershwin
Жанр: Vocal Jazz
Носитель: CD
Страна-производитель диска (релиза): США
Год издания: 1985 (1987)
Издатель (лейбл): Elektra
Номер по каталогу: 9 60742-2
Аудиокодек: FLAC (*.flac)
Тип рипа: tracks+.cue
Продолжительность: 00:56:11
Источник: Napaskiak
Наличие сканов в содержимом раздачи: нет
Треклист:
01. 'S Wonderful (3:58)
02. Our Love Is Here to Stay (3:57)
03. Liza (5:30)
04. The World Is Mine (3:02)
05. They Can't Take That Away from Me (3:41)
06. Isn't It a Pity? (7:08)
07. Let's Call the Whole Thing Off (2:52)
08. Embraceable You (4:41)
09. What Causes That? (3:24)
10. He Loves and She Loves/How Long Has This Been Going On (5:55)
11. They All Laughed (3:07)
12. The Girl I Love (4:36)
13. Someone to Watch over Me (4:20)
Код:
Exact Audio Copy V1.3 from 2. September 2016
EAC extraction logfile from 31. October 2019, 8:36
Michael Feinstein / Pure Gershwin
Used drive  : ASUS    DRW-2014L1T   Adapter: 1  ID: 0
Read mode               : Secure
Utilize accurate stream : Yes
Defeat audio cache      : Yes
Make use of C2 pointers : No
Read offset correction                      : 6
Overread into Lead-In and Lead-Out          : No
Fill up missing offset samples with silence : Yes
Delete leading and trailing silent blocks   : No
Null samples used in CRC calculations       : Yes
Used interface                              : Native Win32 interface for Win NT & 2000
Gap handling                                : Appended to previous track
Used output format              : User Defined Encoder
Selected bitrate                : 768 kBit/s
Quality                         : High
Add ID3 tag                     : No
Command line compressor         : C:\Program Files (x86)\Exact Audio Copy\Flac\flac.exe
Additional command line options : -6 -V -T "ARTIST=%artist%" -T "TITLE=%title%" -T "ALBUM=%albumtitle%" -T "DATE=%year%" -T "TRACKNUMBER=%tracknr%" -T "GENRE=%genre%" -T "COMMENT=%comment%" -T "BAND=%albuminterpret%" -T "ALBUMARTIST=%albuminterpret%" -T "COMPOSER=%composer%" %haslyrics%--tag-from-file=LYRICS="%lyricsfile%"%haslyrics% -T "DISCNUMBER=%cdnumber%" -T "TOTALDISCS=%totalcds%" -T "TOTALTRACKS=%numtracks%" %hascover%--picture="%coverfile%"%hascover% %source% -o %dest%
TOC of the extracted CD
     Track |   Start  |  Length  | Start sector | End sector
    ---------------------------------------------------------
        1  |  0:00.32 |  3:57.38 |        32    |    17844
        2  |  3:57.70 |  3:56.50 |     17845    |    35594
        3  |  7:54.45 |  5:30.35 |     35595    |    60379
        4  | 13:25.05 |  3:02.32 |     60380    |    74061
        5  | 16:27.37 |  3:41.03 |     74062    |    90639
        6  | 20:08.40 |  7:08.02 |     90640    |   122741
        7  | 27:16.42 |  2:52.23 |    122742    |   135664
        8  | 30:08.65 |  4:40.40 |    135665    |   156704
        9  | 34:49.30 |  3:23.70 |    156705    |   171999
       10  | 38:13.25 |  5:55.35 |    172000    |   198659
       11  | 44:08.60 |  3:07.17 |    198660    |   212701
       12  | 47:16.02 |  4:35.55 |    212702    |   233381
       13  | 51:51.57 |  4:19.50 |    233382    |   252856
Track  1
     Filename D:\Michael Feinstein\Pure Gershwin\01 - 'S Wonderful.wav
     Pre-gap length  0:00:02.32
     Peak level 60.5 %
     Extraction speed 5.0 X
     Track quality 100.0 %
     Test CRC A4242E0C
     Copy CRC A4242E0C
     Cannot be verified as accurate (confidence 7)  [7B3018D6], AccurateRip returned [8BCF9803]  (AR v2)
     Copy OK
Track  2
     Filename D:\Michael Feinstein\Pure Gershwin\02 - Our Love Is Here to Stay.wav
     Pre-gap length  0:00:02.10
     Peak level 62.6 %
     Extraction speed 5.5 X
     Track quality 100.0 %
     Test CRC 4C2FFAC6
     Copy CRC 4C2FFAC6
     Cannot be verified as accurate (confidence 7)  [FBC1F0A4], AccurateRip returned [E9C1E9E5]  (AR v2)
     Copy OK
Track  3
     Filename D:\Michael Feinstein\Pure Gershwin\03 - Liza.wav
     Pre-gap length  0:00:02.28
     Peak level 55.4 %
     Extraction speed 6.2 X
     Track quality 100.0 %
     Test CRC 681F5384
     Copy CRC 681F5384
     Cannot be verified as accurate (confidence 7)  [96FE8204], AccurateRip returned [71FA32F5]  (AR v2)
     Copy OK
Track  4
     Filename D:\Michael Feinstein\Pure Gershwin\04 - The World Is Mine.wav
     Pre-gap length  0:00:01.70
     Peak level 90.5 %
     Extraction speed 6.2 X
     Track quality 100.0 %
     Test CRC 63C016D6
     Copy CRC 63C016D6
     Cannot be verified as accurate (confidence 7)  [B4DA8592], AccurateRip returned [2876E279]  (AR v2)
     Copy OK
Track  5
     Filename D:\Michael Feinstein\Pure Gershwin\05 - They Can't Take That Away From Me.wav
     Pre-gap length  0:00:02.62
     Peak level 85.8 %
     Extraction speed 6.6 X
     Track quality 100.0 %
     Test CRC D182E8AA
     Copy CRC D182E8AA
     Cannot be verified as accurate (confidence 7)  [9D5511E3], AccurateRip returned [A77A23F2]  (AR v2)
     Copy OK
Track  6
     Filename D:\Michael Feinstein\Pure Gershwin\06 - Isn't It a Pity.wav
     Pre-gap length  0:00:02.58
     Peak level 56.0 %
     Extraction speed 7.7 X
     Track quality 100.0 %
     Test CRC 0DBBB889
     Copy CRC 0DBBB889
     Cannot be verified as accurate (confidence 7)  [C05EB3A7], AccurateRip returned [4FACD94F]  (AR v2)
     Copy OK
Track  7
     Filename D:\Michael Feinstein\Pure Gershwin\07 - Let's Call the Whole Thing Off.wav
     Pre-gap length  0:00:03.20
     Peak level 93.3 %
     Extraction speed 5.3 X
     Track quality 99.9 %
     Test CRC 8AF8DF28
     Copy CRC 8AF8DF28
     Cannot be verified as accurate (confidence 7)  [B412136D], AccurateRip returned [D86EB85D]  (AR v2)
     Copy OK
Track  8
     Filename D:\Michael Feinstein\Pure Gershwin\08 - Embraceable You.wav
     Pre-gap length  0:00:05.53
     Peak level 75.8 %
     Extraction speed 6.2 X
     Track quality 99.9 %
     Test CRC DE4389E9
     Copy CRC DE4389E9
     Cannot be verified as accurate (confidence 7)  [2EB12C31], AccurateRip returned [1E1969FA]  (AR v2)
     Copy OK
Track  9
     Filename D:\Michael Feinstein\Pure Gershwin\09 - What Causes That.wav
     Pre-gap length  0:00:02.25
     Peak level 72.8 %
     Extraction speed 6.9 X
     Track quality 100.0 %
     Test CRC A7FC4661
     Copy CRC A7FC4661
     Cannot be verified as accurate (confidence 7)  [249EDF20], AccurateRip returned [431502CE]  (AR v2)
     Copy OK
Track 10
     Filename D:\Michael Feinstein\Pure Gershwin\10 - He Loves and She Loves , How Long Has This Been Going On.wav
     Pre-gap length  0:00:02.63
     Peak level 68.8 %
     Extraction speed 7.7 X
     Track quality 100.0 %
     Test CRC 4578CC34
     Copy CRC 4578CC34
     Cannot be verified as accurate (confidence 7)  [C5DD6E11], AccurateRip returned [04A4D402]  (AR v2)
     Copy OK
Track 11
     Filename D:\Michael Feinstein\Pure Gershwin\11 - They All Laughed.wav
     Pre-gap length  0:00:02.30
     Peak level 80.4 %
     Extraction speed 6.3 X
     Track quality 99.9 %
     Test CRC 9A52400C
     Copy CRC 9A52400C
     Cannot be verified as accurate (confidence 7)  [2FFDF32F], AccurateRip returned [4028EE26]  (AR v2)
     Copy OK
Track 12
     Filename D:\Michael Feinstein\Pure Gershwin\12 - The Girl I Love.wav
     Pre-gap length  0:00:02.32
     Peak level 82.5 %
     Extraction speed 7.9 X
     Track quality 100.0 %
     Test CRC C3D599B7
     Copy CRC C3D599B7
     Cannot be verified as accurate (confidence 7)  [A5C25EF7], AccurateRip returned [DC202FA9]  (AR v2)
     Copy OK
Track 13
     Filename D:\Michael Feinstein\Pure Gershwin\13 - Someone to Watch Over Me.wav
     Pre-gap length  0:00:02.47
     Peak level 93.3 %
     Extraction speed 8.0 X
     Track quality 100.0 %
     Test CRC FB3F05EC
     Copy CRC FB3F05EC
     Cannot be verified as accurate (confidence 7)  [47C97B26], AccurateRip returned [21DDE7BE]  (AR v2)
     Copy OK
No tracks could be verified as accurate
You may have a different pressing from the one(s) in the database
No errors occurred
End of status report
---- CUETools DB Plugin V2.1.6
[CTDB TOCID: JWPeq8Tv4iRSyqO_b5nYUjgYAkQ-] found
Submit result: JWPeq8Tv4iRSyqO_b5nYUjgYAkQ- has been confirmed
Track | CTDB Status
  1   | (20/22) Accurately ripped, or (1/22) differs in 37 samples @00:34:09,00:35:12
  2   | (20/22) Accurately ripped
  3   | (21/22) Accurately ripped
  4   | (22/22) Accurately ripped
  5   | (22/22) Accurately ripped
  6   | (22/22) Accurately ripped
  7   | (21/22) Accurately ripped
  8   | (16/22) Accurately ripped
  9   | (21/22) Accurately ripped
 10   | (20/22) Accurately ripped
 11   | (19/22) Accurately ripped
 12   | (20/22) Accurately ripped
 13   | (19/22) Accurately ripped
==== Log checksum 0A9095C84BEAD0958722E80E03575E4683F01BEDA8CB451992010A5D91A3C024 ====
Код:
REM GENRE Jazz
REM DATE 1985
REM DISCID B20D2B0D
REM COMMENT "ExactAudioCopy v1.3"
CATALOG 0075596074227
PERFORMER "Michael Feinstein"
TITLE "Pure Gershwin"
FILE "01 - 'S Wonderful.wav" WAVE
  TRACK 01 AUDIO
    TITLE "'S Wonderful"
    PERFORMER "Michael Feinstein"
    PREGAP 00:00:32
    INDEX 01 00:00:00
  TRACK 02 AUDIO
    TITLE "Our Love Is Here to Stay"
    PERFORMER "Michael Feinstein"
    INDEX 00 03:55:28
FILE "02 - Our Love Is Here to Stay.wav" WAVE
    INDEX 01 00:00:00
  TRACK 03 AUDIO
    TITLE "Liza"
    PERFORMER "Michael Feinstein"
    INDEX 00 03:54:22
FILE "03 - Liza.wav" WAVE
    INDEX 01 00:00:00
  TRACK 04 AUDIO
    TITLE "The World Is Mine"
    PERFORMER "Michael Feinstein"
    INDEX 00 05:28:40
FILE "04 - The World Is Mine.wav" WAVE
    INDEX 01 00:00:00
  TRACK 05 AUDIO
    TITLE "They Can't Take That Away from Me"
    PERFORMER "Michael Feinstein"
    INDEX 00 02:59:45
FILE "05 - They Can't Take That Away from Me.wav" WAVE
    INDEX 01 00:00:00
  TRACK 06 AUDIO
    TITLE "Isn't It a Pity?"
    PERFORMER "Michael Feinstein"
    INDEX 00 03:38:20
FILE "06 - Isn't It a Pity.wav" WAVE
    INDEX 01 00:00:00
  TRACK 07 AUDIO
    TITLE "Let's Call the Whole Thing Off"
    PERFORMER "Michael Feinstein"
    INDEX 00 07:04:57
FILE "07 - Let's Call the Whole Thing Off.wav" WAVE
    INDEX 01 00:00:00
  TRACK 08 AUDIO
    TITLE "Embraceable You"
    PERFORMER "Michael Feinstein"
    INDEX 00 02:46:45
FILE "08 - Embraceable You.wav" WAVE
    INDEX 01 00:00:00
  TRACK 09 AUDIO
    TITLE "What Causes That?"
    PERFORMER "Michael Feinstein"
    INDEX 00 04:38:15
FILE "09 - What Causes That.wav" WAVE
    INDEX 01 00:00:00
  TRACK 10 AUDIO
    TITLE "He Loves and She Loves/How Long Has This Been Going On"
    PERFORMER "Michael Feinstein"
    INDEX 00 03:21:07
FILE "10 - He Loves and She Loves,How Long Has This Been Going On.wav" WAVE
    INDEX 01 00:00:00
  TRACK 11 AUDIO
    TITLE "They All Laughed"
    PERFORMER "Michael Feinstein"
    INDEX 00 05:53:05
FILE "11 - They All Laughed.wav" WAVE
    INDEX 01 00:00:00
  TRACK 12 AUDIO
    TITLE "The Girl I Love"
    PERFORMER "Michael Feinstein"
    INDEX 00 03:04:60
FILE "12 - The Girl I Love.wav" WAVE
    INDEX 01 00:00:00
  TRACK 13 AUDIO
    TITLE "Someone to Watch over Me"
    PERFORMER "Michael Feinstein"
    INDEX 00 04:33:08
FILE "13 - Someone to Watch over Me.wav" WAVE
    INDEX 01 00:00:00
Код:
[CUETools log; Date: 31.12.2019 15:53:16; Version: 2.1.6]
Pregap length 00:00:32.
[CTDB TOCID: JWPeq8Tv4iRSyqO_b5nYUjgYAkQ-] found.
Track | CTDB Status
  1   | (22/24) Accurately ripped, or (1/24) differs in 37 samples @00:34:09,00:35:12
  2   | (22/24) Accurately ripped
  3   | (23/24) Accurately ripped
  4   | (24/24) Accurately ripped
  5   | (24/24) Accurately ripped
  6   | (24/24) Accurately ripped
  7   | (23/24) Accurately ripped
  8   | (18/24) Accurately ripped
  9   | (23/24) Accurately ripped
 10   | (22/24) Accurately ripped
 11   | (21/24) Accurately ripped
 12   | (22/24) Accurately ripped
 13   | (21/24) Accurately ripped
[AccurateRip ID: 001ae7c3-010dd8cc-b20d2b0d] found.
Track   [  CRC   |   V2   ] Status
 01     [313efb37|7b3018d6] (00+00/36) No match
 02     [cafbf35f|fbc1f0a4] (00+00/37) No match
 03     [637020ef|96fe8204] (00+00/36) No match
 04     [d3627b41|b4da8592] (00+00/36) No match
 05     [e0f856e1|9d5511e3] (00+00/37) No match
 06     [969c012e|c05eb3a7] (00+00/36) No match
 07     [d2699e4a|b412136d] (00+00/36) No match
 08     [59e07246|2eb12c31] (00+00/34) No match
 09     [81cc1c44|249edf20] (00+00/36) No match
 10     [f709daa3|c5dd6e11] (00+00/36) No match
 11     [19e8e03e|2ffdf32f] (00+00/36) No match
 12     [81898efd|a5c25ef7] (00+00/36) No match
 13     [6fb6383c|47c97b26] (00+00/34) No match
Offsetted by -123:
 01     [481ad0c9] (04/36) Accurately ripped
 02     [970e6846] (04/37) Accurately ripped
 03     [78380042] (04/36) Accurately ripped
 04     [54ea77c5] (04/36) Accurately ripped
 05     [1c55af31] (04/37) Accurately ripped
 06     [c7746a85] (04/36) Accurately ripped
 07     [aee915f6] (04/36) Accurately ripped
 08     [e53d1065] (04/34) Accurately ripped
 09     [cda7180e] (04/36) Accurately ripped
 10     [8833fd66] (04/36) Accurately ripped
 11     [bf64d287] (04/36) Accurately ripped
 12     [3fe82071] (04/36) Accurately ripped
 13     [1d776505] (04/34) Accurately ripped
Offsetted by 901:
 01     [645678c9] (05/36) Accurately ripped
 02     [d2d05446] (05/37) Accurately ripped
 03     [d7b3dc42] (05/36) Accurately ripped
 04     [24c947c5] (05/36) Accurately ripped
 05     [f3d5ef31] (05/37) Accurately ripped
 06     [370d1685] (05/36) Accurately ripped
 07     [bf9405f6] (05/36) Accurately ripped
 08     [9b765c65] (05/34) Accurately ripped
 09     [98be200e] (05/36) Accurately ripped
 10     [e6929966] (05/36) Accurately ripped
 11     [0c88a687] (05/36) Accurately ripped
 12     [06b7b071] (05/36) Accurately ripped
 13     [32fd5dd1] (05/34) Accurately ripped
Offsetted by 17:
 01     [aaf6f8c1] (02/36) Accurately ripped
 02     [3a39eb8a] (02/37) Accurately ripped
 03     [8c45ef56] (02/36) Accurately ripped
 04     [5755ee35] (02/36) Accurately ripped
 05     [0ccc37f1] (02/37) Accurately ripped
 06     [25b64a09] (02/36) Accurately ripped
 07     [073074c6] (02/36) Accurately ripped
 08     [2126e5c9] (02/34) Accurately ripped
 09     [606b3e26] (02/36) Accurately ripped
 10     [b31aecba] (02/36) Accurately ripped
 11     [66f0b883] (02/36) Accurately ripped
 12     [4a168121] (02/36) Accurately ripped
 13     [8948972c] (00/34) No match (V2 was not tested)
Offsetted by 299:
 01     [bb3d6685] (00/36) No match (V2 was not tested)
 02     [152ed308] (00/37) No match (V2 was not tested)
 03     [9b118b6c] (00/36) No match (V2 was not tested)
 04     [4d94ca7d] (00/36) No match (V2 was not tested)
 05     [b6a50991] (00/37) No match (V2 was not tested)
 06     [d4f1d567] (00/36) No match (V2 was not tested)
 07     [90c787de] (00/36) No match (V2 was not tested)
 08     [19d5ad37] (00/34) No match (V2 was not tested)
 09     [54d915da] (00/36) No match (V2 was not tested)
 10     [2e17fab0] (00/36) No match (V2 was not tested)
 11     [55af1665] (00/36) No match (V2 was not tested)
 12     [c156aa49] (00/36) No match (V2 was not tested)
 13     [7a02c60a] (00/34) No match (V2 was not tested)
Offsetted by 1664:
 01     [7f1fec37] (00/36) No match
 02     [cc1712df] (00/37) No match
 03     [1e99666f] (00/36) No match
 04     [652c8d41] (00/36) No match
 05     [df28bee1] (00/37) No match
 06     [6bf418ae] (00/36) No match
 07     [2d7f644a] (00/36) No match
 08     [21fd8dc6] (00/34) No match
 09     [ebd18944] (03/36) Accurately ripped
 10     [d0639823] (03/36) Accurately ripped
 11     [f74318be] (03/36) Accurately ripped
 12     [e49ad8fd] (03/36) Accurately ripped
 13     [23f839cd] (02/34) Accurately ripped
Offsetted by 1700:
 01     [bd1e051f] (03/36) Accurately ripped
 02     [3f30e42b] (03/37) Accurately ripped
 03     [56f4c12b] (03/36) Accurately ripped
 04     [5e7b6291] (03/36) Accurately ripped
 05     [ffbc4121] (03/37) Accurately ripped
 06     [7ce076ba] (03/36) Accurately ripped
 07     [701566ba] (03/36) Accurately ripped
 08     [31659172] (00/34) No match (V2 was not tested)
 09     [77f5588c] (00/36) No match
 10     [6db4eb9f] (00/36) No match
 11     [30f95b32] (00/36) No match
 12     [d898250d] (00/36) No match
 13     [e831ca7f] (00/34) No match
Track Peak [ CRC32  ] [W/O NULL] [  LOG   ]
 --   93,3 [D51AD3FD] [2F241F63]
 01   60,5 [A4242E0C] [A13B7271]   CRC32
 02   62,6 [4C2FFAC6] [A98C4738]   CRC32
 03   55,4 [681F5384] [BE34AD90]   CRC32
 04   90,5 [63C016D6] [AB1F9A61]   CRC32
 05   85,8 [D182E8AA] [062F7757]   CRC32
 06   56,0 [0DBBB889] [439571B9]   CRC32
 07   93,3 [8AF8DF28] [34CB03A3]   CRC32
 08   75,8 [DE4389E9] [45159625]   CRC32
 09   72,8 [A7FC4661] [B209E42A]   CRC32
 10   68,8 [4578CC34] [3A5F0CD5]   CRC32
 11   80,4 [9A52400C] [F76F1E89]   CRC32
 12   82,5 [C3D599B7] [71ADC254]   CRC32
 13   93,3 [FB3F05EC] [FDA4C733]   CRC32
Pure delight. Feinstein's reading of other composers is very, very good, but his feeling for Gershwin (as might be expected from a man who worked with Ira Gershwin for years) is near perfect. Feinstein's piano playing is excellent here, and he relishes every syllable of the words. 'S wonderful.
Правила, инструкции, FAQ!!!
Торрент  Добавлен [05 янв 2020, 15:25] Скачать торрент Магнет ссылка
Скачать торрент
[ Размер 20.85 КБ / Просмотров 5 ]

Статус
Проверен 
 
Размер  245.92 МБ
Приватный: Нет (DHT включён)
.torrent скачан  0
 


     Отправить личное сообщение
   
Страница 1 из 1
Показать сообщения за:  Поле сортировки  
Начать новую тему Ответить на тему


Сейчас этот форум просматривают: нет зарегистрированных пользователей и гости: 0


Вы не можете начинать темы
Вы не можете отвечать на сообщения
Вы не можете редактировать свои сообщения
Вы не можете удалять свои сообщения
Вы не можете добавлять вложения

Перейти:  
cron