Начать новую тему Ответить на тему
Статистика раздачи
Размер: 304.87 МБ | Добавлен: 05 янв 2020, 15:24 | Скачали: 0
Сидеров: 0  [0 байт/сек]    Личеров: 0  [0 байт/сек]
Пред. тема | След. тема 

Автор
Сообщение

СообщениеДобавлено: 05 янв 2020, 15:24 

Ответить с цитатой 

Michael Feinstein - Nice Work If You Can Get It: Songs by the Gershwins
Жанр: Vocal Jazz
Носитель: CDR
Страна-производитель диска (релиза): США
Год издания: 1996
Издатель (лейбл): Atlantic
Номер по каталогу: 82833-2
Аудиокодек: FLAC (*.flac)
Тип рипа: tracks+.cue
Продолжительность: 00:57:17
Источник: catfish27
Наличие сканов в содержимом раздачи: нет
Треклист:
01. Who Cares? (3:40)
02. Ask Me Again (3:19)
03. Anything for You (2:45)
04. Someone to Watch over Me (5:00)
05. Luckiest Man in the World (4:40)
06. Fascinating Rhythm: Some Wonderful Sort of Someone/I Got Rhythm (7:32)
07. Will You Remember Me? (2:51)
08. Nice Work If You Can Get It (3:14)
09. Somebody Stole My Heart Away (4:52)
10. A Foggy Day (In London Town)/Things Are Looking Up (6:26)
11. Love Is in the Air (3:30)
12. They Can't Take That Away from Me (5:32)
13. For You, for Me, Forevermore (3:56)
Код:
X Lossless Decoder version 20181019 (151.1)
XLD extraction logfile from 2019-05-21 18:29:49 -0700
Michael Feinstein / Nice Work If You Can Get It
Used drive : MATSHITA DVD/CDRW UJDA770 (revision 1.40)
Media type : CD-Recordable
Ripper mode             : XLD Secure Ripper
Disable audio cache     : OK for the drive with a cache less than 1375KiB
Make use of C2 pointers : NO
Read offset correction  : 102
Max retry count         : 100
Gap status              : Analyzed, Appended (except HTOA)
TOC of the extracted CD
     Track |   Start  |  Length  | Start sector | End sector
    ---------------------------------------------------------
        1  | 00:00:32 | 03:40:05 |        32    |    16536
        2  | 03:40:37 | 03:19:20 |     16537    |    31481
        3  | 06:59:57 | 02:45:05 |     31482    |    43861
        4  | 09:44:62 | 05:00:10 |     43862    |    66371
        5  | 14:44:72 | 04:40:03 |     66372    |    87374
        6  | 19:25:00 | 07:31:47 |     87375    |   121246
        7  | 26:56:47 | 02:50:65 |    121247    |   134061
        8  | 29:47:37 | 03:13:70 |    134062    |   148606
        9  | 33:01:32 | 04:52:05 |    148607    |   170511
       10  | 37:53:37 | 06:25:43 |    170512    |   199429
       11  | 44:19:05 | 03:30:37 |    199430    |   215216
       12  | 47:49:42 | 05:32:00 |    215217    |   240116
       13  | 53:21:42 | 03:55:58 |    240117    |   257799
List of alternate offset correction values
        #  | Absolute | Relative | Confidence
    ------------------------------------------
        1  |  -1510   |  -1612   |      2
        2  |  -1430   |  -1532   |      2
AccurateRip Summary (DiscID: 001a702c-010d0315-be0d6d0d)
    Track 01 : OK (v1+v2, confidence 29/33)
    Track 02 : OK (v1+v2, confidence 30/34)
    Track 03 : OK (v1+v2, confidence 29/33)
    Track 04 : OK (v1+v2, confidence 31/35)
    Track 05 : OK (v1+v2, confidence 30/32)
    Track 06 : OK (v1+v2, confidence 31/35)
    Track 07 : OK (v1+v2, confidence 30/34)
    Track 08 : OK (v1+v2, confidence 31/35)
    Track 09 : OK (v1+v2, confidence 29/33)
    Track 10 : OK (v1+v2, confidence 30/34)
    Track 11 : OK (v1+v2, confidence 30/34)
    Track 12 : OK (v1+v2, confidence 28/32)
    Track 13 : OK (v1+v2, confidence 28/32)
        ->All tracks accurately ripped.
All Tracks
    Album gain               : -3.41 dB
    Peak                     : 0.946625
    Statistics
        Read error                           : 0
        Jitter error (maybe fixed)           : 0
        Retry sector count                   : 0
        Damaged sector count                 : 0
Track 01
    Filename : /Volumes/Hollywood and Vine/Rips/Michael Feinstein - Nice Work If You Can Get It (1996) [FLAC]/01 Who Cares_.flac
    Pre-gap length : 00:02:32
    Track gain               : -4.22 dB
    Peak                     : 0.946625
    CRC32 hash (test run)    : 5933B502
    CRC32 hash               : 5933B502
    CRC32 hash (skip zero)   : DF400281
    AccurateRip v1 signature : 9D57DF26
    AccurateRip v2 signature : 0086AD61
        ->Accurately ripped (v1+v2, confidence 15+14/33)
    Statistics
        Read error                           : 0
        Jitter error (maybe fixed)           : 0
        Retry sector count                   : 0
        Damaged sector count                 : 0
Track 02
    Filename : /Volumes/Hollywood and Vine/Rips/Michael Feinstein - Nice Work If You Can Get It (1996) [FLAC]/02 Ask Me Again.flac
    Track gain               : -3.71 dB
    Peak                     : 0.929749
    CRC32 hash (test run)    : 05F28C6A
    CRC32 hash               : 05F28C6A
    CRC32 hash (skip zero)   : 70510FF7
    AccurateRip v1 signature : AFB49EAD
    AccurateRip v2 signature : 0786733B
        ->Accurately ripped (v1+v2, confidence 15+15/34)
    Statistics
        Read error                           : 0
        Jitter error (maybe fixed)           : 0
        Retry sector count                   : 0
        Damaged sector count                 : 0
Track 03
    Filename : /Volumes/Hollywood and Vine/Rips/Michael Feinstein - Nice Work If You Can Get It (1996) [FLAC]/03 Anything for You.flac
    Track gain               : -3.74 dB
    Peak                     : 0.933960
    CRC32 hash (test run)    : 4F86353F
    CRC32 hash               : 4F86353F
    CRC32 hash (skip zero)   : 53578A74
    AccurateRip v1 signature : 8D6177CB
    AccurateRip v2 signature : D820E2E5
        ->Accurately ripped (v1+v2, confidence 15+14/33)
    Statistics
        Read error                           : 0
        Jitter error (maybe fixed)           : 0
        Retry sector count                   : 0
        Damaged sector count                 : 0
Track 04
    Filename : /Volumes/Hollywood and Vine/Rips/Michael Feinstein - Nice Work If You Can Get It (1996) [FLAC]/04 Someone to Watch Over Me.flac
    Track gain               : -0.83 dB
    Peak                     : 0.886017
    CRC32 hash (test run)    : 905081F8
    CRC32 hash               : 905081F8
    CRC32 hash (skip zero)   : 07CB05E7
    AccurateRip v1 signature : 992E05BC
    AccurateRip v2 signature : E7906F1F
        ->Accurately ripped (v1+v2, confidence 15+16/35)
    Statistics
        Read error                           : 0
        Jitter error (maybe fixed)           : 0
        Retry sector count                   : 0
        Damaged sector count                 : 0
Track 05
    Filename : /Volumes/Hollywood and Vine/Rips/Michael Feinstein - Nice Work If You Can Get It (1996) [FLAC]/05 Luckiest Man in the World.flac
    Track gain               : -3.12 dB
    Peak                     : 0.924042
    CRC32 hash (test run)    : EA8F8C19
    CRC32 hash               : EA8F8C19
    CRC32 hash (skip zero)   : 28452C2F
    AccurateRip v1 signature : D61F7AAD
    AccurateRip v2 signature : D9C7C3CB
        ->Accurately ripped (v1+v2, confidence 15+15/32)
    Statistics
        Read error                           : 0
        Jitter error (maybe fixed)           : 0
        Retry sector count                   : 0
        Damaged sector count                 : 0
Track 06
    Filename : /Volumes/Hollywood and Vine/Rips/Michael Feinstein - Nice Work If You Can Get It (1996) [FLAC]/06 Fascinating RhythmпјЏSome Wonderful Sort of SomeoneпјЏI Got Rhythm.flac
    Track gain               : -6.08 dB
    Peak                     : 0.926056
    CRC32 hash (test run)    : B26490C4
    CRC32 hash               : B26490C4
    CRC32 hash (skip zero)   : EE19EF31
    AccurateRip v1 signature : 9BF14E9B
    AccurateRip v2 signature : 2CA08336
        ->Accurately ripped (v1+v2, confidence 15+16/35)
    Statistics
        Read error                           : 0
        Jitter error (maybe fixed)           : 0
        Retry sector count                   : 0
        Damaged sector count                 : 0
Track 07
    Filename : /Volumes/Hollywood and Vine/Rips/Michael Feinstein - Nice Work If You Can Get It (1996) [FLAC]/07 Will You Remember Me_.flac
    Track gain               : 0.20 dB
    Peak                     : 0.918060
    CRC32 hash (test run)    : 7772434B
    CRC32 hash               : 7772434B
    CRC32 hash (skip zero)   : 198A8A8E
    AccurateRip v1 signature : A92C214E
    AccurateRip v2 signature : D9A0BECB
        ->Accurately ripped (v1+v2, confidence 15+15/34)
    Statistics
        Read error                           : 0
        Jitter error (maybe fixed)           : 0
        Retry sector count                   : 0
        Damaged sector count                 : 0
Track 08
    Filename : /Volumes/Hollywood and Vine/Rips/Michael Feinstein - Nice Work If You Can Get It (1996) [FLAC]/08 Nice Work If You Can Get It.flac
    Track gain               : -6.11 dB
    Peak                     : 0.938141
    CRC32 hash (test run)    : 9565F81B
    CRC32 hash               : 9565F81B
    CRC32 hash (skip zero)   : 9F325E2C
    AccurateRip v1 signature : E50D3658
    AccurateRip v2 signature : 3CBE26D4
        ->Accurately ripped (v1+v2, confidence 15+16/35)
    Statistics
        Read error                           : 0
        Jitter error (maybe fixed)           : 0
        Retry sector count                   : 0
        Damaged sector count                 : 0
Track 09
    Filename : /Volumes/Hollywood and Vine/Rips/Michael Feinstein - Nice Work If You Can Get It (1996) [FLAC]/09 Somebody Stole My Heart Away.flac
    Track gain               : -1.37 dB
    Peak                     : 0.927856
    CRC32 hash (test run)    : 7BFDD5A7
    CRC32 hash               : 7BFDD5A7
    CRC32 hash (skip zero)   : 1456593E
    AccurateRip v1 signature : AB521B21
    AccurateRip v2 signature : 3E4BFD6B
        ->Accurately ripped (v1+v2, confidence 14+15/33)
    Statistics
        Read error                           : 0
        Jitter error (maybe fixed)           : 0
        Retry sector count                   : 0
        Damaged sector count                 : 0
Track 10
    Filename : /Volumes/Hollywood and Vine/Rips/Michael Feinstein - Nice Work If You Can Get It (1996) [FLAC]/10 A Foggy Day (In London Town)пјЏThings Are Looking Up.flac
    Track gain               : -2.37 dB
    Peak                     : 0.916138
    CRC32 hash (test run)    : 2ADF4057
    CRC32 hash               : 2ADF4057
    CRC32 hash (skip zero)   : 91857C1F
    AccurateRip v1 signature : 97BC1412
    AccurateRip v2 signature : 2F9F5E93
        ->Accurately ripped (v1+v2, confidence 15+15/34)
    Statistics
        Read error                           : 0
        Jitter error (maybe fixed)           : 0
        Retry sector count                   : 0
        Damaged sector count                 : 0
Track 11
    Filename : /Volumes/Hollywood and Vine/Rips/Michael Feinstein - Nice Work If You Can Get It (1996) [FLAC]/11 Love Is in the Air.flac
    Track gain               : -0.86 dB
    Peak                     : 0.899353
    CRC32 hash (test run)    : 0625B3B0
    CRC32 hash               : 0625B3B0
    CRC32 hash (skip zero)   : C796879E
    AccurateRip v1 signature : 20D6E59B
    AccurateRip v2 signature : AF51E893
        ->Accurately ripped (v1+v2, confidence 15+15/34)
    Statistics
        Read error                           : 0
        Jitter error (maybe fixed)           : 0
        Retry sector count                   : 0
        Damaged sector count                 : 0
Track 12
    Filename : /Volumes/Hollywood and Vine/Rips/Michael Feinstein - Nice Work If You Can Get It (1996) [FLAC]/12 They Can't Take That Away from Me.flac
    Track gain               : -2.29 dB
    Peak                     : 0.924469
    CRC32 hash (test run)    : 3F5A57B3
    CRC32 hash               : 3F5A57B3
    CRC32 hash (skip zero)   : 8256E93B
    AccurateRip v1 signature : 20188187
    AccurateRip v2 signature : 729DC2D5
        ->Accurately ripped (v1+v2, confidence 14+14/32)
    Statistics
        Read error                           : 0
        Jitter error (maybe fixed)           : 0
        Retry sector count                   : 0
        Damaged sector count                 : 0
Track 13
    Filename : /Volumes/Hollywood and Vine/Rips/Michael Feinstein - Nice Work If You Can Get It (1996) [FLAC]/13 For You, for Me, Forevermore.flac
    Track gain               : -1.64 dB
    Peak                     : 0.913452
    CRC32 hash (test run)    : 8EA6AFAA
    CRC32 hash               : 8EA6AFAA
    CRC32 hash (skip zero)   : 716B9F8E
    AccurateRip v1 signature : 92D08AC1
    AccurateRip v2 signature : BBAC08E6
        ->Accurately ripped (v1+v2, confidence 13+15/32)
    Statistics
        Read error                           : 0
        Jitter error (maybe fixed)           : 0
        Retry sector count                   : 0
        Damaged sector count                 : 0
No errors occurred
End of status report
-----BEGIN XLD SIGNATURE-----
tarYtIHvkAioyawM2ug4M1QojCcHNuyvlPiPSeGzsHckv8u1RjhCgOStUynyhtBXZUA04nORWExgOb1IodT16f9GHzSwNdV3ykkaMwi
-----END XLD SIGNATURE-----
Код:
TITLE "Nice Work If You Can Get It: Songs by the Gershwins"
PERFORMER "Michael Feinstein"
REM GENRE "Jazz"
REM DATE "1996"
REM DISCID BE0D6D0D
REM REPLAYGAIN_ALBUM_GAIN -3.41 dB
REM REPLAYGAIN_ALBUM_PEAK 0.946625
FILE "01 - Who Cares.flac" WAVE
  TRACK 01 AUDIO
    TITLE "Who Cares?"
    REM REPLAYGAIN_TRACK_GAIN -4.22 dB
    REM REPLAYGAIN_TRACK_PEAK 0.946625
    PREGAP 00:00:32
    INDEX 01 00:00:00
FILE "02 - Ask Me Again.flac" WAVE
  TRACK 02 AUDIO
    TITLE "Ask Me Again"
    REM REPLAYGAIN_TRACK_GAIN -3.71 dB
    REM REPLAYGAIN_TRACK_PEAK 0.929749
    INDEX 01 00:00:00
FILE "03 - Anything for You.flac" WAVE
  TRACK 03 AUDIO
    TITLE "Anything for You"
    REM REPLAYGAIN_TRACK_GAIN -3.74 dB
    REM REPLAYGAIN_TRACK_PEAK 0.933960
    INDEX 01 00:00:00
FILE "04 - Someone to Watch over Me.flac" WAVE
  TRACK 04 AUDIO
    TITLE "Someone to Watch over Me"
    REM REPLAYGAIN_TRACK_GAIN -0.83 dB
    REM REPLAYGAIN_TRACK_PEAK 0.886017
    INDEX 01 00:00:00
FILE "05 - Luckiest Man in the World.flac" WAVE
  TRACK 05 AUDIO
    TITLE "Luckiest Man in the World"
    REM REPLAYGAIN_TRACK_GAIN -3.12 dB
    REM REPLAYGAIN_TRACK_PEAK 0.924042
    INDEX 01 00:00:00
FILE "06 - Fascinating Rhythm- Some Wonderful Sort of Someone,I Got Rhythm.flac" WAVE
  TRACK 06 AUDIO
    TITLE "Fascinating Rhythm: Some Wonderful Sort of Someone/I Got Rhythm"
    REM REPLAYGAIN_TRACK_GAIN -6.08 dB
    REM REPLAYGAIN_TRACK_PEAK 0.926056
    INDEX 01 00:00:00
FILE "07 - Will You Remember Me.flac" WAVE
  TRACK 07 AUDIO
    TITLE "Will You Remember Me?"
    REM REPLAYGAIN_TRACK_GAIN 0.20 dB
    REM REPLAYGAIN_TRACK_PEAK 0.918060
    INDEX 01 00:00:00
FILE "08 - Nice Work If You Can Get It.flac" WAVE
  TRACK 08 AUDIO
    TITLE "Nice Work If You Can Get It"
    REM REPLAYGAIN_TRACK_GAIN -6.11 dB
    REM REPLAYGAIN_TRACK_PEAK 0.938141
    INDEX 01 00:00:00
FILE "09 - Somebody Stole My Heart Away.flac" WAVE
  TRACK 09 AUDIO
    TITLE "Somebody Stole My Heart Away"
    REM REPLAYGAIN_TRACK_GAIN -1.37 dB
    REM REPLAYGAIN_TRACK_PEAK 0.927856
    INDEX 01 00:00:00
FILE "10 - A Foggy Day (In London Town),Things Are Looking Up.flac" WAVE
  TRACK 10 AUDIO
    TITLE "A Foggy Day (In London Town)/Things Are Looking Up"
    REM REPLAYGAIN_TRACK_GAIN -2.37 dB
    REM REPLAYGAIN_TRACK_PEAK 0.916138
    INDEX 01 00:00:00
FILE "11 - Love Is in the Air.flac" WAVE
  TRACK 11 AUDIO
    TITLE "Love Is in the Air"
    REM REPLAYGAIN_TRACK_GAIN -0.86 dB
    REM REPLAYGAIN_TRACK_PEAK 0.899353
    INDEX 01 00:00:00
FILE "12 - They Can't Take That Away from Me.flac" WAVE
  TRACK 12 AUDIO
    TITLE "They Can't Take That Away from Me"
    REM REPLAYGAIN_TRACK_GAIN -2.29 dB
    REM REPLAYGAIN_TRACK_PEAK 0.924469
    INDEX 01 00:00:00
FILE "13 - For You, for Me, Forevermore.flac" WAVE
  TRACK 13 AUDIO
    TITLE "For You, for Me, Forevermore"
    REM REPLAYGAIN_TRACK_GAIN -1.64 dB
    REM REPLAYGAIN_TRACK_PEAK 0.913452
    INDEX 01 00:00:00
Код:
[CUETools log; Date: 29.12.2019 1:45:49; Version: 2.1.6]
Pregap length 00:00:32.
[CTDB TOCID: IlbY5oBlRIHEDu_hZmwkqWDxGO0-] found.
Track | CTDB Status
  1   | (32/32) Accurately ripped
  2   | (32/32) Accurately ripped
  3   | (32/32) Accurately ripped
  4   | (32/32) Accurately ripped
  5   | (32/32) Accurately ripped
  6   | (32/32) Accurately ripped
  7   | (32/32) Accurately ripped
  8   | (32/32) Accurately ripped
  9   | (32/32) Accurately ripped
 10   | (32/32) Accurately ripped
 11   | (32/32) Accurately ripped
 12   | (32/32) Accurately ripped
 13   | (31/32) Accurately ripped
[AccurateRip ID: 001a702c-010d0315-be0d6d0d] found.
Track   [  CRC   |   V2   ] Status
 01     [9d57df26|0086ad61] (15+14/34) Accurately ripped
 02     [afb49ead|0786733b] (15+15/35) Accurately ripped
 03     [8d6177cb|d820e2e5] (15+14/34) Accurately ripped
 04     [992e05bc|e7906f1f] (15+16/36) Accurately ripped
 05     [d61f7aad|d9c7c3cb] (15+15/33) Accurately ripped
 06     [9bf14e9b|2ca08336] (15+16/36) Accurately ripped
 07     [a92c214e|d9a0becb] (15+15/35) Accurately ripped
 08     [e50d3658|3cbe26d4] (15+16/36) Accurately ripped
 09     [ab521b21|3e4bfd6b] (14+15/34) Accurately ripped
 10     [97bc1412|2f9f5e93] (15+15/35) Accurately ripped
 11     [20d6e59b|af51e893] (15+15/35) Accurately ripped
 12     [20188187|729dc2d5] (14+14/33) Accurately ripped
 13     [92d08ac1|bbac08e6] (13+15/33) Accurately ripped
Offsetted by -1612:
 01     [3094ebee] (00/34) No match (V2 was not tested)
 02     [1cf29f89] (00/35) No match (V2 was not tested)
 03     [f02c3873] (00/34) No match (V2 was not tested)
 04     [265e37bc] (00/36) No match (V2 was not tested)
 05     [a99efb31] (00/33) No match (V2 was not tested)
 06     [e202e1c7] (00/36) No match (V2 was not tested)
 07     [e1e56352] (00/35) No match (V2 was not tested)
 08     [c5e16774] (00/36) No match (V2 was not tested)
 09     [8b513c41] (00/34) No match (V2 was not tested)
 10     [df353b62] (00/35) No match (V2 was not tested)
 11     [671f9d0b] (00/35) No match (V2 was not tested)
 12     [8ee8db13] (00/33) No match (V2 was not tested)
 13     [f6f22121] (00/33) No match (V2 was not tested)
Offsetted by -1532:
 01     [5fe7a60e] (00/34) No match (V2 was not tested)
 02     [c44f7779] (00/35) No match (V2 was not tested)
 03     [c1fac613] (00/34) No match (V2 was not tested)
 04     [0920bfbc] (00/36) No match (V2 was not tested)
 05     [8a297cc1] (00/33) No match (V2 was not tested)
 06     [3f16f8f7] (00/36) No match (V2 was not tested)
 07     [df14bae2] (00/35) No match (V2 was not tested)
 08     [d239f864] (00/36) No match (V2 was not tested)
 09     [ffe21cc1] (00/34) No match (V2 was not tested)
 10     [20442ea2] (00/35) No match (V2 was not tested)
 11     [db0f4ccb] (00/35) No match (V2 was not tested)
 12     [55f4bfc3] (00/33) No match (V2 was not tested)
 13     [4f5b2ea1] (00/33) No match (V2 was not tested)
Track Peak [ CRC32  ] [W/O NULL]
 --   94,6 [BAFBE444] [4295E6E8]
 01   94,6 [5933B502] [DF400281]
 02   92,9 [05F28C6A] [70510FF7]
 03   93,3 [4F86353F] [53578A74]
 04   88,6 [905081F8] [07CB05E7]
 05   92,4 [EA8F8C19] [28452C2F]
 06   92,6 [B26490C4] [EE19EF31]
 07   91,8 [7772434B] [198A8A8E]
 08   93,8 [9565F81B] [9F325E2C]
 09   92,7 [7BFDD5A7] [1456593E]
 10   91,6 [2ADF4057] [91857C1F]
 11   89,9 [0625B3B0] [C796879E]
 12   92,4 [3F5A57B3] [8256E93B]
 13   91,3 [8EA6AFAA] [716B9F8E]
Nice Work If You Can Get It: Songs by the Gershwins is Michael Feinstein's second all-Gershwin album. His first, Pure Gershwin, was his best record, probably because, as a former secretary to Ira Gershwin, he knew his way around the material. This time, Feinstein puts his extensive knowledge of the Gershwin catalogue to good use, unearthing lost songs -- "Anything for You" and "Will You Remember Me?" are given their first-ever recordings -- resurrecting original arrangements, and singing rarely used lyrics to favorites like "Someone to Watch over Me." The album's tour de force is the seven-and-a-half-minute "Fascinating Rhythm (Medley)," which travels through time to trace the development of the song and its subsequent versions in successive musical styles. The effect is to demonstrate both the timelessness and the endless versatility of George Gershwin's music. All of this is far more elaborate than the piano accompaniment on Pure Gershwin, and Feinstein has developed enough as a singer to keep up. The man has the heart of a research assistant, but few history lessons are this much fun.
Правила, инструкции, FAQ!!!
Торрент  Добавлен [05 янв 2020, 15:24] Скачать торрент Магнет ссылка
Скачать торрент
[ Размер 13.8 КБ / Просмотров 4 ]

Статус
Проверен 
 
Размер  304.87 МБ
Приватный: Нет (DHT включён)
.torrent скачан  0
 


     Отправить личное сообщение
   
Страница 1 из 1
Показать сообщения за:  Поле сортировки  
Начать новую тему Ответить на тему


Сейчас этот форум просматривают: нет зарегистрированных пользователей и гости: 0


Вы не можете начинать темы
Вы не можете отвечать на сообщения
Вы не можете редактировать свои сообщения
Вы не можете удалять свои сообщения
Вы не можете добавлять вложения

Перейти:  
cron
cron