Начать новую тему Ответить на тему
Статистика раздачи
Размер: 299.85 МБ | Добавлен: 05 янв 2020, 15:24 | Скачали: 0
Сидеров: 0  [0 байт/сек]    Личеров: 0  [0 байт/сек]
Пред. тема | След. тема 

Автор
Сообщение

СообщениеДобавлено: 05 янв 2020, 15:24 

Ответить с цитатой 

Michael Feinstein & Jerry Herman - Michael Feinstein Sings the Jerry Herman Songbook
Жанр: Vocal Jazz
Носитель: CD
Страна-производитель диска (релиза): США
Год издания: 1993
Издатель (лейбл): Elektra Nonesuch
Номер по каталогу: 9 79315-2
Аудиокодек: FLAC (*.flac)
Тип рипа: tracks+.cue
Продолжительность: 00:58:46
Источник: Napaskiak
Наличие сканов в содержимом раздачи: нет
Треклист:
01. Just Go to the Movies (3:34)
02. As Simple as That (3:13)
03. Put on Your Sunday Clothes (1:10)
04. It Only Takes a Moment (1:34)
05. Before the Parade Passes By (2:02)
06. Penny in My Pocket (3:23)
07. Kiss Her Now (3:05)
08. With You on My Arm (2:19)
09. Marianne (3:02)
10. Mame (3:52)
11. Dancing (2:30)
12. Let's Not Waste a Moment (4:14)
13. Loving You (3:18)
14. Look Over There (2:26)
15. To Be Alone with You (3:51)
16. It's Today (1:01)
17. If She Walked into My Life (3:15)
18. We Need a Little Christmas (1:09)
19. It's Today (Reprise) (0:36)
20. I Won't Send Roses (3:06)
21. Hello, Dolly! (3:21)
22. You I Like (2:45)
Код:
Exact Audio Copy V1.3 from 2. September 2016
EAC extraction logfile from 6. November 2019, 12:14
Michael Feinstein / Michael Feinstein Sings the Jerry Herman Songbook
Used drive  : ASUS    DRW-2014L1T   Adapter: 1  ID: 0
Read mode               : Secure
Utilize accurate stream : Yes
Defeat audio cache      : Yes
Make use of C2 pointers : No
Read offset correction                      : 6
Overread into Lead-In and Lead-Out          : No
Fill up missing offset samples with silence : Yes
Delete leading and trailing silent blocks   : No
Null samples used in CRC calculations       : Yes
Used interface                              : Native Win32 interface for Win NT & 2000
Gap handling                                : Appended to previous track
Used output format              : User Defined Encoder
Selected bitrate                : 896 kBit/s
Quality                         : High
Add ID3 tag                     : No
Command line compressor         : D:\JKM\Codecs\flac-1.3.3-x64\flac.exe
Additional command line options : -8 -V -T "ARTIST=%artist%" -T "TITLE=%title%" -T "ALBUM=%albumtitle%" -T "DATE=%year%" -T "TRACKNUMBER=%tracknr%" -T "GENRE=%genre%" -T "COMMENT=%comment%" -T "BAND=%albuminterpret%" -T "ALBUMARTIST=%albuminterpret%" -T "COMPOSER=%composer%" %haslyrics%--tag-from-file=LYRICS="%lyricsfile%"%haslyrics% -T "DISCNUMBER=%cdnumber%" -T "TOTALDISCS=%totalcds%" -T "TOTALTRACKS=%numtracks%" %hascover%--picture="%coverfile%"%hascover% %source% -o %dest%
TOC of the extracted CD
     Track |   Start  |  Length  | Start sector | End sector
    ---------------------------------------------------------
        1  |  0:00.32 |  3:33.73 |        32    |    16079
        2  |  3:34.30 |  3:13.35 |     16080    |    30589
        3  |  6:47.65 |  1:10.00 |     30590    |    35839
        4  |  7:57.65 |  1:34.15 |     35840    |    42904
        5  |  9:32.05 |  2:01.40 |     42905    |    52019
        6  | 11:33.45 |  3:23.37 |     52020    |    67281
        7  | 14:57.07 |  3:04.50 |     67282    |    81131
        8  | 18:01.57 |  2:18.73 |     81132    |    91554
        9  | 20:20.55 |  3:01.55 |     91555    |   105184
       10  | 23:22.35 |  3:51.60 |    105185    |   122569
       11  | 27:14.20 |  2:29.72 |    122570    |   133816
       12  | 29:44.17 |  4:13.63 |    133817    |   152854
       13  | 33:58.05 |  3:17.52 |    152855    |   167681
       14  | 37:15.57 |  2:25.50 |    167682    |   178606
       15  | 39:41.32 |  3:50.58 |    178607    |   195914
       16  | 43:32.15 |  1:01.35 |    195915    |   200524
       17  | 44:33.50 |  3:15.07 |    200525    |   215156
       18  | 47:48.57 |  1:09.00 |    215157    |   220331
       19  | 48:57.57 |  0:36.08 |    220332    |   223039
       20  | 49:33.65 |  3:06.35 |    223040    |   237024
       21  | 52:40.25 |  3:20.62 |    237025    |   252086
       22  | 56:01.12 |  2:45.20 |    252087    |   264481
Track  1
     Filename D:\Michael Feinstein\Michael Feinstein Sings the Jerry Herman Songbook\01 - Just Go The Movies.wav
     Pre-gap length  0:00:02.32
     Peak level 93.3 %
     Extraction speed 5.4 X
     Track quality 100.0 %
     Test CRC EC5C44F1
     Copy CRC EC5C44F1
     Accurately ripped (confidence 10)  [18A87A36]  (AR v2)
     Copy OK
Track  2
     Filename D:\Michael Feinstein\Michael Feinstein Sings the Jerry Herman Songbook\02 - As Simple As That.wav
     Pre-gap length  0:00:01.32
     Peak level 93.1 %
     Extraction speed 5.7 X
     Track quality 100.0 %
     Test CRC 6FD6295C
     Copy CRC 6FD6295C
     Accurately ripped (confidence 9)  [BF164861]  (AR v2)
     Copy OK
Track  3
     Filename D:\Michael Feinstein\Michael Feinstein Sings the Jerry Herman Songbook\03 - Put On Your Sunday Clothes.wav
     Pre-gap length  0:00:02.12
     Peak level 92.9 %
     Extraction speed 4.6 X
     Track quality 100.0 %
     Test CRC 3334276E
     Copy CRC 3334276E
     Accurately ripped (confidence 9)  [30459679]  (AR v2)
     Copy OK
Track  4
     Filename D:\Michael Feinstein\Michael Feinstein Sings the Jerry Herman Songbook\04 - It Only Takes A Moment.wav
     Peak level 93.2 %
     Extraction speed 5.2 X
     Track quality 100.0 %
     Test CRC 9529DE50
     Copy CRC 9529DE50
     Accurately ripped (confidence 9)  [A3D1AC95]  (AR v2)
     Copy OK
Track  5
     Filename D:\Michael Feinstein\Michael Feinstein Sings the Jerry Herman Songbook\05 - Before The Parade Passes By.wav
     Peak level 94.3 %
     Extraction speed 5.7 X
     Track quality 100.0 %
     Test CRC 254B3686
     Copy CRC 254B3686
     Accurately ripped (confidence 8)  [E3DBA768]  (AR v2)
     Copy OK
Track  6
     Filename D:\Michael Feinstein\Michael Feinstein Sings the Jerry Herman Songbook\06 - Penny In My Pocket.wav
     Pre-gap length  0:00:00.52
     Peak level 93.3 %
     Extraction speed 5.0 X
     Track quality 99.9 %
     Test CRC CFF20CF8
     Copy CRC CFF20CF8
     Accurately ripped (confidence 8)  [B15AA998]  (AR v2)
     Copy OK
Track  7
     Filename D:\Michael Feinstein\Michael Feinstein Sings the Jerry Herman Songbook\07 - Kiss Her Now.wav
     Pre-gap length  0:00:01.34
     Peak level 93.1 %
     Extraction speed 5.7 X
     Track quality 100.0 %
     Test CRC 7523AF7B
     Copy CRC 7523AF7B
     Accurately ripped (confidence 8)  [3DEB806F]  (AR v2)
     Copy OK
Track  8
     Filename D:\Michael Feinstein\Michael Feinstein Sings the Jerry Herman Songbook\08 - With You On My Arm.wav
     Pre-gap length  0:00:01.67
     Peak level 93.1 %
     Extraction speed 5.8 X
     Track quality 100.0 %
     Test CRC C3BA2E6B
     Copy CRC C3BA2E6B
     Accurately ripped (confidence 8)  [83A4A244]  (AR v2)
     Copy OK
Track  9
     Filename D:\Michael Feinstein\Michael Feinstein Sings the Jerry Herman Songbook\09 - Marianne.wav
     Pre-gap length  0:00:00.42
     Peak level 93.1 %
     Extraction speed 6.3 X
     Track quality 100.0 %
     Test CRC 4B934AA1
     Copy CRC 4B934AA1
     Accurately ripped (confidence 8)  [4EE38A05]  (AR v2)
     Copy OK
Track 10
     Filename D:\Michael Feinstein\Michael Feinstein Sings the Jerry Herman Songbook\10 - Mame.wav
     Pre-gap length  0:00:00.15
     Peak level 92.9 %
     Extraction speed 6.9 X
     Track quality 100.0 %
     Test CRC E927A0C9
     Copy CRC E927A0C9
     Accurately ripped (confidence 8)  [4B7E80D0]  (AR v2)
     Copy OK
Track 11
     Filename D:\Michael Feinstein\Michael Feinstein Sings the Jerry Herman Songbook\11 - Dancing.wav
     Pre-gap length  0:00:00.57
     Peak level 93.1 %
     Extraction speed 6.6 X
     Track quality 100.0 %
     Test CRC 50EC2045
     Copy CRC 50EC2045
     Accurately ripped (confidence 8)  [BEA34BCF]  (AR v2)
     Copy OK
Track 12
     Filename D:\Michael Feinstein\Michael Feinstein Sings the Jerry Herman Songbook\12 - Let's Not Waste A Moment.wav
     Pre-gap length  0:00:01.34
     Peak level 92.9 %
     Extraction speed 7.4 X
     Track quality 100.0 %
     Test CRC F850647C
     Copy CRC F850647C
     Accurately ripped (confidence 8)  [A97662FE]  (AR v2)
     Copy OK
Track 13
     Filename D:\Michael Feinstein\Michael Feinstein Sings the Jerry Herman Songbook\13 - Loving You.wav
     Pre-gap length  0:00:00.55
     Peak level 92.7 %
     Extraction speed 7.3 X
     Track quality 100.0 %
     Test CRC 8D55E9AF
     Copy CRC 8D55E9AF
     Accurately ripped (confidence 8)  [368EA246]  (AR v2)
     Copy OK
Track 14
     Filename D:\Michael Feinstein\Michael Feinstein Sings the Jerry Herman Songbook\14 - Look Over There.wav
     Pre-gap length  0:00:00.42
     Peak level 93.3 %
     Extraction speed 7.1 X
     Track quality 100.0 %
     Test CRC EB06D401
     Copy CRC EB06D401
     Accurately ripped (confidence 8)  [20905245]  (AR v2)
     Copy OK
Track 15
     Filename D:\Michael Feinstein\Michael Feinstein Sings the Jerry Herman Songbook\15 - To Be Alone With You.wav
     Pre-gap length  0:00:00.29
     Peak level 92.5 %
     Extraction speed 7.9 X
     Track quality 100.0 %
     Test CRC 5E486467
     Copy CRC 5E486467
     Accurately ripped (confidence 8)  [8ACE524B]  (AR v2)
     Copy OK
Track 16
     Filename D:\Michael Feinstein\Michael Feinstein Sings the Jerry Herman Songbook\16 - It's Today.wav
     Pre-gap length  0:00:00.60
     Peak level 91.9 %
     Extraction speed 3.5 X
     Track quality 100.0 %
     Test CRC 975D238D
     Copy CRC 975D238D
     Accurately ripped (confidence 8)  [54C88B41]  (AR v2)
     Copy OK
Track 17
     Filename D:\Michael Feinstein\Michael Feinstein Sings the Jerry Herman Songbook\17 - If She Walked Into My Life.wav
     Peak level 92.3 %
     Extraction speed 9.3 X
     Track quality 100.0 %
     Test CRC 423269BA
     Copy CRC 423269BA
     Accurately ripped (confidence 9)  [B2CC525B]  (AR v2)
     Copy OK
Track 18
     Filename D:\Michael Feinstein\Michael Feinstein Sings the Jerry Herman Songbook\18 - We Need A Little Christmas.wav
     Peak level 93.1 %
     Extraction speed 7.2 X
     Track quality 100.0 %
     Test CRC 578E7F16
     Copy CRC 578E7F16
     Accurately ripped (confidence 8)  [B73128D3]  (AR v2)
     Copy OK
Track 19
     Filename D:\Michael Feinstein\Michael Feinstein Sings the Jerry Herman Songbook\19 - It's Today (reprise).wav
     Peak level 93.2 %
     Extraction speed 5.3 X
     Track quality 100.0 %
     Test CRC 83A598DC
     Copy CRC 83A598DC
     Accurately ripped (confidence 8)  [8FA3514D]  (AR v2)
     Copy OK
Track 20
     Filename D:\Michael Feinstein\Michael Feinstein Sings the Jerry Herman Songbook\20 - I Won't Send Roses.wav
     Pre-gap length  0:00:01.17
     Peak level 92.3 %
     Extraction speed 9.5 X
     Track quality 100.0 %
     Test CRC A20D5A4A
     Copy CRC A20D5A4A
     Accurately ripped (confidence 9)  [3F3E77A5]  (AR v2)
     Copy OK
Track 21
     Filename D:\Michael Feinstein\Michael Feinstein Sings the Jerry Herman Songbook\21 - Hello, Dolly!.wav
     Pre-gap length  0:00:01.02
     Peak level 92.6 %
     Extraction speed 7.3 X
     Track quality 99.9 %
     Test CRC 23988084
     Copy CRC 23988084
     Accurately ripped (confidence 8)  [E2DCD779]  (AR v2)
     Copy OK
Track 22
     Filename D:\Michael Feinstein\Michael Feinstein Sings the Jerry Herman Songbook\22 - You I Like.wav
     Pre-gap length  0:00:00.29
     Peak level 93.2 %
     Extraction speed 8.3 X
     Track quality 100.0 %
     Test CRC 368A824F
     Copy CRC 368A824F
     Accurately ripped (confidence 8)  [F720966E]  (AR v2)
     Copy OK
All tracks accurately ripped
No errors occurred
End of status report
---- CUETools DB Plugin V2.1.6
[CTDB TOCID: k.8FYsrKqRSazD_uk62gDXe1XUk-] found
Submit result: k.8FYsrKqRSazD_uk62gDXe1XUk- has been confirmed
Track | CTDB Status
  1   | (8/8) Accurately ripped
  2   | (8/8) Accurately ripped
  3   | (8/8) Accurately ripped
  4   | (8/8) Accurately ripped
  5   | (8/8) Accurately ripped
  6   | (8/8) Accurately ripped
  7   | (8/8) Accurately ripped
  8   | (8/8) Accurately ripped
  9   | (8/8) Accurately ripped
 10   | (8/8) Accurately ripped
 11   | (8/8) Accurately ripped
 12   | (8/8) Accurately ripped
 13   | (8/8) Accurately ripped
 14   | (8/8) Accurately ripped
 15   | (8/8) Accurately ripped
 16   | (8/8) Accurately ripped
 17   | (8/8) Accurately ripped
 18   | (8/8) Accurately ripped
 19   | (8/8) Accurately ripped
 20   | (8/8) Accurately ripped
 21   | (8/8) Accurately ripped
 22   | (8/8) Accurately ripped
==== Log checksum 822C4C4D47CF7EF8CC5DA6EB73AA6A0AC37ABD968FD2B0D7B8519E10B2A2B02B ====
Код:
REM GENRE Jazz
REM DATE 1993
REM DISCID 4C0DC616
REM COMMENT "ExactAudioCopy v1.3"
CATALOG 0075597931525
PERFORMER "Michael Feinstein & Jerry Herman"
TITLE "Michael Feinstein Sings the Jerry Herman Songbook"
FILE "01 - Just Go to the Movies.wav" WAVE
  TRACK 01 AUDIO
    TITLE "Just Go to the Movies"
    PERFORMER "Michael Feinstein & Jerry Herman"
    PREGAP 00:00:32
    INDEX 01 00:00:00
  TRACK 02 AUDIO
    TITLE "As Simple as That"
    PERFORMER "Michael Feinstein & Jerry Herman"
    INDEX 00 03:32:41
FILE "02 - As Simple as That.wav" WAVE
    INDEX 01 00:00:00
  TRACK 03 AUDIO
    TITLE "Put on Your Sunday Clothes"
    PERFORMER "Michael Feinstein & Jerry Herman"
    INDEX 00 03:11:23
FILE "03 - Put on Your Sunday Clothes.wav" WAVE
    INDEX 01 00:00:00
FILE "04 - It Only Takes a Moment.wav" WAVE
  TRACK 04 AUDIO
    TITLE "It Only Takes a Moment"
    PERFORMER "Michael Feinstein & Jerry Herman"
    INDEX 01 00:00:00
FILE "05 - Before the Parade Passes By.wav" WAVE
  TRACK 05 AUDIO
    TITLE "Before the Parade Passes By"
    PERFORMER "Michael Feinstein & Jerry Herman"
    INDEX 01 00:00:00
  TRACK 06 AUDIO
    TITLE "Penny in My Pocket"
    PERFORMER "Michael Feinstein & Jerry Herman"
    INDEX 00 02:00:63
FILE "06 - Penny in My Pocket.wav" WAVE
    INDEX 01 00:00:00
  TRACK 07 AUDIO
    TITLE "Kiss Her Now"
    PERFORMER "Michael Feinstein & Jerry Herman"
    INDEX 00 03:22:03
FILE "07 - Kiss Her Now.wav" WAVE
    INDEX 01 00:00:00
  TRACK 08 AUDIO
    TITLE "With You on My Arm"
    PERFORMER "Michael Feinstein & Jerry Herman"
    INDEX 00 03:02:58
FILE "08 - With You on My Arm.wav" WAVE
    INDEX 01 00:00:00
  TRACK 09 AUDIO
    TITLE "Marianne"
    PERFORMER "Michael Feinstein & Jerry Herman"
    INDEX 00 02:18:31
FILE "09 - Marianne.wav" WAVE
    INDEX 01 00:00:00
  TRACK 10 AUDIO
    TITLE "Mame"
    PERFORMER "Michael Feinstein & Jerry Herman"
    INDEX 00 03:01:40
FILE "10 - Mame.wav" WAVE
    INDEX 01 00:00:00
  TRACK 11 AUDIO
    TITLE "Dancing"
    PERFORMER "Michael Feinstein & Jerry Herman"
    INDEX 00 03:51:03
FILE "11 - Dancing.wav" WAVE
    INDEX 01 00:00:00
  TRACK 12 AUDIO
    TITLE "Let's Not Waste a Moment"
    PERFORMER "Michael Feinstein & Jerry Herman"
    INDEX 00 02:28:38
FILE "12 - Let's Not Waste a Moment.wav" WAVE
    INDEX 01 00:00:00
  TRACK 13 AUDIO
    TITLE "Loving You"
    PERFORMER "Michael Feinstein & Jerry Herman"
    INDEX 00 04:13:08
FILE "13 - Loving You.wav" WAVE
    INDEX 01 00:00:00
  TRACK 14 AUDIO
    TITLE "Look Over There"
    PERFORMER "Michael Feinstein & Jerry Herman"
    INDEX 00 03:17:10
FILE "14 - Look Over There.wav" WAVE
    INDEX 01 00:00:00
  TRACK 15 AUDIO
    TITLE "To Be Alone with You"
    PERFORMER "Michael Feinstein & Jerry Herman"
    INDEX 00 02:25:21
FILE "15 - To Be Alone with You.wav" WAVE
    INDEX 01 00:00:00
  TRACK 16 AUDIO
    TITLE "It's Today"
    PERFORMER "Michael Feinstein & Jerry Herman"
    INDEX 00 03:49:73
FILE "16 - It's Today.wav" WAVE
    INDEX 01 00:00:00
FILE "17 - If She Walked into My Life.wav" WAVE
  TRACK 17 AUDIO
    TITLE "If She Walked into My Life"
    PERFORMER "Michael Feinstein & Jerry Herman"
    INDEX 01 00:00:00
FILE "18 - We Need a Little Christmas.wav" WAVE
  TRACK 18 AUDIO
    TITLE "We Need a Little Christmas"
    PERFORMER "Michael Feinstein & Jerry Herman"
    INDEX 01 00:00:00
FILE "19 - It's Today (Reprise).wav" WAVE
  TRACK 19 AUDIO
    TITLE "It's Today (Reprise)"
    PERFORMER "Michael Feinstein & Jerry Herman"
    INDEX 01 00:00:00
  TRACK 20 AUDIO
    TITLE "I Won't Send Roses"
    PERFORMER "Michael Feinstein & Jerry Herman"
    INDEX 00 00:34:66
FILE "20 - I Won't Send Roses.wav" WAVE
    INDEX 01 00:00:00
  TRACK 21 AUDIO
    TITLE "Hello, Dolly!"
    PERFORMER "Michael Feinstein & Jerry Herman"
    INDEX 00 03:05:33
FILE "21 - Hello, Dolly!.wav" WAVE
    INDEX 01 00:00:00
  TRACK 22 AUDIO
    TITLE "You I Like"
    PERFORMER "Michael Feinstein & Jerry Herman"
    INDEX 00 03:20:33
FILE "22 - You I Like.wav" WAVE
    INDEX 01 00:00:00
Код:
[CUETools log; Date: 30.12.2019 2:13:29; Version: 2.1.6]
Pregap length 00:00:32.
[CTDB TOCID: k.8FYsrKqRSazD_uk62gDXe1XUk-] found.
Track | CTDB Status
  1   | (10/10) Accurately ripped
  2   | (10/10) Accurately ripped
  3   | (10/10) Accurately ripped
  4   | (10/10) Accurately ripped
  5   | (10/10) Accurately ripped
  6   | (10/10) Accurately ripped
  7   | (10/10) Accurately ripped
  8   | (10/10) Accurately ripped
  9   | (10/10) Accurately ripped
 10   | (10/10) Accurately ripped
 11   | (10/10) Accurately ripped
 12   | (10/10) Accurately ripped
 13   | (10/10) Accurately ripped
 14   | (10/10) Accurately ripped
 15   | (10/10) Accurately ripped
 16   | (10/10) Accurately ripped
 17   | (10/10) Accurately ripped
 18   | (10/10) Accurately ripped
 19   | (10/10) Accurately ripped
 20   | (10/10) Accurately ripped
 21   | (10/10) Accurately ripped
 22   | (10/10) Accurately ripped
[AccurateRip ID: 002f197b-02f234fc-4c0dc616] found.
Track   [  CRC   |   V2   ] Status
 01     [2277ea1a|18a87a36] (04+10/14) Accurately ripped
 02     [4911ba11|bf164861] (04+09/13) Accurately ripped
 03     [f9f5918e|30459679] (04+09/13) Accurately ripped
 04     [618b8b50|a3d1ac95] (04+09/13) Accurately ripped
 05     [d84b6117|e3dba768] (04+08/12) Accurately ripped
 06     [54c8f0c9|b15aa998] (04+08/12) Accurately ripped
 07     [7096fefb|3deb806f] (04+08/12) Accurately ripped
 08     [6b251f2c|83a4a244] (04+08/12) Accurately ripped
 09     [44538ecc|4ee38a05] (04+08/12) Accurately ripped
 10     [6ed1a494|4b7e80d0] (04+08/12) Accurately ripped
 11     [c047b7b1|bea34bcf] (04+08/12) Accurately ripped
 12     [a1b8cef2|a97662fe] (04+08/12) Accurately ripped
 13     [9a2df4b5|368ea246] (04+08/12) Accurately ripped
 14     [796a8c14|20905245] (04+08/12) Accurately ripped
 15     [2d3f9079|8ace524b] (04+08/12) Accurately ripped
 16     [2d7cfab7|54c88b41] (04+08/12) Accurately ripped
 17     [4d0ce430|b2cc525b] (04+09/13) Accurately ripped
 18     [6caecc7b|b73128d3] (04+08/12) Accurately ripped
 19     [22831413|8fa3514d] (04+08/12) Accurately ripped
 20     [0e57fe69|3f3e77a5] (04+09/13) Accurately ripped
 21     [397d98c5|e2dcd779] (04+08/12) Accurately ripped
 22     [8c02fb7f|f720966e] (04+08/12) Accurately ripped
Track Peak [ CRC32  ] [W/O NULL] [  LOG   ]
 --   94,3 [1083FFA8] [2B5DACF3]
 01   93,3 [EC5C44F1] [ABEB5882]   CRC32
 02   93,1 [6FD6295C] [1ADA8E5E]   CRC32
 03   92,9 [3334276E] [AB2AB5F0]   CRC32
 04   93,2 [9529DE50] [9AEFF2DD]   CRC32
 05   94,3 [254B3686] [B8545987]   CRC32
 06   93,3 [CFF20CF8] [4ECB6406]   CRC32
 07   93,1 [7523AF7B] [F6AB61CF]   CRC32
 08   93,1 [C3BA2E6B] [114A07A9]   CRC32
 09   93,1 [4B934AA1] [15BC26CA]   CRC32
 10   92,9 [E927A0C9] [F8B9C47F]   CRC32
 11   93,1 [50EC2045] [F5D9D73D]   CRC32
 12   92,9 [F850647C] [E23C7AA3]   CRC32
 13   92,7 [8D55E9AF] [9E5A9C07]   CRC32
 14   93,3 [EB06D401] [1669C5E3]   CRC32
 15   92,5 [5E486467] [544F0971]   CRC32
 16   91,9 [975D238D] [F2D02C74]   CRC32
 17   92,3 [423269BA] [8E4CF434]   CRC32
 18   93,1 [578E7F16] [F4568140]   CRC32
 19   93,2 [83A598DC] [FF248164]   CRC32
 20   92,3 [A20D5A4A] [E56B7DE9]   CRC32
 21   92,6 [23988084] [12CD025F]   CRC32
 22   93,1 [368A824F] [06230C76]   CRC32
As with his songbook albums devoted to the music of Burton Lane and Jule Styne, Michael Feinstein has worked closely with Jerry Herman on this collection of Herman's songs, even to the extent of enlisting Herman as his pianist and occasional vocal duet partner. Except for a couple of tracks that feature both performers playing piano, Herman's keyboard work is the only accompaniment to Feinstein's vocals, so the recording has a recital-like quality. It also has a cabaret-like quality, in that Feinstein and Herman have chosen from the songwriter's catalog and sequenced the material as if constructing a nightclub act. That is not quite the same thing as coming up with a selection of the "best of" Herman or his "greatest hits." Anyone with a familiarity with the songwriter's long career will have no trouble noting omissions -- where are "I Am What I Am," "The Best of Times," and "Time Heals Everything," for example? Some of the songs from two of Herman's most successful stage musicals, Hello, Dolly! and Mame, are arranged as medleys, each song given only a brief rendition. But Feinstein makes a point of presenting relatively little-known Herman music, including songs he wrote for the shows of others ("Just Go to the Movies" from A Day in Hollywood/A Night in the Ukraine and "To Be Alone with You" from Ben Franklin in Paris); a cut song ("Penny in My Pocket," intended for Hello, Dolly!); a song only featured in a movie version ("Loving You" from the Mame film); and songs with alternate lyrics ("Dancing" and "Hello, Dolly!"). In so doing, he demonstrates that Herman has had an amazing facility for writing catchy uptempo material and heart-rending ballads, no matter what show they happened to have been intended for. This album must be considered an addendum to the various cast albums of Herman's music, but it makes for a good sampler of his work, all effectively performed by Feinstein.
Правила, инструкции, FAQ!!!
Торрент  Добавлен [05 янв 2020, 15:24] Скачать торрент Магнет ссылка
Скачать торрент
[ Размер 14.02 КБ / Просмотров 7 ]

Статус
Проверен 
 
Размер  299.85 МБ
Приватный: Нет (DHT включён)
.torrent скачан  0
 


     Отправить личное сообщение
   
Страница 1 из 1
Показать сообщения за:  Поле сортировки  
Начать новую тему Ответить на тему


Сейчас этот форум просматривают: нет зарегистрированных пользователей и гости: 0


Вы не можете начинать темы
Вы не можете отвечать на сообщения
Вы не можете редактировать свои сообщения
Вы не можете удалять свои сообщения
Вы не можете добавлять вложения

Перейти:  
cron