Начать новую тему Ответить на тему
Статистика раздачи
Размер: 278.18 МБ | Добавлен: 05 янв 2020, 15:25 | Скачали: 0
Сидеров: 0  [0 байт/сек]    Личеров: 0  [0 байт/сек]
Пред. тема | След. тема 

Автор
Сообщение

СообщениеДобавлено: 05 янв 2020, 15:25 

Ответить с цитатой 

Michael Feinstein - Isn't It Romantic
Жанр: Vocal Jazz
Носитель: CD
Страна-производитель диска (релиза): США
Год издания: 1988
Издатель (лейбл): Elektra
Номер по каталогу: 9 60792-2
Аудиокодек: FLAC (*.flac)
Тип рипа: tracks+.cue
Продолжительность: 00:54:38
Источник: Napaskiak
Наличие сканов в содержимом раздачи: нет
Треклист:
01. Isn't It Romantic (5:05)
02. Where Do You Start (3:15)
03. A Fine Romance (4:45)
04. I Can Dream Can't I/I'll Be Seeing You (5:58)
05. You're an Education (3:16)
06. My Favorite Year (3:56)
07. No Other Love (4:20)
08. I Wanna Be Loved (5:41)
09. How About You (3:19)
10. I'll Get By (4:51)
11. I Won't Send Roses/Time Heals Everything (5:53)
12. Wasn't It Romantic (4:19)
Код:
Exact Audio Copy V1.3 from 2. September 2016
EAC extraction logfile from 31. October 2019, 19:14
Michael Feinstein / Isn't It Romantic
Used drive  : ASUS    DRW-2014L1T   Adapter: 1  ID: 0
Read mode               : Secure
Utilize accurate stream : Yes
Defeat audio cache      : Yes
Make use of C2 pointers : No
Read offset correction                      : 6
Overread into Lead-In and Lead-Out          : No
Fill up missing offset samples with silence : Yes
Delete leading and trailing silent blocks   : No
Null samples used in CRC calculations       : Yes
Used interface                              : Native Win32 interface for Win NT & 2000
Gap handling                                : Appended to previous track
Used output format              : User Defined Encoder
Selected bitrate                : 768 kBit/s
Quality                         : High
Add ID3 tag                     : No
Command line compressor         : C:\Program Files (x86)\Exact Audio Copy\Flac\flac.exe
Additional command line options : -6 -V -T "ARTIST=%artist%" -T "TITLE=%title%" -T "ALBUM=%albumtitle%" -T "DATE=%year%" -T "TRACKNUMBER=%tracknr%" -T "GENRE=%genre%" -T "COMMENT=%comment%" -T "BAND=%albuminterpret%" -T "ALBUMARTIST=%albuminterpret%" -T "COMPOSER=%composer%" %haslyrics%--tag-from-file=LYRICS="%lyricsfile%"%haslyrics% -T "DISCNUMBER=%cdnumber%" -T "TOTALDISCS=%totalcds%" -T "TOTALTRACKS=%numtracks%" %hascover%--picture="%coverfile%"%hascover% %source% -o %dest%
TOC of the extracted CD
     Track |   Start  |  Length  | Start sector | End sector
    ---------------------------------------------------------
        1  |  0:00.32 |  5:05.23 |        32    |    22929
        2  |  5:05.55 |  3:14.67 |     22930    |    37546
        3  |  8:20.47 |  4:45.30 |     37547    |    58951
        4  | 13:06.02 |  5:58.13 |     58952    |    85814
        5  | 19:04.15 |  3:15.65 |     85815    |   100504
        6  | 22:20.05 |  3:56.35 |    100505    |   118239
        7  | 26:16.40 |  4:20.07 |    118240    |   137746
        8  | 30:36.47 |  5:41.10 |    137747    |   163331
        9  | 36:17.57 |  3:18.63 |    163332    |   178244
       10  | 39:36.45 |  4:50.62 |    178245    |   200056
       11  | 44:27.32 |  5:52.55 |    200057    |   226511
       12  | 50:20.12 |  4:19.35 |    226512    |   245971
Track  1
     Filename D:\Michael Feinstein\Isn't It Romantic\01 - Isn't It Romantic.wav
     Pre-gap length  0:00:02.32
     Peak level 100.0 %
     Extraction speed 5.2 X
     Track quality 100.0 %
     Test CRC 7DFEA294
     Copy CRC 7DFEA294
     Accurately ripped (confidence 9)  [E40D2620]  (AR v2)
     Copy OK
Track  2
     Filename D:\Michael Feinstein\Isn't It Romantic\02 - Where Do You Start.wav
     Pre-gap length  0:00:02.48
     Peak level 60.1 %
     Extraction speed 4.0 X
     Track quality 99.9 %
     Test CRC 036B3494
     Copy CRC 036B3494
     Accurately ripped (confidence 10)  [695FD2D9]  (AR v2)
     Copy OK
Track  3
     Filename D:\Michael Feinstein\Isn't It Romantic\03 - A Fine Romance.wav
     Pre-gap length  0:00:02.40
     Peak level 81.4 %
     Extraction speed 5.4 X
     Track quality 100.0 %
     Test CRC 83AC2EC5
     Copy CRC 83AC2EC5
     Accurately ripped (confidence 9)  [99EA2BD8]  (AR v2)
     Copy OK
Track  4
     Filename D:\Michael Feinstein\Isn't It Romantic\04 - I  Can Dream Can't I,I'll Be Seeing You.wav
     Pre-gap length  0:00:02.67
     Peak level 79.9 %
     Extraction speed 6.0 X
     Track quality 100.0 %
     Test CRC DAB68987
     Copy CRC DAB68987
     Accurately ripped (confidence 8)  [4B21F6EA]  (AR v2)
     Copy OK
Track  5
     Filename D:\Michael Feinstein\Isn't It Romantic\05 - You're An Education.wav
     Pre-gap length  0:00:03.45
     Peak level 100.0 %
     Extraction speed 5.1 X
     Track quality 99.9 %
     Test CRC 08B55930
     Copy CRC 08B55930
     Accurately ripped (confidence 9)  [D4E37EF6]  (AR v2)
     Copy OK
Track  6
     Filename D:\Michael Feinstein\Isn't It Romantic\06 - My Favorite Year.wav
     Pre-gap length  0:00:04.73
     Peak level 87.4 %
     Extraction speed 6.4 X
     Track quality 100.0 %
     Test CRC DC775943
     Copy CRC DC775943
     Accurately ripped (confidence 10)  [3341D723]  (AR v2)
     Copy OK
Track  7
     Filename D:\Michael Feinstein\Isn't It Romantic\07 - No Other Love.wav
     Pre-gap length  0:00:03.53
     Peak level 68.5 %
     Extraction speed 6.7 X
     Track quality 100.0 %
     Test CRC 40E277BE
     Copy CRC 40E277BE
     Accurately ripped (confidence 9)  [7F994927]  (AR v2)
     Copy OK
Track  8
     Filename D:\Michael Feinstein\Isn't It Romantic\08 - I Wanna Be Loved.wav
     Pre-gap length  0:00:02.27
     Peak level 95.0 %
     Extraction speed 7.3 X
     Track quality 100.0 %
     Test CRC 20C1BF8A
     Copy CRC 20C1BF8A
     Accurately ripped (confidence 9)  [2CB8E269]  (AR v2)
     Copy OK
Track  9
     Filename D:\Michael Feinstein\Isn't It Romantic\09 - How About You.wav
     Pre-gap length  0:00:03.25
     Peak level 93.0 %
     Extraction speed 6.1 X
     Track quality 99.9 %
     Test CRC 2C436058
     Copy CRC 2C436058
     Accurately ripped (confidence 10)  [5833AC61]  (AR v2)
     Copy OK
Track 10
     Filename D:\Michael Feinstein\Isn't It Romantic\10 - I'll Get By.wav
     Pre-gap length  0:00:03.38
     Peak level 72.8 %
     Extraction speed 6.9 X
     Track quality 99.9 %
     Test CRC 72813185
     Copy CRC 72813185
     Accurately ripped (confidence 10)  [B84510B7]  (AR v2)
     Copy OK
Track 11
     Filename D:\Michael Feinstein\Isn't It Romantic\11 - I Won't Send Roses,Time Heals Everything.wav
     Pre-gap length  0:00:04.10
     Peak level 69.3 %
     Extraction speed 8.1 X
     Track quality 100.0 %
     Test CRC BCE28298
     Copy CRC BCE28298
     Accurately ripped (confidence 8)  [3F49F413]  (AR v2)
     Copy OK
Track 12
     Filename D:\Michael Feinstein\Isn't It Romantic\12 - Wasn't It Romantic.wav
     Pre-gap length  0:00:02.70
     Peak level 82.2 %
     Extraction speed 8.1 X
     Track quality 100.0 %
     Test CRC BF45CE63
     Copy CRC BF45CE63
     Accurately ripped (confidence 8)  [BE7AC4AD]  (AR v2)
     Copy OK
All tracks accurately ripped
No errors occurred
End of status report
---- CUETools DB Plugin V2.1.6
[CTDB TOCID: xRu5GCYdGWDTMsHVH_BgccbRWxg-] found
Submit result: xRu5GCYdGWDTMsHVH_BgccbRWxg- has been confirmed
Track | CTDB Status
  1   | (30/30) Accurately ripped
  2   | (29/30) Accurately ripped
  3   | (30/30) Accurately ripped
  4   | (30/30) Accurately ripped
  5   | (29/30) Accurately ripped
  6   | (30/30) Accurately ripped
  7   | (30/30) Accurately ripped
  8   | (30/30) Accurately ripped
  9   | (30/30) Accurately ripped
 10   | (29/30) Accurately ripped
 11   | (30/30) Accurately ripped
 12   | (30/30) Accurately ripped
==== Log checksum 6BF9EBE149871BFB684EAFF6318691452C46302655E67AAEA6F133B3E9B316D9 ====
Код:
REM GENRE Jazz
REM DATE 1988
REM DISCID AE0CCF0C
REM COMMENT "ExactAudioCopy v1.3"
CATALOG 0075596079228
PERFORMER "Michael Feinstein"
TITLE "Isn't It Romantic"
FILE "01 - Isn't It Romantic.wav" WAVE
  TRACK 01 AUDIO
    TITLE "Isn't It Romantic"
    PERFORMER "Michael Feinstein"
    PREGAP 00:00:32
    INDEX 01 00:00:00
  TRACK 02 AUDIO
    TITLE "Where Do You Start"
    PERFORMER "Michael Feinstein"
    INDEX 00 05:02:50
FILE "02 - Where Do You Start.wav" WAVE
    INDEX 01 00:00:00
  TRACK 03 AUDIO
    TITLE "A Fine Romance"
    PERFORMER "Michael Feinstein"
    INDEX 00 03:12:27
FILE "03 - A Fine Romance.wav" WAVE
    INDEX 01 00:00:00
  TRACK 04 AUDIO
    TITLE "I Can Dream Can't I/I'll Be Seeing You"
    PERFORMER "Michael Feinstein"
    INDEX 00 04:42:38
FILE "04 - I Can Dream Can't I,I'll Be Seeing You.wav" WAVE
    INDEX 01 00:00:00
  TRACK 05 AUDIO
    TITLE "You're an Education"
    PERFORMER "Michael Feinstein"
    INDEX 00 05:54:43
FILE "05 - You're an Education.wav" WAVE
    INDEX 01 00:00:00
  TRACK 06 AUDIO
    TITLE "My Favorite Year"
    PERFORMER "Michael Feinstein"
    INDEX 00 03:10:67
FILE "06 - My Favorite Year.wav" WAVE
    INDEX 01 00:00:00
  TRACK 07 AUDIO
    TITLE "No Other Love"
    PERFORMER "Michael Feinstein"
    INDEX 00 03:52:57
FILE "07 - No Other Love.wav" WAVE
    INDEX 01 00:00:00
  TRACK 08 AUDIO
    TITLE "I Wanna Be Loved"
    PERFORMER "Michael Feinstein"
    INDEX 00 04:17:55
FILE "08 - I Wanna Be Loved.wav" WAVE
    INDEX 01 00:00:00
  TRACK 09 AUDIO
    TITLE "How About You"
    PERFORMER "Michael Feinstein"
    INDEX 00 05:37:60
FILE "09 - How About You.wav" WAVE
    INDEX 01 00:00:00
  TRACK 10 AUDIO
    TITLE "I'll Get By"
    PERFORMER "Michael Feinstein"
    INDEX 00 03:15:25
FILE "10 - I'll Get By.wav" WAVE
    INDEX 01 00:00:00
  TRACK 11 AUDIO
    TITLE "I Won't Send Roses/Time Heals Everything"
    PERFORMER "Michael Feinstein"
    INDEX 00 04:46:52
FILE "11 - I Won't Send Roses,Time Heals Everything.wav" WAVE
    INDEX 01 00:00:00
  TRACK 12 AUDIO
    TITLE "Wasn't It Romantic"
    PERFORMER "Michael Feinstein"
    INDEX 00 05:49:60
FILE "12 - Wasn't It Romantic.wav" WAVE
    INDEX 01 00:00:00
Код:
[CUETools log; Date: 31.12.2019 15:36:05; Version: 2.1.6]
Pregap length 00:00:32.
[CTDB TOCID: xRu5GCYdGWDTMsHVH_BgccbRWxg-] found.
Track | CTDB Status
  1   | (32/33) Accurately ripped
  2   | (32/33) Accurately ripped
  3   | (33/33) Accurately ripped
  4   | (33/33) Accurately ripped
  5   | (32/33) Accurately ripped
  6   | (33/33) Accurately ripped
  7   | (33/33) Accurately ripped
  8   | (33/33) Accurately ripped
  9   | (33/33) Accurately ripped
 10   | (32/33) Accurately ripped
 11   | (33/33) Accurately ripped
 12   | (33/33) Accurately ripped
[AccurateRip ID: 00180bce-00e0af53-ae0ccf0c] found.
Track   [  CRC   |   V2   ] Status
 01     [601a5494|e40d2620] (06+09/49) Accurately ripped
 02     [1beda36c|695fd2d9] (07+10/53) Accurately ripped
 03     [842a600c|99ea2bd8] (08+09/53) Accurately ripped
 04     [38f5c20c|4b21f6ea] (08+08/50) Accurately ripped
 05     [04cb4635|d4e37ef6] (08+09/53) Accurately ripped
 06     [91ab3a1f|3341d723] (08+10/54) Accurately ripped
 07     [17fbeac9|7f994927] (08+09/52) Accurately ripped
 08     [472ac9bd|2cb8e269] (08+09/52) Accurately ripped
 09     [80bccb81|5833ac61] (08+10/54) Accurately ripped
 10     [ede69c03|b84510b7] (08+10/54) Accurately ripped
 11     [2b9926ea|3f49f413] (07+08/50) Accurately ripped
 12     [d620b69e|be7ac4ad] (07+08/50) Accurately ripped
Offsetted by -2312:
 01     [3a3d9fbc] (06/49) Accurately ripped
 02     [374e42ac] (06/53) Accurately ripped
 03     [03f1f064] (06/53) Accurately ripped
 04     [c9c2f614] (06/50) Accurately ripped
 05     [b58d30b5] (06/53) Accurately ripped
 06     [1f2cb107] (06/54) Accurately ripped
 07     [018fb391] (06/52) Accurately ripped
 08     [d2cea5bd] (06/52) Accurately ripped
 09     [df942e09] (06/54) Accurately ripped
 10     [85f52b0b] (06/54) Accurately ripped
 11     [41e99f22] (06/50) Accurately ripped
 12     [1854d0ae] (06/50) Accurately ripped
Offsetted by -29:
 01     [416649e5] (08/49) Accurately ripped
 02     [a53d93b4] (09/53) Accurately ripped
 03     [65fd606b] (09/53) Accurately ripped
 04     [e881a209] (09/50) Accurately ripped
 05     [d24e2645] (09/53) Accurately ripped
 06     [46ee8308] (09/54) Accurately ripped
 07     [0337e6fe] (09/52) Accurately ripped
 08     [9535973d] (09/52) Accurately ripped
 09     [97f6320e] (09/54) Accurately ripped
 10     [77c7c9e0] (09/54) Accurately ripped
 11     [42060255] (09/50) Accurately ripped
 12     [2de42b95] (08/50) Accurately ripped
Offsetted by 222:
 01     [c6ba5fbe] (04/49) Accurately ripped
 02     [126f363c] (05/53) Accurately ripped
 03     [cc450dc2] (05/53) Accurately ripped
 04     [5a39bfee] (04/50) Accurately ripped
 05     [02e166d5] (05/53) Accurately ripped
 06     [c4f79939] (05/54) Accurately ripped
 07     [fd91d2db] (04/52) Accurately ripped
 08     [647fd0bd] (04/52) Accurately ripped
 09     [a2d06b03] (05/54) Accurately ripped
 10     [bcc0e4a5] (05/54) Accurately ripped
 11     [1ed36b18] (05/50) Accurately ripped
 12     [7dc6e281] (05/50) Accurately ripped
Offsetted by -997:
 01     [2ee3cacd] (00/49) No match
 02     [d33ff0f4] (00/53) No match
 03     [fb282f03] (00/53) No match
 04     [508998d1] (00/50) No match
 05     [2b5eacc5] (00/53) No match
 06     [64f239b0] (00/54) No match
 07     [688e9486] (00/52) No match
 08     [8d3d133d] (00/52) No match
 09     [ee9e5356] (00/54) No match
 10     [2b7c63a8] (00/54) No match
 11     [aa25edcd] (00/50) No match (V2 was not tested)
 12     [74b63c75] (00/50) No match
Offsetted by 85:
 01     [9f9ccc2b] (00/49) No match (V2 was not tested)
 02     [f3647064] (00/53) No match (V2 was not tested)
 03     [233b8245] (00/53) No match (V2 was not tested)
 04     [7d0c54d7] (00/50) No match (V2 was not tested)
 05     [7e4baca5] (00/53) No match (V2 was not tested)
 06     [37c2b3de] (00/54) No match (V2 was not tested)
 07     [fc92b81c] (00/52) No match (V2 was not tested)
 08     [12f9783d] (00/52) No match (V2 was not tested)
 09     [33d6c23c] (00/54) No match (V2 was not tested)
 10     [efd703ee] (00/54) No match (V2 was not tested)
 11     [a33f9af7] (00/50) No match (V2 was not tested)
 12     [8b36ba15] (00/50) No match (V2 was not tested)
Track Peak [ CRC32  ] [W/O NULL] [  LOG   ]
 --  100,0 [439F6881] [6B7788C1]
 01  100,0 [7DFEA294] [76FA50CA]   CRC32
 02   60,1 [036B3494] [10D5D424]   CRC32
 03   81,4 [83AC2EC5] [4A965C1F]   CRC32
 04   79,9 [DAB68987] [ED4197F8]   CRC32
 05  100,0 [08B55930] [3FEE494A]   CRC32
 06   87,4 [DC775943] [E6343D9A]   CRC32
 07   68,5 [40E277BE] [D61EA22B]   CRC32
 08   95,0 [20C1BF8A] [40692F1E]   CRC32
 09   93,0 [2C436058] [190535D0]   CRC32
 10   72,8 [72813185] [FFE1F418]   CRC32
 11   69,3 [BCE28298] [C45BE00D]   CRC32
 12   82,2 [BF45CE63] [ED14DD2C]   CRC32
Michael Feinstein teams up with Hollywood arranger Johnny Mandel for his fourth album, which, as its title suggests, is devoted to romantic songs. Typically, an LP's worth of Feinstein performances isn't only a stroll down the Memory Lane of show tunes from movies and musicals of the interwar era, but also a musical research project into the archives where the singer toiled back in the days when he was an archivist for Ira Gershwin and Harry Warren. So, for example, when he leads off with the title song, written by Rodgers & Hart for the film Love Me Tonight, he doesn't only sing the lyrics everybody knows from its countless covers, he also throws in the lyrics from the second chorus, unheard since 1932, which come off as decidedly chauvinistic in 1988. Similarly, in rendering Jerome Kern and Dorothy Fields' "A Fine Romance" (from the 1936 film Swingtime), he sings a verse that was never used or published, but that was sung by the film's star, Fred Astaire, only on a recording that was never released. Such arcane additions to the material will interest especially those as fascinated by pop music history as Feinstein; to casual listeners, they may come as a surprise, altering impressions of songs otherwise so familiar. But Feinstein does not restrict himself to older material. He also introduces a new song, "Where Do You Start," composed by Mandel with lyrics by Marilyn & Alan Bergman, that, like so many songs of the ‘70s and ‘80s written in the style of pre-rock pop, sounds like it might as well have been penned just outside divorce court by a regretful ex-spouse. That's right, this album may consist of romantic songs, but they aren't always happy love songs. Just as often, they're unhappy ones, notably a medley of Jerry Herman's "I Won't Send Roses" (another chauvinist's statement) and the heartbreaking "Time Heals Everything" from the 1974 musical Mack and Mabel (included as a bonus track on CD copies of the album). Feinstein's vulnerable tenor and often reverent performance style is actually better suited to the bittersweet stuff, especially when accompanied by Mandel's haunting and sentimental arrangements.
Правила, инструкции, FAQ!!!
Торрент  Добавлен [05 янв 2020, 15:25] Скачать торрент Магнет ссылка
Скачать торрент
[ Размер 12.44 КБ / Просмотров 6 ]

Статус
Проверен 
 
Размер  278.18 МБ
Приватный: Нет (DHT включён)
.torrent скачан  0
 


     Отправить личное сообщение
   
Страница 1 из 1
Показать сообщения за:  Поле сортировки  
Начать новую тему Ответить на тему


Сейчас этот форум просматривают: нет зарегистрированных пользователей и гости: 0


Вы не можете начинать темы
Вы не можете отвечать на сообщения
Вы не можете редактировать свои сообщения
Вы не можете удалять свои сообщения
Вы не можете добавлять вложения

Перейти:  
cron
cron