Начать новую тему Ответить на тему
Статистика раздачи
Размер: 241.14 МБ | Добавлен: 05 янв 2020, 15:24 | Скачали: 0
Сидеров: 0  [0 байт/сек]    Личеров: 0  [0 байт/сек]
Пред. тема | След. тема 

Автор
Сообщение

СообщениеДобавлено: 05 янв 2020, 15:24 

Ответить с цитатой 

Michael Feinstein & Hugh Martin - Michael Feinstein Sings the Hugh Martin Songbook
Жанр: Vocal Jazz
Носитель: CD
Страна-производитель диска (релиза): США
Год издания: 1995
Издатель (лейбл): Nonesuch
Номер по каталогу: 79314-2
Аудиокодек: FLAC (*.flac)
Тип рипа: tracks+.cue
Продолжительность: 00:58:59
Источник: Napaskiak
Наличие сканов в содержимом раздачи: нет
Треклист:
01. The Two of Us (3:07)
02. Here Come the Dreamers (1:54)
03. Pass That Peace Pipe (2:28)
04. Ev'ry Time (3:36)
05. I Like the Feeling (2:14)
06. The Girl Next Door (3:09)
07. The Trolley Song (2:32)
08. At Last We're Alone (3:10)
09. Connecticut (2:55)
10. Love Can Change the Stars (2:56)
11. You'd Better Love Me (2:28)
12. Tiny Room (2:44)
13. Out of Doors (2:41)
14. You Are for Loving (3:41)
15. Gotta Dance (2:28)
16. Have Yourself a Merry Little Christmas (3:34)
17. I Never Felt Better (3:57)
18. I Have Something to Say to You (4:37)
19. Love (2:38)
20. Finale: Janette/When Does This Feeling Go Away? (2:10)
Код:
Exact Audio Copy V1.3 from 2. September 2016
EAC extraction logfile from 5. November 2019, 18:54
Michael Feinstein / Michael Feinstein Sings the Hugh Martin Songbook
Used drive  : ASUS    DRW-2014L1T   Adapter: 1  ID: 0
Read mode               : Secure
Utilize accurate stream : Yes
Defeat audio cache      : Yes
Make use of C2 pointers : No
Read offset correction                      : 6
Overread into Lead-In and Lead-Out          : No
Fill up missing offset samples with silence : Yes
Delete leading and trailing silent blocks   : No
Null samples used in CRC calculations       : Yes
Used interface                              : Native Win32 interface for Win NT & 2000
Gap handling                                : Appended to previous track
Used output format              : User Defined Encoder
Selected bitrate                : 768 kBit/s
Quality                         : High
Add ID3 tag                     : No
Command line compressor         : C:\Program Files (x86)\Exact Audio Copy\Flac\flac.exe
Additional command line options : -6 -V -T "ARTIST=%artist%" -T "TITLE=%title%" -T "ALBUM=%albumtitle%" -T "DATE=%year%" -T "TRACKNUMBER=%tracknr%" -T "GENRE=%genre%" -T "COMMENT=%comment%" -T "BAND=%albuminterpret%" -T "ALBUMARTIST=%albuminterpret%" -T "COMPOSER=%composer%" %haslyrics%--tag-from-file=LYRICS="%lyricsfile%"%haslyrics% -T "DISCNUMBER=%cdnumber%" -T "TOTALDISCS=%totalcds%" -T "TOTALTRACKS=%numtracks%" %hascover%--picture="%coverfile%"%hascover% %source% -o %dest%
TOC of the extracted CD
     Track |   Start  |  Length  | Start sector | End sector
    ---------------------------------------------------------
        1  |  0:00.00 |  3:07.17 |         0    |    14041
        2  |  3:07.17 |  1:54.03 |     14042    |    22594
        3  |  5:01.20 |  2:28.25 |     22595    |    33719
        4  |  7:29.45 |  3:35.72 |     33720    |    49916
        5  | 11:05.42 |  2:14.10 |     49917    |    59976
        6  | 13:19.52 |  3:08.60 |     59977    |    74136
        7  | 16:28.37 |  2:32.00 |     74137    |    85536
        8  | 19:00.37 |  3:10.20 |     85537    |    99806
        9  | 22:10.57 |  2:55.30 |     99807    |   112961
       10  | 25:06.12 |  2:55.68 |    112962    |   126154
       11  | 28:02.05 |  2:27.45 |    126155    |   137224
       12  | 30:29.50 |  2:44.12 |    137225    |   149536
       13  | 33:13.62 |  2:41.00 |    149537    |   161611
       14  | 35:54.62 |  3:40.43 |    161612    |   178154
       15  | 39:35.30 |  2:27.47 |    178155    |   189226
       16  | 42:03.02 |  3:33.38 |    189227    |   205239
       17  | 45:36.40 |  3:56.67 |    205240    |   223006
       18  | 49:33.32 |  4:36.38 |    223007    |   243744
       19  | 54:09.70 |  2:38.17 |    243745    |   255611
       20  | 56:48.12 |  2:09.58 |    255612    |   265344
Track  1
     Filename D:\Michael Feinstein\Michael Feinstein Sings the Hugh Martin Songbook\01 - The Two of Us.wav
     Pre-gap length  0:00:02.00
     Peak level 98.8 %
     Extraction speed 3.4 X
     Track quality 99.9 %
     Test CRC 7C994F40
     Copy CRC 7C994F40
     Accurately ripped (confidence 7)  [D80AB3FA]  (AR v2)
     Copy OK
Track  2
     Filename D:\Michael Feinstein\Michael Feinstein Sings the Hugh Martin Songbook\02 - Here Come the Dreamers.wav
     Peak level 81.8 %
     Extraction speed 3.7 X
     Track quality 100.0 %
     Test CRC CDF54247
     Copy CRC CDF54247
     Accurately ripped (confidence 7)  [F3ECAEC8]  (AR v2)
     Copy OK
Track  3
     Filename D:\Michael Feinstein\Michael Feinstein Sings the Hugh Martin Songbook\03 - Pass that Peace Pipe.wav
     Pre-gap length  0:00:00.01
     Peak level 98.8 %
     Extraction speed 4.2 X
     Track quality 100.0 %
     Test CRC EC523429
     Copy CRC EC523429
     Accurately ripped (confidence 8)  [3BB016A6]  (AR v2)
     Copy OK
Track  4
     Filename D:\Michael Feinstein\Michael Feinstein Sings the Hugh Martin Songbook\04 - Ev'ry Time.wav
     Pre-gap length  0:00:00.01
     Peak level 92.1 %
     Extraction speed 4.8 X
     Track quality 100.0 %
     Test CRC 32A68C60
     Copy CRC 32A68C60
     Accurately ripped (confidence 8)  [FC6A7E54]  (AR v2)
     Copy OK
Track  5
     Filename D:\Michael Feinstein\Michael Feinstein Sings the Hugh Martin Songbook\05 - I Like the Feeling.wav
     Pre-gap length  0:00:00.01
     Peak level 98.8 %
     Extraction speed 3.8 X
     Track quality 99.9 %
     Test CRC 64A66F8C
     Copy CRC 64A66F8C
     Accurately ripped (confidence 7)  [1EAA5D22]  (AR v2)
     Copy OK
Track  6
     Filename D:\Michael Feinstein\Michael Feinstein Sings the Hugh Martin Songbook\06 - The Girl Next Door.wav
     Pre-gap length  0:00:00.01
     Peak level 92.5 %
     Extraction speed 5.2 X
     Track quality 100.0 %
     Test CRC 0791C43C
     Copy CRC 0791C43C
     Accurately ripped (confidence 7)  [BBA46717]  (AR v2)
     Copy OK
Track  7
     Filename D:\Michael Feinstein\Michael Feinstein Sings the Hugh Martin Songbook\07 - The Troley Song.wav
     Pre-gap length  0:00:00.01
     Peak level 98.8 %
     Extraction speed 5.3 X
     Track quality 100.0 %
     Test CRC DC76AFBE
     Copy CRC DC76AFBE
     Accurately ripped (confidence 8)  [A8ED95B3]  (AR v2)
     Copy OK
Track  8
     Filename D:\Michael Feinstein\Michael Feinstein Sings the Hugh Martin Songbook\08 - At Last We're Alone.wav
     Pre-gap length  0:00:00.01
     Peak level 98.8 %
     Extraction speed 5.7 X
     Track quality 100.0 %
     Test CRC FD519C86
     Copy CRC FD519C86
     Accurately ripped (confidence 7)  [77CDA667]  (AR v2)
     Copy OK
Track  9
     Filename D:\Michael Feinstein\Michael Feinstein Sings the Hugh Martin Songbook\09 - Connecticut.wav
     Pre-gap length  0:00:00.01
     Peak level 98.8 %
     Extraction speed 5.8 X
     Track quality 100.0 %
     Test CRC 6540511F
     Copy CRC 6540511F
     Accurately ripped (confidence 7)  [D0F8CDD0]  (AR v2)
     Copy OK
Track 10
     Filename D:\Michael Feinstein\Michael Feinstein Sings the Hugh Martin Songbook\10 - Love Can Change the Stars.wav
     Pre-gap length  0:00:00.01
     Peak level 91.8 %
     Extraction speed 6.0 X
     Track quality 100.0 %
     Test CRC DEC547BD
     Copy CRC DEC547BD
     Accurately ripped (confidence 7)  [1F08D5B6]  (AR v2)
     Copy OK
Track 11
     Filename D:\Michael Feinstein\Michael Feinstein Sings the Hugh Martin Songbook\11 - You'l Better Love Me.wav
     Peak level 98.8 %
     Extraction speed 6.0 X
     Track quality 100.0 %
     Test CRC 15D593C2
     Copy CRC 15D593C2
     Accurately ripped (confidence 7)  [B3FB527C]  (AR v2)
     Copy OK
Track 12
     Filename D:\Michael Feinstein\Michael Feinstein Sings the Hugh Martin Songbook\12 - Tiny Room.wav
     Pre-gap length  0:00:00.01
     Peak level 98.8 %
     Extraction speed 6.3 X
     Track quality 100.0 %
     Test CRC 6ECF90E6
     Copy CRC 6ECF90E6
     Accurately ripped (confidence 7)  [9E3D4806]  (AR v2)
     Copy OK
Track 13
     Filename D:\Michael Feinstein\Michael Feinstein Sings the Hugh Martin Songbook\13 - Out of Doors.wav
     Pre-gap length  0:00:00.01
     Peak level 96.8 %
     Extraction speed 5.4 X
     Track quality 99.9 %
     Test CRC C0B7951B
     Copy CRC C0B7951B
     Accurately ripped (confidence 7)  [E5E1C21E]  (AR v2)
     Copy OK
Track 14
     Filename D:\Michael Feinstein\Michael Feinstein Sings the Hugh Martin Songbook\14 - You Are for Loving.wav
     Pre-gap length  0:00:00.01
     Peak level 88.6 %
     Extraction speed 7.0 X
     Track quality 100.0 %
     Test CRC 8DF5384F
     Copy CRC 8DF5384F
     Accurately ripped (confidence 8)  [1D603448]  (AR v2)
     Copy OK
Track 15
     Filename D:\Michael Feinstein\Michael Feinstein Sings the Hugh Martin Songbook\15 - Gotta Dance.wav
     Pre-gap length  0:00:00.01
     Peak level 95.9 %
     Extraction speed 6.6 X
     Track quality 100.0 %
     Test CRC C0256A32
     Copy CRC C0256A32
     Accurately ripped (confidence 7)  [B76FABA7]  (AR v2)
     Copy OK
Track 16
     Filename D:\Michael Feinstein\Michael Feinstein Sings the Hugh Martin Songbook\16 - Have Yourself a Merry Little Christmas.wav
     Pre-gap length  0:00:00.01
     Peak level 98.8 %
     Extraction speed 6.8 X
     Track quality 100.0 %
     Test CRC 87996730
     Copy CRC 87996730
     Accurately ripped (confidence 8)  [47B1FD69]  (AR v2)
     Copy OK
Track 17
     Filename D:\Michael Feinstein\Michael Feinstein Sings the Hugh Martin Songbook\17 - I Never Felt Better.wav
     Peak level 92.7 %
     Extraction speed 7.6 X
     Track quality 100.0 %
     Test CRC 41CEEF89
     Copy CRC 41CEEF89
     Accurately ripped (confidence 7)  [3498BEDF]  (AR v2)
     Copy OK
Track 18
     Filename D:\Michael Feinstein\Michael Feinstein Sings the Hugh Martin Songbook\18 - I Have Something to Say to You.wav
     Pre-gap length  0:00:00.01
     Peak level 82.2 %
     Extraction speed 7.0 X
     Track quality 100.0 %
     Test CRC 83D65A47
     Copy CRC 83D65A47
     Accurately ripped (confidence 7)  [86A7804D]  (AR v2)
     Copy OK
Track 19
     Filename D:\Michael Feinstein\Michael Feinstein Sings the Hugh Martin Songbook\19 - Love.wav
     Pre-gap length  0:00:00.01
     Peak level 97.5 %
     Extraction speed 6.1 X
     Track quality 100.0 %
     Test CRC ED11BBFA
     Copy CRC ED11BBFA
     Accurately ripped (confidence 7)  [8507F7D2]  (AR v2)
     Copy OK
Track 20
     Filename D:\Michael Feinstein\Michael Feinstein Sings the Hugh Martin Songbook\20 - Finale- Janette,When does this Feeling Go Away.wav
     Peak level 97.9 %
     Extraction speed 5.6 X
     Track quality 100.0 %
     Test CRC 692D1DE3
     Copy CRC 692D1DE3
     Accurately ripped (confidence 7)  [15C13ECD]  (AR v2)
     Copy OK
All tracks accurately ripped
No errors occurred
End of status report
---- CUETools DB Plugin V2.1.6
[CTDB TOCID: cKsffHrCu4CwT8QFJ6b1uXtXUDM-] found
Submit result: already submitted
Track | CTDB Status
  1   | (11/11) Accurately ripped
  2   | (11/11) Accurately ripped
  3   | (11/11) Accurately ripped
  4   | (11/11) Accurately ripped
  5   | (11/11) Accurately ripped
  6   | (11/11) Accurately ripped
  7   | (11/11) Accurately ripped
  8   | (11/11) Accurately ripped
  9   | (11/11) Accurately ripped
 10   | (11/11) Accurately ripped
 11   | (11/11) Accurately ripped
 12   | (11/11) Accurately ripped
 13   | (11/11) Accurately ripped
 14   | (11/11) Accurately ripped
 15   | (11/11) Accurately ripped
 16   | (11/11) Accurately ripped
 17   | (11/11) Accurately ripped
 18   | (11/11) Accurately ripped
 19   | (11/11) Accurately ripped
 20   | (11/11) Accurately ripped
==== Log checksum F425AFFD4671A0EA853B941456C857DB9EE022316371D4CDB8E8D2015A10F102 ====
Код:
REM GENRE Jazz
REM DATE 1995
REM DISCID 170DD114
REM COMMENT "ExactAudioCopy v1.3"
PERFORMER "Michael Feinstein & Hugh Martin"
TITLE "Michael Feinstein Sings the Hugh Martin Songbook"
FILE "01 - The Two of Us.wav" WAVE
  TRACK 01 AUDIO
    TITLE "The Two of Us"
    PERFORMER "Michael Feinstein & Hugh Martin"
    INDEX 01 00:00:00
FILE "02 - Here Come the Dreamers.wav" WAVE
  TRACK 02 AUDIO
    TITLE "Here Come the Dreamers"
    PERFORMER "Michael Feinstein & Hugh Martin"
    INDEX 01 00:00:00
  TRACK 03 AUDIO
    TITLE "Pass That Peace Pipe"
    PERFORMER "Michael Feinstein & Hugh Martin"
    INDEX 00 01:54:02
FILE "03 - Pass That Peace Pipe.wav" WAVE
    INDEX 01 00:00:00
  TRACK 04 AUDIO
    TITLE "Ev'ry Time"
    PERFORMER "Michael Feinstein & Hugh Martin"
    INDEX 00 02:28:24
FILE "04 - Ev'ry Time.wav" WAVE
    INDEX 01 00:00:00
  TRACK 05 AUDIO
    TITLE "I Like the Feeling"
    PERFORMER "Michael Feinstein & Hugh Martin"
    INDEX 00 03:35:71
FILE "05 - I Like the Feeling.wav" WAVE
    INDEX 01 00:00:00
  TRACK 06 AUDIO
    TITLE "The Girl Next Door"
    PERFORMER "Michael Feinstein & Hugh Martin"
    INDEX 00 02:14:09
FILE "06 - The Girl Next Door.wav" WAVE
    INDEX 01 00:00:00
  TRACK 07 AUDIO
    TITLE "The Trolley Song"
    PERFORMER "Michael Feinstein & Hugh Martin"
    INDEX 00 03:08:59
FILE "07 - The Trolley Song.wav" WAVE
    INDEX 01 00:00:00
  TRACK 08 AUDIO
    TITLE "At Last We're Alone"
    PERFORMER "Michael Feinstein & Hugh Martin"
    INDEX 00 02:31:74
FILE "08 - At Last We're Alone.wav" WAVE
    INDEX 01 00:00:00
  TRACK 09 AUDIO
    TITLE "Connecticut"
    PERFORMER "Michael Feinstein & Hugh Martin"
    INDEX 00 03:10:19
FILE "09 - Connecticut.wav" WAVE
    INDEX 01 00:00:00
  TRACK 10 AUDIO
    TITLE "Love Can Change the Stars"
    PERFORMER "Michael Feinstein & Hugh Martin"
    INDEX 00 02:55:29
FILE "10 - Love Can Change the Stars.wav" WAVE
    INDEX 01 00:00:00
FILE "11 - You'd Better Love Me.wav" WAVE
  TRACK 11 AUDIO
    TITLE "You'd Better Love Me"
    PERFORMER "Michael Feinstein & Hugh Martin"
    INDEX 01 00:00:00
  TRACK 12 AUDIO
    TITLE "Tiny Room"
    PERFORMER "Michael Feinstein & Hugh Martin"
    INDEX 00 02:27:44
FILE "12 - Tiny Room.wav" WAVE
    INDEX 01 00:00:00
  TRACK 13 AUDIO
    TITLE "Out of Doors"
    PERFORMER "Michael Feinstein & Hugh Martin"
    INDEX 00 02:44:11
FILE "13 - Out of Doors.wav" WAVE
    INDEX 01 00:00:00
  TRACK 14 AUDIO
    TITLE "You Are for Loving"
    PERFORMER "Michael Feinstein & Hugh Martin"
    INDEX 00 02:40:74
FILE "14 - You Are for Loving.wav" WAVE
    INDEX 01 00:00:00
  TRACK 15 AUDIO
    TITLE "Gotta Dance"
    PERFORMER "Michael Feinstein & Hugh Martin"
    INDEX 00 03:40:42
FILE "15 - Gotta Dance.wav" WAVE
    INDEX 01 00:00:00
  TRACK 16 AUDIO
    TITLE "Have Yourself a Merry Little Christmas"
    PERFORMER "Michael Feinstein & Hugh Martin"
    INDEX 00 02:27:46
FILE "16 - Have Yourself a Merry Little Christmas.wav" WAVE
    INDEX 01 00:00:00
FILE "17 - I Never Felt Better.wav" WAVE
  TRACK 17 AUDIO
    TITLE "I Never Felt Better"
    PERFORMER "Michael Feinstein & Hugh Martin"
    INDEX 01 00:00:00
  TRACK 18 AUDIO
    TITLE "I Have Something to Say to You"
    PERFORMER "Michael Feinstein & Hugh Martin"
    INDEX 00 03:56:66
FILE "18 - I Have Something to Say to You.wav" WAVE
    INDEX 01 00:00:00
  TRACK 19 AUDIO
    TITLE "Love"
    PERFORMER "Michael Feinstein & Hugh Martin"
    INDEX 00 04:36:37
FILE "19 - Love.wav" WAVE
    INDEX 01 00:00:00
FILE "20 - Finale- Janette,When Does This Feeling Go Away.wav" WAVE
  TRACK 20 AUDIO
    TITLE "Finale: Janette/When Does This Feeling Go Away?"
    PERFORMER "Michael Feinstein & Hugh Martin"
    INDEX 01 00:00:00
Код:
[CUETools log; Date: 30.12.2019 1:53:39; Version: 2.1.6]
[CTDB TOCID: cKsffHrCu4CwT8QFJ6b1uXtXUDM-] found.
Track | CTDB Status
  1   | (12/12) Accurately ripped
  2   | (12/12) Accurately ripped
  3   | (12/12) Accurately ripped
  4   | (12/12) Accurately ripped
  5   | (12/12) Accurately ripped
  6   | (12/12) Accurately ripped
  7   | (12/12) Accurately ripped
  8   | (12/12) Accurately ripped
  9   | (12/12) Accurately ripped
 10   | (12/12) Accurately ripped
 11   | (12/12) Accurately ripped
 12   | (12/12) Accurately ripped
 13   | (12/12) Accurately ripped
 14   | (12/12) Accurately ripped
 15   | (12/12) Accurately ripped
 16   | (12/12) Accurately ripped
 17   | (12/12) Accurately ripped
 18   | (12/12) Accurately ripped
 19   | (12/12) Accurately ripped
 20   | (12/12) Accurately ripped
[AccurateRip ID: 00290242-025fc634-170dd114] found.
Track   [  CRC   |   V2   ] Status
 01     [a56800e8|d80ab3fa] (04+07/11) Accurately ripped
 02     [5602c6ed|f3ecaec8] (04+07/11) Accurately ripped
 03     [90d2fc41|3bb016a6] (04+08/12) Accurately ripped
 04     [84efc5f8|fc6a7e54] (04+08/12) Accurately ripped
 05     [3bd8bdba|1eaa5d22] (04+07/11) Accurately ripped
 06     [57ea870f|bba46717] (04+07/11) Accurately ripped
 07     [20f016a6|a8ed95b3] (04+08/12) Accurately ripped
 08     [85c5e71c|77cda667] (04+07/11) Accurately ripped
 09     [2cba1fdf|d0f8cdd0] (04+07/11) Accurately ripped
 10     [fc98b3b4|1f08d5b6] (04+07/11) Accurately ripped
 11     [2cf12551|b3fb527c] (04+07/11) Accurately ripped
 12     [1b7c3d02|9e3d4806] (04+07/11) Accurately ripped
 13     [1960f6dc|e5e1c21e] (04+07/11) Accurately ripped
 14     [dd8a5c2f|1d603448] (04+08/12) Accurately ripped
 15     [8aec46b9|b76faba7] (04+07/11) Accurately ripped
 16     [8d8c2660|47b1fd69] (04+08/12) Accurately ripped
 17     [0fb1b2e9|3498bedf] (04+07/11) Accurately ripped
 18     [3f41d980|86a7804d] (04+07/11) Accurately ripped
 19     [bed8a832|8507f7d2] (04+07/11) Accurately ripped
 20     [df3f95ae|15c13ecd] (04+07/11) Accurately ripped
Track Peak [ CRC32  ] [W/O NULL] [  LOG   ]
 --   98,8 [EEE61583] [9D74C57E]
 01   98,8 [7C994F40] [D9F57089]   CRC32
 02   81,8 [CDF54247] [CD3EE229]   CRC32
 03   98,8 [EC523429] [6944E917]   CRC32
 04   92,1 [32A68C60] [59D5FB0D]   CRC32
 05   98,8 [64A66F8C] [D85C5847]   CRC32
 06   92,5 [0791C43C] [4D142C56]   CRC32
 07   98,8 [DC76AFBE] [7FBE0C14]   CRC32
 08   98,8 [FD519C86] [6BE88F32]   CRC32
 09   98,8 [6540511F] [BD875FB2]   CRC32
 10   91,8 [DEC547BD] [85A42259]   CRC32
 11   98,8 [15D593C2] [EB00D220]   CRC32
 12   98,8 [6ECF90E6] [29F908A7]   CRC32
 13   96,8 [C0B7951B] [DC7CF300]   CRC32
 14   88,6 [8DF5384F] [1CF7A968]   CRC32
 15   95,9 [C0256A32] [98B887AD]   CRC32
 16   98,8 [87996730] [2A098238]   CRC32
 17   92,7 [41CEEF89] [73123F8B]   CRC32
 18   82,2 [83D65A47] [13398606]   CRC32
 19   97,5 [ED11BBFA] [9E6D1604]   CRC32
 20   97,9 [692D1DE3] [AE79702F]   CRC32
Of the four veteran songwriters who have collaborated with Michael Feinstein on his series of songbooks of their work thus far (the others being Burton Lane, Jule Styne, and Jerry Herman), 81-year-old Hugh Martin is probably the least well known. Those who do recognize the name may associate it with another, Ralph Blane, since Martin and Blane were responsible, among other things, for a trio of famous songs in the 1944 movie musical Meet Me in St. Louis, starring Judy Garland: "The Boy Next Door," the Oscar-nominated "The Trolley Song," and "Have Yourself a Merry Little Christmas," all of which are featured here. It's not clear why Blane was excluded from this album, but he may have been too ill to participate. (Suffering from Parkinson's disease, he died two months after the record's release.) In any case, Martin had an extensive songwriting career without his on-again, off-again partner, including the Broadway musicals Look, Ma, I'm Dancin'!, Make a Wish, and High Spirits. (Like John Lennon and Paul McCartney toward the end of their partnership, Martin and Blane didn't actually write together; they wrote separate songs, then got together to polish them and shared credit.) So, there was plenty of material for Feinstein to choose from, also including another Oscar nominee, Martin and Blane's "Pass the Peace Pipe" from the film adaptation of Good News. He seems not to have felt comfortable with another Martin and Blane hit, however, since there is no performance of "Buckle Down, Winsocki" from their musical Best Foot Forward. Martin obligingly provides gender-switched lyrics for what is now called "The Girl Next Door" and "The Trolley Song," and also pens some updated words referring to himself and Feinstein to lead things off with "The Two of Us" from Look, Ma, I'm Dancin'!, on which he duets as well as playing piano; he also sings on "I Like the Feeling" and "I Never Felt Better." As a pianist who once accompanied Garland at the Palace, he is fully up to expressing his music in support of Feinstein's vocals, occasionally slipping in interesting touches, such as a bit of atonality at the end of the bittersweet "Have Yourself a Merry Little Christmas." Just as he did with Lane, Styne, and Herman, Feinstein exhibits a warm and comfortable rapport with his songwriter/accompanist here, showing off Hugh Martin's body of work to best effect.
Правила, инструкции, FAQ!!!
Торрент  Добавлен [05 янв 2020, 15:24] Скачать торрент Магнет ссылка
Скачать торрент
[ Размер 21.06 КБ / Просмотров 4 ]

Статус
Проверен 
 
Размер  241.14 МБ
Приватный: Нет (DHT включён)
.torrent скачан  0
 


     Отправить личное сообщение
   
Страница 1 из 1
Показать сообщения за:  Поле сортировки  
Начать новую тему Ответить на тему


Сейчас этот форум просматривают: нет зарегистрированных пользователей и гости: 0


Вы не можете начинать темы
Вы не можете отвечать на сообщения
Вы не можете редактировать свои сообщения
Вы не можете удалять свои сообщения
Вы не можете добавлять вложения

Перейти:  
cron
cron