Начать новую тему Ответить на тему
Статистика раздачи
Размер: 283.54 МБ | Добавлен: 22 июн 2020, 15:37 | Скачали: 0
Сидеров: 0  [0 байт/сек]    Личеров: 0  [0 байт/сек]
Пред. тема | След. тема 

Автор
Сообщение

СообщениеДобавлено: 22 июн 2020, 15:37 

Ответить с цитатой 

Liane Carroll - Dolly Bird
Жанр: Vocal Jazz
Носитель: CD
Страна-производитель диска (релиза): Великобритания
Год издания: 2007
Издатель (лейбл): Ronnie Scott's Jazz House
Номер по каталогу: JHCD 051
Аудиокодек: FLAC (*.flac)
Тип рипа: tracks+.cue
Продолжительность: 00:55:58
Источник: Funk
Наличие сканов в содержимом раздачи: нет
Треклист:
01. Life in One Day (Jones) - 4:02
02. Bird Chase Bird (Kirtley-Pickard) - 4:37
03. Do It Again (Becker-Fagen) - 5:29
04. The Briar and the Rose (Waits) - 4:15
05. Yatra Ta (Maria) - 6:49
06. Suzanne (Cohen) - 5:37
07. Natural Woman (King) - 7:16
08. Fairytale of New York (MacGowan) - 5:18
09. Perfect Day (Reed) - 5:23
10. And When I Die (Nyro) - 7:12
Состав:
Liane Carroll - vocals, piano
Peter Kirtley - guitar, vocals
Steve Lamb - bass
Greg Leppard - drums
Recorded live at Ronnie Scott's Club, London in April 1997.
Код:
Exact Audio Copy V1.3 from 2. September 2016
EAC extraction logfile from 21. May 2020, 0:26
Liane Carroll / Dolly Bird
Used drive  : HL-DT-STDVDRAM GP57EB40   Adapter: 1  ID: 0
Read mode               : Secure
Utilize accurate stream : Yes
Defeat audio cache      : Yes
Make use of C2 pointers : No
Read offset correction                      : 6
Overread into Lead-In and Lead-Out          : No
Fill up missing offset samples with silence : Yes
Delete leading and trailing silent blocks   : No
Null samples used in CRC calculations       : Yes
Used interface                              : Native Win32 interface for Win NT & 2000
Gap handling                                : Appended to previous track
Used output format              : User Defined Encoder
Selected bitrate                : 1024 kBit/s
Quality                         : High
Add ID3 tag                     : No
Command line compressor         : C:\Program Files (x86)\Exact Audio Copy\Flac\flac.exe
Additional command line options : -8 -V -T "ARTIST=%artist%" -T "TITLE=%title%" -T "ALBUM=%albumtitle%" -T "DATE=%year%" -T "TRACKNUMBER=%tracknr%" -T "GENRE=%genre%" -T "PERFORMER=%albuminterpret%" -T "COMPOSER=%composer%" %haslyrics%--tag-from-file=LYRICS="%lyricsfile%"%haslyrics% -T "ALBUMARTIST=%albumartist%" -T "DISCNUMBER=%cdnumber%" -T "TOTALDISCS=%totalcds%" -T "TOTALTRACKS=%numtracks%" -T "COMMENT=%comment%" %source% -o %dest%
TOC of the extracted CD
     Track |   Start  |  Length  | Start sector | End sector
    ---------------------------------------------------------
        1  |  0:00.00 |  4:02.00 |         0    |    18149
        2  |  4:02.00 |  4:37.00 |     18150    |    38924
        3  |  8:39.00 |  5:28.49 |     38925    |    63573
        4  | 14:07.49 |  4:15.26 |     63574    |    82724
        5  | 18:23.00 |  6:49.00 |     82725    |   113399
        6  | 25:12.00 |  5:37.00 |    113400    |   138674
        7  | 30:49.00 |  7:16.00 |    138675    |   171374
        8  | 38:05.00 |  5:18.00 |    171375    |   195224
        9  | 43:23.00 |  5:22.55 |    195225    |   219429
       10  | 48:45.55 |  7:12.23 |    219430    |   251852
Track  1
     Filename C:\EAC Rips\01 - Life In One Day.wav
     Pre-gap length  0:00:02.00
     Peak level 98.3 %
     Extraction speed 1.1 X
     Track quality 99.9 %
     Test CRC 4821500B
     Copy CRC 4821500B
     Cannot be verified as accurate (confidence 1)  [8112A2D9], AccurateRip returned [E07D32FB]  (AR v2)
     Copy OK
Track  2
     Filename C:\EAC Rips\02 - Bird Chase Bird.wav
     Peak level 91.4 %
     Extraction speed 1.4 X
     Track quality 100.0 %
     Test CRC CBA74E3D
     Copy CRC CBA74E3D
     Cannot be verified as accurate (confidence 1)  [A5769633], AccurateRip returned [25E14D30]  (AR v2)
     Copy OK
Track  3
     Filename C:\EAC Rips\03 - Do It Again.wav
     Peak level 98.0 %
     Extraction speed 1.5 X
     Track quality 99.9 %
     Test CRC CA10858C
     Copy CRC CA10858C
     Cannot be verified as accurate (confidence 1)  [7DE98E85], AccurateRip returned [7E925091]  (AR v2)
     Copy OK
Track  4
     Filename C:\EAC Rips\04 - The Briar And The Rose.wav
     Peak level 48.3 %
     Extraction speed 1.7 X
     Track quality 100.0 %
     Test CRC 7F4DABA4
     Copy CRC 7F4DABA4
     Cannot be verified as accurate (confidence 1)  [6BEA6AA8], AccurateRip returned [DA824C79]  (AR v2)
     Copy OK
Track  5
     Filename C:\EAC Rips\05 - Yatra Ta.wav
     Peak level 98.3 %
     Extraction speed 1.8 X
     Track quality 99.9 %
     Test CRC F3F7E449
     Copy CRC F3F7E449
     Cannot be verified as accurate (confidence 1)  [77C48652], AccurateRip returned [F2B3822B]  (AR v2)
     Copy OK
Track  6
     Filename C:\EAC Rips\06 - Suzanne.wav
     Peak level 96.2 %
     Extraction speed 1.9 X
     Track quality 99.9 %
     Test CRC BD601E96
     Copy CRC BD601E96
     Cannot be verified as accurate (confidence 1)  [1F60789A], AccurateRip returned [8A6F9C48]  (AR v2)
     Copy OK
Track  7
     Filename C:\EAC Rips\07 - Natural Woman.wav
     Peak level 47.8 %
     Extraction speed 2.2 X
     Track quality 100.0 %
     Test CRC A5D9C4D6
     Copy CRC A5D9C4D6
     Cannot be verified as accurate (confidence 1)  [BECAAC98], AccurateRip returned [E14B425C]  (AR v2)
     Copy OK
Track  8
     Filename C:\EAC Rips\08 - Fairytale Of New York.wav
     Peak level 98.3 %
     Extraction speed 2.3 X
     Track quality 100.0 %
     Test CRC 3B7FD975
     Copy CRC 3B7FD975
     Cannot be verified as accurate (confidence 1)  [61D28E79], AccurateRip returned [48FB92E6]  (AR v2)
     Copy OK
Track  9
     Filename C:\EAC Rips\09 - Perfect Day.wav
     Peak level 96.0 %
     Extraction speed 2.4 X
     Track quality 100.0 %
     Test CRC 6DA76C20
     Copy CRC 6DA76C20
     Cannot be verified as accurate (confidence 1)  [D6CECCC9], AccurateRip returned [510103F5]  (AR v2)
     Copy OK
Track 10
     Filename C:\EAC Rips\10 - And When I Die.wav
     Peak level 98.4 %
     Extraction speed 2.6 X
     Track quality 100.0 %
     Test CRC 337B25D1
     Copy CRC 337B25D1
     Cannot be verified as accurate (confidence 1)  [C9227341], AccurateRip returned [2A5F020B]  (AR v2)
     Copy OK
No tracks could be verified as accurate
You may have a different pressing from the one(s) in the database
No errors occurred
End of status report
---- CUETools DB Plugin V2.1.6
[CTDB TOCID: woG_uN7UIk9rr30fKyG82w6gUbk-] found
Submit result: woG_uN7UIk9rr30fKyG82w6gUbk- has been submitted
Track | CTDB Status
  1   | (0/6) No match
  2   | (0/6) No match
  3   | (6/6) Accurately ripped
  4   | (0/6) No match
  5   | (0/6) No match
  6   | (0/6) No match
  7   | (0/6) No match
  8   | (6/6) Accurately ripped
  9   | (0/6) No match
 10   | (0/6) No match
==== Log checksum BE8D320F4E6BEF12F8EFF09B13286E731A350828DADC76C5D5EAB67CB0BDD238 ====
Код:
REM GENRE Jazz
REM DATE 1997
REM DISCID 7E0D1E0A
REM COMMENT "ExactAudioCopy v1.3"
PERFORMER "Liane Carroll"
TITLE "Dolly Bird"
FILE "01 - Life in One Day.wav" WAVE
  TRACK 01 AUDIO
    TITLE "Life in One Day"
    PERFORMER "Liane Carroll"
    INDEX 01 00:00:00
FILE "02 - Bird Chase Bird.wav" WAVE
  TRACK 02 AUDIO
    TITLE "Bird Chase Bird"
    PERFORMER "Liane Carroll"
    INDEX 01 00:00:00
FILE "03 - Do It Again.wav" WAVE
  TRACK 03 AUDIO
    TITLE "Do It Again"
    PERFORMER "Liane Carroll"
    INDEX 01 00:00:00
FILE "04 - The Briar and the Rose.wav" WAVE
  TRACK 04 AUDIO
    TITLE "The Briar and the Rose"
    PERFORMER "Liane Carroll"
    INDEX 01 00:00:00
FILE "05 - Yatra Ta.wav" WAVE
  TRACK 05 AUDIO
    TITLE "Yatra Ta"
    PERFORMER "Liane Carroll"
    INDEX 01 00:00:00
FILE "06 - Suzanne.wav" WAVE
  TRACK 06 AUDIO
    TITLE "Suzanne"
    PERFORMER "Liane Carroll"
    INDEX 01 00:00:00
FILE "07 - Natural Woman.wav" WAVE
  TRACK 07 AUDIO
    TITLE "Natural Woman"
    PERFORMER "Liane Carroll"
    INDEX 01 00:00:00
FILE "08 - Fairytale of New York.wav" WAVE
  TRACK 08 AUDIO
    TITLE "Fairytale of New York"
    PERFORMER "Liane Carroll"
    INDEX 01 00:00:00
FILE "09 - Perfect Day.wav" WAVE
  TRACK 09 AUDIO
    TITLE "Perfect Day"
    PERFORMER "Liane Carroll"
    INDEX 01 00:00:00
FILE "10 - And When I Die.wav" WAVE
  TRACK 10 AUDIO
    TITLE "And When I Die"
    PERFORMER "Liane Carroll"
    INDEX 01 00:00:00
Код:
[CUETools log; Date: 26.05.2020 12:14:39; Version: 2.1.6]
[CTDB TOCID: woG_uN7UIk9rr30fKyG82w6gUbk-] found.
Track | CTDB Status
  1   | (1/7) Accurately ripped
  2   | (1/7) Accurately ripped
  3   | (7/7) Accurately ripped
  4   | (1/7) Accurately ripped
  5   | (1/7) Accurately ripped
  6   | (1/7) Accurately ripped
  7   | (1/7) Accurately ripped
  8   | (7/7) Accurately ripped
  9   | (1/7) Accurately ripped
 10   | (1/7) Accurately ripped
[AccurateRip ID: 0013bc14-00a134de-7e0d1e0a] found.
Track   [  CRC   |   V2   ] Status
 01     [71a8cadc|8112a2d9] (0+0/3) No match
 02     [f71ea436|a5769633] (0+0/3) No match
 03     [2366696c|7de98e85] (0+0/3) No match
 04     [6b4cf1a8|6bea6aa8] (0+0/3) No match
 05     [2fe41e89|77c48652] (0+0/3) No match
 06     [34723e77|1f60789a] (0+0/3) No match
 07     [a2bf96d4|becaac98] (0+0/3) No match
 08     [5d9c54ff|61d28e79] (0+0/3) No match
 09     [1821317f|d6ceccc9] (0+0/3) No match
 10     [e70ef68d|c9227341] (0+0/3) No match
Offsetted by 324:
 01     [74ebfb14] (0/3) No match (V2 was not tested)
 02     [98549049] (0/3) No match
 03     [de1eede8] (0/3) No match
 04     [a2538133] (0/3) No match
 05     [04aca7fa] (0/3) No match
 06     [7493ac7a] (0/3) No match
 07     [7dee6bbf] (0/3) No match
 08     [27364791] (0/3) No match
 09     [23622e05] (0/3) No match
 10     [7e7dfafa] (0/3) No match
Offsetted by 326:
 01     [c5143f65] (0/3) No match
 02     [31da055b] (0/3) No match (V2 was not tested)
 03     [7e925091] (1/3) Accurately ripped
 04     [b7a00330] (0/3) No match (V2 was not tested)
 05     [7a7ec612] (0/3) No match (V2 was not tested)
 06     [ce5296dc] (0/3) No match (V2 was not tested)
 07     [fbec85c7] (0/3) No match (V2 was not tested)
 08     [48fb92e6] (1/3) Accurately ripped
 09     [f59006e9] (0/3) No match (V2 was not tested)
 10     [d7451cec] (0/3) No match (V2 was not tested)
Track Peak [ CRC32  ] [W/O NULL] [  LOG   ]
 --   98,4 [B84FCA0F] [C2FD97A2]
 01   98,3 [4821500B] [216814BC]   CRC32
 02   91,4 [CBA74E3D] [0AB816D3]   CRC32
 03   98,0 [CA10858C] [95492A2A]   CRC32
 04   48,3 [7F4DABA4] [BC11C386]   CRC32
 05   98,3 [F3F7E449] [3AF7C154]   CRC32
 06   96,2 [BD601E96] [F4B8E00C]   CRC32
 07   47,8 [A5D9C4D6] [02EED3AD]   CRC32
 08   98,3 [3B7FD975] [0E44CE0A]   CRC32
 09   96,0 [6DA76C20] [0C4D5B00]   CRC32
 10   98,4 [337B25D1] [B5AF31CF]   CRC32
Правила, инструкции, FAQ!!!
Торрент  Добавлен [22 июн 2020, 15:37] Скачать торрент Магнет ссылка
Скачать торрент
[ Размер 12.39 КБ / Просмотров 1 ]

Статус
Проверен 
 
Размер  283.54 МБ
Приватный: Нет (DHT включён)
.torrent скачан  0
 


     Отправить личное сообщение
   
Страница 1 из 1
Показать сообщения за:  Поле сортировки  
Начать новую тему Ответить на тему


Сейчас этот форум просматривают: нет зарегистрированных пользователей и гости: 0


Вы не можете начинать темы
Вы не можете отвечать на сообщения
Вы не можете редактировать свои сообщения
Вы не можете удалять свои сообщения
Вы не можете добавлять вложения

Перейти:  
cron