Начать новую тему Ответить на тему
Статистика раздачи
Размер: 317.83 МБ | Добавлен: 19 мар 2020, 22:22 | Скачали: 1
Сидеров: 13  [0 байт/сек]    Личеров: 4  [0 байт/сек]
Пред. тема | След. тема 

Автор
Сообщение

СообщениеДобавлено: 19 мар 2020, 22:22 

Ответить с цитатой 

Lena Horne - Stormy Weather
Жанр: Vocal Jazz
Носитель: CD
Страна-производитель диска (релиза): EU
Год издания: 1993
Издатель (лейбл): Classic Jazz
Номер по каталогу: CDCD 1084
Аудиокодек: FLAC (*.flac)
Тип рипа: tracks+.cue
Продолжительность: 00:54:17
Источник: polymath
Наличие сканов в содержимом раздачи: да
Треклист:
01. Falling in Love with You (2:00)
02. From This Moment On (1:51)
03. Night and Day (2:37)
04. Old Devil Moon (2:35)
05. More (1:42)
06. My Blue Heaven (2:22)
07. Cuckoo in the Clock (3:28)
08. Meditation (2:15)
09. By Myself (2:40)
10. Why Was I Born (2:21)
11. Good for Nothing Joe (3:37)
12. Love Me or Leave Me (2:56)
13. I Got It Bad (And That Ain't Good) (3:46)
14. Stormy Weather (3:21)
15. Honeysuckle Rose (2:57)
16. Lover Man (3:25)
17. Love (2:47)
18. Wish I Was Back in My Baby's Arms (2:32)
19. The Lady Is a Tramp (2:20)
20. Can't Help Lovin' That Man (2:45)
Код:
X Lossless Decoder version 20191004 (152.0)
XLD extraction logfile from 2020-03-02 15:38:33 -0500
Lena Horne / Stormy Weather
Used drive : HL-DT-ST BD-RE  WH16NS40 (revision 1.00)
Media type : Pressed CD
Ripper mode             : XLD Secure Ripper
Disable audio cache     : OK for the drive with a cache less than 1375KiB
Make use of C2 pointers : NO
Read offset correction  : 6
Max retry count         : 100
Gap status              : Analyzed, Appended (except HTOA)
TOC of the extracted CD
     Track |   Start  |  Length  | Start sector | End sector
    ---------------------------------------------------------
        1  | 00:00:33 | 02:00:32 |        33    |     9064
        2  | 02:00:65 | 01:50:40 |      9065    |    17354
        3  | 03:51:30 | 02:36:70 |     17355    |    29124
        4  | 06:28:25 | 02:35:13 |     29125    |    40762
        5  | 09:03:38 | 01:41:55 |     40763    |    48392
        6  | 10:45:18 | 02:22:27 |     48393    |    59069
        7  | 13:07:45 | 03:28:18 |     59070    |    74687
        8  | 16:35:63 | 02:14:70 |     74688    |    84807
        9  | 18:50:58 | 02:40:07 |     84808    |    96814
       10  | 21:30:65 | 02:21:13 |     96815    |   107402
       11  | 23:52:03 | 03:36:67 |    107403    |   123669
       12  | 27:28:70 | 02:55:48 |    123670    |   136842
       13  | 30:24:43 | 03:46:22 |    136843    |   153814
       14  | 34:10:65 | 03:20:43 |    153815    |   168857
       15  | 37:31:33 | 02:57:00 |    168858    |   182132
       16  | 40:28:33 | 03:25:35 |    182133    |   197542
       17  | 43:53:68 | 02:47:27 |    197543    |   210094
       18  | 46:41:20 | 02:31:43 |    210095    |   221462
       19  | 49:12:63 | 02:19:67 |    221463    |   231954
       20  | 51:32:55 | 02:44:43 |    231955    |   244297
AccurateRip Summary (DiscID: 0025342f-022e3f25-090cb914)
    Track 01 : OK (v2, confidence 2/2)
    Track 02 : OK (v2, confidence 2/2)
    Track 03 : OK (v2, confidence 2/2)
    Track 04 : OK (v2, confidence 2/2)
    Track 05 : OK (v2, confidence 2/2)
    Track 06 : OK (v2, confidence 2/2)
    Track 07 : OK (v2, confidence 2/2)
    Track 08 : OK (v2, confidence 2/2)
    Track 09 : OK (v2, confidence 2/2)
    Track 10 : OK (v2, confidence 2/2)
    Track 11 : OK (v1+v2, confidence 2/3)
    Track 12 : OK (v2, confidence 2/2)
    Track 13 : OK (v2, confidence 2/2)
    Track 14 : OK (v2, confidence 2/2)
    Track 15 : OK (v2, confidence 2/2)
    Track 16 : OK (v2, confidence 2/2)
    Track 17 : OK (v2, confidence 2/2)
    Track 18 : OK (v2, confidence 2/2)
    Track 19 : OK (v2, confidence 2/2)
    Track 20 : OK (v2, confidence 2/2)
        ->All tracks accurately ripped.
All Tracks
    Album gain               : -2.62 dB
    Peak                     : 0.914215
    Statistics
        Read error                           : 0
        Jitter error (maybe fixed)           : 0
        Retry sector count                   : 0
        Damaged sector count                 : 0
Track 01
    Filename : /Volumes/Master/XLD Rips/Lena Horne - Stormy Weather [ALAC]/01 - Falling in Love with You.m4a
               /Volumes/Master/XLD Rips/Lena Horne - Stormy Weather [FLAC]/01 - Falling in Love with You.flac
    Pre-gap length : 00:02:33
    Track gain               : -3.21 dB
    Peak                     : 0.794708
    CRC32 hash (test run)    : E800AB0B
    CRC32 hash               : E800AB0B
    CRC32 hash (skip zero)   : 328694DF
    AccurateRip v1 signature : 4EE29A0A
    AccurateRip v2 signature : EEFE679F
        ->Accurately ripped (v2, confidence 2/2)
    Statistics
        Read error                           : 0
        Jitter error (maybe fixed)           : 0
        Retry sector count                   : 0
        Damaged sector count                 : 0
Track 02
    Filename : /Volumes/Master/XLD Rips/Lena Horne - Stormy Weather [ALAC]/02 - From This Moment On.m4a
               /Volumes/Master/XLD Rips/Lena Horne - Stormy Weather [FLAC]/02 - From This Moment On.flac
    Pre-gap length : 00:02:62
    Track gain               : -3.56 dB
    Peak                     : 0.871368
    CRC32 hash (test run)    : 31BFB35A
    CRC32 hash               : 31BFB35A
    CRC32 hash (skip zero)   : 3503C07D
    AccurateRip v1 signature : 73794DB9
    AccurateRip v2 signature : E5C4897B
        ->Accurately ripped (v2, confidence 2/2)
    Statistics
        Read error                           : 0
        Jitter error (maybe fixed)           : 0
        Retry sector count                   : 0
        Damaged sector count                 : 0
Track 03
    Filename : /Volumes/Master/XLD Rips/Lena Horne - Stormy Weather [ALAC]/03 - Night and Day.m4a
               /Volumes/Master/XLD Rips/Lena Horne - Stormy Weather [FLAC]/03 - Night and Day.flac
    Pre-gap length : 00:02:62
    Track gain               : -2.38 dB
    Peak                     : 0.788757
    CRC32 hash (test run)    : 9D9103C4
    CRC32 hash               : 9D9103C4
    CRC32 hash (skip zero)   : 50E5FA6F
    AccurateRip v1 signature : 645D7B26
    AccurateRip v2 signature : 8464EF56
        ->Accurately ripped (v2, confidence 2/2)
    Statistics
        Read error                           : 0
        Jitter error (maybe fixed)           : 0
        Retry sector count                   : 0
        Damaged sector count                 : 0
Track 04
    Filename : /Volumes/Master/XLD Rips/Lena Horne - Stormy Weather [ALAC]/04 - Old Devil Moon.m4a
               /Volumes/Master/XLD Rips/Lena Horne - Stormy Weather [FLAC]/04 - Old Devil Moon.flac
    Pre-gap length : 00:02:62
    Track gain               : -2.86 dB
    Peak                     : 0.826752
    CRC32 hash (test run)    : 4B59980B
    CRC32 hash               : 4B59980B
    CRC32 hash (skip zero)   : 696F039D
    AccurateRip v1 signature : 83AB23D4
    AccurateRip v2 signature : EC1348D3
        ->Accurately ripped (v2, confidence 2/2)
    Statistics
        Read error                           : 0
        Jitter error (maybe fixed)           : 0
        Retry sector count                   : 0
        Damaged sector count                 : 0
Track 05
    Filename : /Volumes/Master/XLD Rips/Lena Horne - Stormy Weather [ALAC]/05 - More.m4a
               /Volumes/Master/XLD Rips/Lena Horne - Stormy Weather [FLAC]/05 - More.flac
    Pre-gap length : 00:02:63
    Track gain               : -2.07 dB
    Peak                     : 0.817841
    CRC32 hash (test run)    : 8DE0CA15
    CRC32 hash               : 8DE0CA15
    CRC32 hash (skip zero)   : 3E1BCC0D
    AccurateRip v1 signature : 90D26F15
    AccurateRip v2 signature : 48DE570E
        ->Accurately ripped (v2, confidence 2/2)
    Statistics
        Read error                           : 0
        Jitter error (maybe fixed)           : 0
        Retry sector count                   : 0
        Damaged sector count                 : 0
Track 06
    Filename : /Volumes/Master/XLD Rips/Lena Horne - Stormy Weather [ALAC]/06 - My Blue Heaven.m4a
               /Volumes/Master/XLD Rips/Lena Horne - Stormy Weather [FLAC]/06 - My Blue Heaven.flac
    Pre-gap length : 00:02:63
    Track gain               : -2.85 dB
    Peak                     : 0.859924
    CRC32 hash (test run)    : 3A949151
    CRC32 hash               : 3A949151
    CRC32 hash (skip zero)   : 9B4B6F5B
    AccurateRip v1 signature : C8B7466E
    AccurateRip v2 signature : BC1742F9
        ->Accurately ripped (v2, confidence 2/2)
    Statistics
        Read error                           : 0
        Jitter error (maybe fixed)           : 0
        Retry sector count                   : 0
        Damaged sector count                 : 0
Track 07
    Filename : /Volumes/Master/XLD Rips/Lena Horne - Stormy Weather [ALAC]/07 - Cuckoo in the Clock.m4a
               /Volumes/Master/XLD Rips/Lena Horne - Stormy Weather [FLAC]/07 - Cuckoo in the Clock.flac
    Pre-gap length : 00:02:62
    Track gain               : -1.95 dB
    Peak                     : 0.914215
    CRC32 hash (test run)    : 9FBB4BE3
    CRC32 hash               : 9FBB4BE3
    CRC32 hash (skip zero)   : 18B594A3
    AccurateRip v1 signature : 4EFD287F
    AccurateRip v2 signature : C6DC4F8C
        ->Accurately ripped (v2, confidence 2/2)
    Statistics
        Read error                           : 0
        Jitter error (maybe fixed)           : 0
        Retry sector count                   : 0
        Damaged sector count                 : 0
Track 08
    Filename : /Volumes/Master/XLD Rips/Lena Horne - Stormy Weather [ALAC]/08 - Meditation.m4a
               /Volumes/Master/XLD Rips/Lena Horne - Stormy Weather [FLAC]/08 - Meditation.flac
    Pre-gap length : 00:02:63
    Track gain               : -0.74 dB
    Peak                     : 0.631958
    CRC32 hash (test run)    : 1DA614F7
    CRC32 hash               : 1DA614F7
    CRC32 hash (skip zero)   : D81D59CD
    AccurateRip v1 signature : CB852CA0
    AccurateRip v2 signature : F2FAB750
        ->Accurately ripped (v2, confidence 2/2)
    Statistics
        Read error                           : 0
        Jitter error (maybe fixed)           : 0
        Retry sector count                   : 0
        Damaged sector count                 : 0
Track 09
    Filename : /Volumes/Master/XLD Rips/Lena Horne - Stormy Weather [ALAC]/09 - By Myself.m4a
               /Volumes/Master/XLD Rips/Lena Horne - Stormy Weather [FLAC]/09 - By Myself.flac
    Pre-gap length : 00:02:63
    Track gain               : -1.08 dB
    Peak                     : 0.803406
    CRC32 hash (test run)    : D32D286B
    CRC32 hash               : D32D286B
    CRC32 hash (skip zero)   : 8049932C
    AccurateRip v1 signature : B0F710BE
    AccurateRip v2 signature : 47098F22
        ->Accurately ripped (v2, confidence 2/2)
    Statistics
        Read error                           : 0
        Jitter error (maybe fixed)           : 0
        Retry sector count                   : 0
        Damaged sector count                 : 0
Track 10
    Filename : /Volumes/Master/XLD Rips/Lena Horne - Stormy Weather [ALAC]/10 - Why Was I Born.m4a
               /Volumes/Master/XLD Rips/Lena Horne - Stormy Weather [FLAC]/10 - Why Was I Born.flac
    Pre-gap length : 00:02:62
    Track gain               : -3.31 dB
    Peak                     : 0.775543
    CRC32 hash (test run)    : 93B26F7B
    CRC32 hash               : 93B26F7B
    CRC32 hash (skip zero)   : E8C1F9EA
    AccurateRip v1 signature : C98CB5CE
    AccurateRip v2 signature : C8755C20
        ->Accurately ripped (v2, confidence 2/2)
    Statistics
        Read error                           : 0
        Jitter error (maybe fixed)           : 0
        Retry sector count                   : 0
        Damaged sector count                 : 0
Track 11
    Filename : /Volumes/Master/XLD Rips/Lena Horne - Stormy Weather [ALAC]/11 - Good for Nothing Joe.m4a
               /Volumes/Master/XLD Rips/Lena Horne - Stormy Weather [FLAC]/11 - Good for Nothing Joe.flac
    Pre-gap length : 00:02:63
    Track gain               : -2.08 dB
    Peak                     : 0.725616
    CRC32 hash (test run)    : 3943E81A
    CRC32 hash               : 3943E81A
    CRC32 hash (skip zero)   : 132156F7
    AccurateRip v1 signature : 1AA3F7A0
    AccurateRip v2 signature : 7A7ABAC4
        ->Accurately ripped (v1+v2, confidence 1+1/3)
    Statistics
        Read error                           : 0
        Jitter error (maybe fixed)           : 0
        Retry sector count                   : 0
        Damaged sector count                 : 0
Track 12
    Filename : /Volumes/Master/XLD Rips/Lena Horne - Stormy Weather [ALAC]/12 - Love Me or Leave Me.m4a
               /Volumes/Master/XLD Rips/Lena Horne - Stormy Weather [FLAC]/12 - Love Me or Leave Me.flac
    Pre-gap length : 00:02:62
    Track gain               : -2.54 dB
    Peak                     : 0.766205
    CRC32 hash (test run)    : E7CA3150
    CRC32 hash               : E7CA3150
    CRC32 hash (skip zero)   : EF2D15C3
    AccurateRip v1 signature : 7ABED25F
    AccurateRip v2 signature : CE54C111
        ->Accurately ripped (v2, confidence 2/2)
    Statistics
        Read error                           : 0
        Jitter error (maybe fixed)           : 0
        Retry sector count                   : 0
        Damaged sector count                 : 0
Track 13
    Filename : /Volumes/Master/XLD Rips/Lena Horne - Stormy Weather [ALAC]/13 - I Got It Bad (And That Ain't Good).m4a
               /Volumes/Master/XLD Rips/Lena Horne - Stormy Weather [FLAC]/13 - I Got It Bad (And That Ain't Good).flac
    Pre-gap length : 00:02:63
    Track gain               : -0.55 dB
    Peak                     : 0.747711
    CRC32 hash (test run)    : 393C455D
    CRC32 hash               : 393C455D
    CRC32 hash (skip zero)   : 4D7FD55B
    AccurateRip v1 signature : 7841AE4E
    AccurateRip v2 signature : CBDC248C
        ->Accurately ripped (v2, confidence 2/2)
    Statistics
        Read error                           : 0
        Jitter error (maybe fixed)           : 0
        Retry sector count                   : 0
        Damaged sector count                 : 0
Track 14
    Filename : /Volumes/Master/XLD Rips/Lena Horne - Stormy Weather [ALAC]/14 - Stormy Weather.m4a
               /Volumes/Master/XLD Rips/Lena Horne - Stormy Weather [FLAC]/14 - Stormy Weather.flac
    Pre-gap length : 00:02:62
    Track gain               : -3.72 dB
    Peak                     : 0.731232
    CRC32 hash (test run)    : ED06E8F0
    CRC32 hash               : ED06E8F0
    CRC32 hash (skip zero)   : DF7253E6
    AccurateRip v1 signature : 2CBB7AF2
    AccurateRip v2 signature : C7070C75
        ->Accurately ripped (v2, confidence 2/2)
    Statistics
        Read error                           : 0
        Jitter error (maybe fixed)           : 0
        Retry sector count                   : 0
        Damaged sector count                 : 0
Track 15
    Filename : /Volumes/Master/XLD Rips/Lena Horne - Stormy Weather [ALAC]/15 - Honeysuckle Rose.m4a
               /Volumes/Master/XLD Rips/Lena Horne - Stormy Weather [FLAC]/15 - Honeysuckle Rose.flac
    Pre-gap length : 00:02:63
    Track gain               : -0.97 dB
    Peak                     : 0.716431
    CRC32 hash (test run)    : 7585C0E1
    CRC32 hash               : 7585C0E1
    CRC32 hash (skip zero)   : A5E37F53
    AccurateRip v1 signature : D86617B2
    AccurateRip v2 signature : D6D67F1F
        ->Accurately ripped (v2, confidence 2/2)
    Statistics
        Read error                           : 0
        Jitter error (maybe fixed)           : 0
        Retry sector count                   : 0
        Damaged sector count                 : 0
Track 16
    Filename : /Volumes/Master/XLD Rips/Lena Horne - Stormy Weather [ALAC]/16 - Lover Man.m4a
               /Volumes/Master/XLD Rips/Lena Horne - Stormy Weather [FLAC]/16 - Lover Man.flac
    Pre-gap length : 00:02:63
    Track gain               : -1.84 dB
    Peak                     : 0.707794
    CRC32 hash (test run)    : E27C153C
    CRC32 hash               : E27C153C
    CRC32 hash (skip zero)   : BA05B9C6
    AccurateRip v1 signature : 8F97D417
    AccurateRip v2 signature : C381710C
        ->Accurately ripped (v2, confidence 2/2)
    Statistics
        Read error                           : 0
        Jitter error (maybe fixed)           : 0
        Retry sector count                   : 0
        Damaged sector count                 : 0
Track 17
    Filename : /Volumes/Master/XLD Rips/Lena Horne - Stormy Weather [ALAC]/17 - Love.m4a
               /Volumes/Master/XLD Rips/Lena Horne - Stormy Weather [FLAC]/17 - Love.flac
    Pre-gap length : 00:02:63
    Track gain               : -4.21 dB
    Peak                     : 0.764038
    CRC32 hash (test run)    : 38494660
    CRC32 hash               : 38494660
    CRC32 hash (skip zero)   : 70083EF9
    AccurateRip v1 signature : 4BA1F3AB
    AccurateRip v2 signature : 634FF059
        ->Accurately ripped (v2, confidence 2/2)
    Statistics
        Read error                           : 0
        Jitter error (maybe fixed)           : 0
        Retry sector count                   : 0
        Damaged sector count                 : 0
Track 18
    Filename : /Volumes/Master/XLD Rips/Lena Horne - Stormy Weather [ALAC]/18 - Wish I Was Back in My Baby's Arm.m4a
               /Volumes/Master/XLD Rips/Lena Horne - Stormy Weather [FLAC]/18 - Wish I Was Back in My Baby's Arm.flac
    Pre-gap length : 00:02:62
    Track gain               : -3.49 dB
    Peak                     : 0.847412
    CRC32 hash (test run)    : 8315EA19
    CRC32 hash               : 8315EA19
    CRC32 hash (skip zero)   : 2F7F2B26
    AccurateRip v1 signature : 552C48C1
    AccurateRip v2 signature : 80400789
        ->Accurately ripped (v2, confidence 2/2)
    Statistics
        Read error                           : 0
        Jitter error (maybe fixed)           : 0
        Retry sector count                   : 0
        Damaged sector count                 : 0
Track 19
    Filename : /Volumes/Master/XLD Rips/Lena Horne - Stormy Weather [ALAC]/19 - The Lady Is a Tramp.m4a
               /Volumes/Master/XLD Rips/Lena Horne - Stormy Weather [FLAC]/19 - The Lady Is a Tramp.flac
    Pre-gap length : 00:02:63
    Track gain               : -4.91 dB
    Peak                     : 0.863159
    CRC32 hash (test run)    : D2C54C2C
    CRC32 hash               : D2C54C2C
    CRC32 hash (skip zero)   : 8844D0DF
    AccurateRip v1 signature : 05B7C404
    AccurateRip v2 signature : 5E92A129
        ->Accurately ripped (v2, confidence 2/2)
    Statistics
        Read error                           : 0
        Jitter error (maybe fixed)           : 0
        Retry sector count                   : 0
        Damaged sector count                 : 0
Track 20
    Filename : /Volumes/Master/XLD Rips/Lena Horne - Stormy Weather [ALAC]/20 - Can't Help Lovin' That Man.m4a
               /Volumes/Master/XLD Rips/Lena Horne - Stormy Weather [FLAC]/20 - Can't Help Lovin' That Man.flac
    Pre-gap length : 00:02:62
    Track gain               : -2.05 dB
    Peak                     : 0.819336
    CRC32 hash (test run)    : C0623E4A
    CRC32 hash               : C0623E4A
    CRC32 hash (skip zero)   : 896CE352
    AccurateRip v1 signature : DBF6555B
    AccurateRip v2 signature : 32C227D5
        ->Accurately ripped (v2, confidence 2/2)
    Statistics
        Read error                           : 0
        Jitter error (maybe fixed)           : 0
        Retry sector count                   : 0
        Damaged sector count                 : 0
No errors occurred
End of status report
-----BEGIN XLD SIGNATURE-----
AwQQXW.2QdMBnhJLlmZOZ.ckFgNBFI96nJMgXb8eNlm5FRg593pYafjNzsMvckvO2Rplyk4er.EqSSqFYC.G_67Gn9GC6q5ItSXok.O
-----END XLD SIGNATURE-----
Код:
TITLE "Stormy Weather"
PERFORMER "Lena Horne"
REM GENRE "Jazz"
REM DATE "1993"
REM DISCID 090CB914
REM REPLAYGAIN_ALBUM_GAIN -2.62 dB
REM REPLAYGAIN_ALBUM_PEAK 0.914215
FILE "01 - Falling in Love with You.flac" WAVE
  TRACK 01 AUDIO
    TITLE "Falling in Love with You"
    REM REPLAYGAIN_TRACK_GAIN -3.21 dB
    REM REPLAYGAIN_TRACK_PEAK 0.794708
    PREGAP 00:00:33
    INDEX 01 00:00:00
  TRACK 02 AUDIO
    TITLE "From This Moment On"
    REM REPLAYGAIN_TRACK_GAIN -3.56 dB
    REM REPLAYGAIN_TRACK_PEAK 0.871368
    INDEX 00 01:57:45
FILE "02 - From This Moment On.flac" WAVE
    INDEX 01 00:00:00
  TRACK 03 AUDIO
    TITLE "Night and Day"
    REM REPLAYGAIN_TRACK_GAIN -2.38 dB
    REM REPLAYGAIN_TRACK_PEAK 0.788757
    INDEX 00 01:47:53
FILE "03 - Night and Day.flac" WAVE
    INDEX 01 00:00:00
  TRACK 04 AUDIO
    TITLE "Old Devil Moon"
    REM REPLAYGAIN_TRACK_GAIN -2.86 dB
    REM REPLAYGAIN_TRACK_PEAK 0.826752
    INDEX 00 02:34:08
FILE "04 - Old Devil Moon.flac" WAVE
    INDEX 01 00:00:00
  TRACK 05 AUDIO
    TITLE "More"
    REM REPLAYGAIN_TRACK_GAIN -2.07 dB
    REM REPLAYGAIN_TRACK_PEAK 0.817841
    INDEX 00 02:32:25
FILE "05 - More.flac" WAVE
    INDEX 01 00:00:00
  TRACK 06 AUDIO
    TITLE "My Blue Heaven"
    REM REPLAYGAIN_TRACK_GAIN -2.85 dB
    REM REPLAYGAIN_TRACK_PEAK 0.859924
    INDEX 00 01:38:67
FILE "06 - My Blue Heaven.flac" WAVE
    INDEX 01 00:00:00
  TRACK 07 AUDIO
    TITLE "Cuckoo in the Clock"
    REM REPLAYGAIN_TRACK_GAIN -1.95 dB
    REM REPLAYGAIN_TRACK_PEAK 0.914215
    INDEX 00 02:19:40
FILE "07 - Cuckoo in the Clock.flac" WAVE
    INDEX 01 00:00:00
  TRACK 08 AUDIO
    TITLE "Meditation"
    REM REPLAYGAIN_TRACK_GAIN -0.74 dB
    REM REPLAYGAIN_TRACK_PEAK 0.631958
    INDEX 00 03:25:30
FILE "08 - Meditation.flac" WAVE
    INDEX 01 00:00:00
  TRACK 09 AUDIO
    TITLE "By Myself"
    REM REPLAYGAIN_TRACK_GAIN -1.08 dB
    REM REPLAYGAIN_TRACK_PEAK 0.803406
    INDEX 00 02:12:07
FILE "09 - By Myself.flac" WAVE
    INDEX 01 00:00:00
  TRACK 10 AUDIO
    TITLE "Why Was I Born"
    REM REPLAYGAIN_TRACK_GAIN -3.31 dB
    REM REPLAYGAIN_TRACK_PEAK 0.775543
    INDEX 00 02:37:20
FILE "10 - Why Was I Born.flac" WAVE
    INDEX 01 00:00:00
  TRACK 11 AUDIO
    TITLE "Good for Nothing Joe"
    REM REPLAYGAIN_TRACK_GAIN -2.08 dB
    REM REPLAYGAIN_TRACK_PEAK 0.725616
    INDEX 00 02:18:25
FILE "11 - Good for Nothing Joe.flac" WAVE
    INDEX 01 00:00:00
  TRACK 12 AUDIO
    TITLE "Love Me or Leave Me"
    REM REPLAYGAIN_TRACK_GAIN -2.54 dB
    REM REPLAYGAIN_TRACK_PEAK 0.766205
    INDEX 00 03:34:05
FILE "12 - Love Me or Leave Me.flac" WAVE
    INDEX 01 00:00:00
  TRACK 13 AUDIO
    TITLE "I Got It Bad (And That Ain't Good)"
    REM REPLAYGAIN_TRACK_GAIN -0.55 dB
    REM REPLAYGAIN_TRACK_PEAK 0.747711
    INDEX 00 02:52:60
FILE "13 - I Got It Bad (And That Ain't Good).flac" WAVE
    INDEX 01 00:00:00
  TRACK 14 AUDIO
    TITLE "Stormy Weather"
    REM REPLAYGAIN_TRACK_GAIN -3.72 dB
    REM REPLAYGAIN_TRACK_PEAK 0.731232
    INDEX 00 03:43:35
FILE "14 - Stormy Weather.flac" WAVE
    INDEX 01 00:00:00
  TRACK 15 AUDIO
    TITLE "Honeysuckle Rose"
    REM REPLAYGAIN_TRACK_GAIN -0.97 dB
    REM REPLAYGAIN_TRACK_PEAK 0.716431
    INDEX 00 03:17:55
FILE "15 - Honeysuckle Rose.flac" WAVE
    INDEX 01 00:00:00
  TRACK 16 AUDIO
    TITLE "Lover Man"
    REM REPLAYGAIN_TRACK_GAIN -1.84 dB
    REM REPLAYGAIN_TRACK_PEAK 0.707794
    INDEX 00 02:54:12
FILE "16 - Lover Man.flac" WAVE
    INDEX 01 00:00:00
  TRACK 17 AUDIO
    TITLE "Love"
    REM REPLAYGAIN_TRACK_GAIN -4.21 dB
    REM REPLAYGAIN_TRACK_PEAK 0.764038
    INDEX 00 03:22:47
FILE "17 - Love.flac" WAVE
    INDEX 01 00:00:00
  TRACK 18 AUDIO
    TITLE "Wish I Was Back in My Baby's Arms"
    REM REPLAYGAIN_TRACK_GAIN -3.49 dB
    REM REPLAYGAIN_TRACK_PEAK 0.847412
    INDEX 00 02:44:40
FILE "18 - Wish I Was Back in My Baby's Arms.flac" WAVE
    INDEX 01 00:00:00
  TRACK 19 AUDIO
    TITLE "The Lady Is a Tramp"
    REM REPLAYGAIN_TRACK_GAIN -4.91 dB
    REM REPLAYGAIN_TRACK_PEAK 0.863159
    INDEX 00 02:28:55
FILE "19 - The Lady Is a Tramp.flac" WAVE
    INDEX 01 00:00:00
  TRACK 20 AUDIO
    TITLE "Can't Help Lovin' That Man"
    REM REPLAYGAIN_TRACK_GAIN -2.05 dB
    REM REPLAYGAIN_TRACK_PEAK 0.819336
    INDEX 00 02:17:05
FILE "20 - Can't Help Lovin' That Man.flac" WAVE
    INDEX 01 00:00:00
Код:
[CUETools log; Date: 04.03.2020 1:38:49; Version: 2.1.6]
Pregap length 00:00:33.
[CTDB TOCID: BYsBpY7GVKlUlndRQmJiBnZSvC0-] found.
Track | CTDB Status
  1   | (2/2) Accurately ripped
  2   | (2/2) Accurately ripped
  3   | (2/2) Accurately ripped
  4   | (2/2) Accurately ripped
  5   | (2/2) Accurately ripped
  6   | (2/2) Accurately ripped
  7   | (2/2) Accurately ripped
  8   | (2/2) Accurately ripped
  9   | (2/2) Accurately ripped
 10   | (2/2) Accurately ripped
 11   | (2/2) Accurately ripped
 12   | (2/2) Accurately ripped
 13   | (2/2) Accurately ripped
 14   | (2/2) Accurately ripped
 15   | (2/2) Accurately ripped
 16   | (2/2) Accurately ripped
 17   | (2/2) Accurately ripped
 18   | (2/2) Accurately ripped
 19   | (2/2) Accurately ripped
 20   | (2/2) Accurately ripped
[AccurateRip ID: 0025342f-022e3f25-090cb914] found.
Track   [  CRC   |   V2   ] Status
 01     [4ee29a0a|eefe679f] (0+2/2) Accurately ripped
 02     [73794db9|e5c4897b] (0+2/2) Accurately ripped
 03     [645d7b26|8464ef56] (0+2/2) Accurately ripped
 04     [83ab23d4|ec1348d3] (0+2/2) Accurately ripped
 05     [90d26f15|48de570e] (0+2/2) Accurately ripped
 06     [c8b7466e|bc1742f9] (0+2/2) Accurately ripped
 07     [4efd287f|c6dc4f8c] (0+2/2) Accurately ripped
 08     [cb852ca0|f2fab750] (0+2/2) Accurately ripped
 09     [b0f710be|47098f22] (0+2/2) Accurately ripped
 10     [c98cb5ce|c8755c20] (0+2/2) Accurately ripped
 11     [1aa3f7a0|7a7abac4] (1+1/3) Accurately ripped
 12     [7abed25f|ce54c111] (0+2/2) Accurately ripped
 13     [7841ae4e|cbdc248c] (0+2/2) Accurately ripped
 14     [2cbb7af2|c7070c75] (0+2/2) Accurately ripped
 15     [d86617b2|d6d67f1f] (0+2/2) Accurately ripped
 16     [8f97d417|c381710c] (0+2/2) Accurately ripped
 17     [4ba1f3ab|634ff059] (0+2/2) Accurately ripped
 18     [552c48c1|80400789] (0+2/2) Accurately ripped
 19     [05b7c404|5e92a129] (0+2/2) Accurately ripped
 20     [dbf6555b|32c227d5] (0+2/2) Accurately ripped
Track Peak [ CRC32  ] [W/O NULL]
 --   91,4 [BB6B025C] [F324EBA9]
 01   79,4 [E800AB0B] [328694DF]
 02   87,1 [31BFB35A] [3503C07D]
 03   78,8 [9D9103C4] [50E5FA6F]
 04   82,6 [4B59980B] [696F039D]
 05   81,7 [8DE0CA15] [3E1BCC0D]
 06   85,9 [3A949151] [9B4B6F5B]
 07   91,4 [9FBB4BE3] [18B594A3]
 08   63,1 [1DA614F7] [D81D59CD]
 09   80,3 [D32D286B] [8049932C]
 10   77,5 [93B26F7B] [E8C1F9EA]
 11   72,5 [3943E81A] [132156F7]
 12   76,6 [E7CA3150] [EF2D15C3]
 13   74,7 [393C455D] [4D7FD55B]
 14   73,1 [ED06E8F0] [DF7253E6]
 15   71,6 [7585C0E1] [A5E37F53]
 16   70,7 [E27C153C] [BA05B9C6]
 17   76,4 [38494660] [70083EF9]
 18   84,7 [8315EA19] [2F7F2B26]
 19   86,3 [D2C54C2C] [8844D0DF]
 20   81,9 [C0623E4A] [896CE352]
Правила, инструкции, FAQ!!!
Торрент  Добавлен [19 мар 2020, 22:22] Скачать торрент Магнет ссылка
Скачать торрент
[ Размер 14.38 КБ / Просмотров 11 ]

Статус
Проверен 
 
Размер  317.83 МБ
Приватный: Нет (DHT включён)
.torrent скачан  1
 


     Отправить личное сообщение
   
Страница 1 из 1
Показать сообщения за:  Поле сортировки  
Начать новую тему Ответить на тему


Сейчас этот форум просматривают: нет зарегистрированных пользователей и гости: 0


Вы не можете начинать темы
Вы не можете отвечать на сообщения
Вы не можете редактировать свои сообщения
Вы не можете удалять свои сообщения
Вы не можете добавлять вложения

Перейти:  
cron