Начать новую тему Ответить на тему
Статистика раздачи
Размер: 723.34 МБ | Добавлен: 22 июн 2020, 15:38 | Скачали: 0
Сидеров: 0  [0 байт/сек]    Личеров: 0  [0 байт/сек]
Пред. тема | След. тема 

Автор
Сообщение

СообщениеДобавлено: 22 июн 2020, 15:38 

Ответить с цитатой 

Lambert, Hendricks & Ross - Four Classic Albums
Жанр: Vocal Jazz
Носитель: CD
Страна-производитель диска (релиза): Великобритания
Год издания: 2018
Издатель (лейбл): Avid Jazz
Номер по каталогу: EMSC1320
Аудиокодек: FLAC (*.flac)
Тип рипа: tracks+.cue
Продолжительность: 02:09:48
Источник: ssagwebster
Наличие сканов в содержимом раздачи: да
Sing a Song of Basie (1957)
01. Everyday (5:21)
02. It's Sand, Man! (2:30)
03. Two for the Blues (2:45)
04. One O'Clock Jump (3:03)
05. Little Pony (2:31)
06. Down for Double (2:14)
07. Fiesta in Blue (3:17)
08. Down for the Count (3:01)
09. Blues Backstage (3:01)
10. Avenue C (2:55)
Lambert, Hendricks & Ross with Zoot Sims - The Swingers! (1959)
11. Airegin (3:32)
12. Babe's Blues (3:17)
13. Dark Cloud (3:33)
14. Jackie (2:04)
15. Swingin' Till the Girls Come Home (5:08)
16. Four (4:14)
17. Little Niles (3:31)
18. Where (2:57)
19. Now's the Time (2:59)
20. Love Makes the World Go 'Round (3:44)
Код:
Exact Audio Copy V1.3 from 2. September 2016
EAC extraction logfile from 6. March 2020, 14:16
Lambert, Hendricks & Ross / Four Classic Albums - CD1
Used drive  : TSSTcorpCDDVDW SH-224FB   Adapter: 1  ID: 0
Read mode               : Secure
Utilize accurate stream : Yes
Defeat audio cache      : Yes
Make use of C2 pointers : No
Read offset correction                      : 6
Overread into Lead-In and Lead-Out          : No
Fill up missing offset samples with silence : Yes
Delete leading and trailing silent blocks   : No
Null samples used in CRC calculations       : Yes
Used interface                              : Native Win32 interface for Win NT & 2000
Gap handling                                : Appended to previous track
Used output format              : User Defined Encoder
Selected bitrate                : 128 kBit/s
Quality                         : High
Add ID3 tag                     : No
Command line compressor         : C:\Program Files (x86)\Exact Audio Copy\Flac\flac.exe
Additional command line options : -V -8 -T "Genre=%genre%" -T "Artist=%artist%" -T "Title=%title%" -T "Album=%albumtitle%" -T "Date=%year%" -T "Tracknumber=%tracknr%" -T "Comment=%comment%" %source%
TOC of the extracted CD
     Track |   Start  |  Length  | Start sector | End sector
    ---------------------------------------------------------
        1  |  0:00.00 |  5:21.07 |         0    |    24081
        2  |  5:21.07 |  2:29.46 |     24082    |    35302
        3  |  7:50.53 |  2:44.49 |     35303    |    47651
        4  | 10:35.27 |  3:03.30 |     47652    |    61406
        5  | 13:38.57 |  2:31.31 |     61407    |    72762
        6  | 16:10.13 |  2:13.57 |     72763    |    82794
        7  | 18:23.70 |  3:17.32 |     82795    |    97601
        8  | 21:41.27 |  3:01.01 |     97602    |   111177
        9  | 24:42.28 |  3:00.57 |    111178    |   124734
       10  | 27:43.10 |  2:54.65 |    124735    |   137849
       11  | 30:38.00 |  3:32.25 |    137850    |   153774
       12  | 34:10.25 |  3:17.28 |    153775    |   168577
       13  | 37:27.53 |  3:33.23 |    168578    |   184575
       14  | 41:01.01 |  2:04.35 |    184576    |   193910
       15  | 43:05.36 |  5:08.05 |    193911    |   217015
       16  | 48:13.41 |  4:14.34 |    217016    |   236099
       17  | 52:28.00 |  3:30.44 |    236100    |   251893
       18  | 55:58.44 |  2:57.32 |    251894    |   265200
       19  | 58:56.01 |  2:58.68 |    265201    |   278618
       20  | 61:54.69 |  3:44.29 |    278619    |   295447
Track  1
     Filename D:\ssagwebster\Lambert, Hendricks & Ross - Four Classic Albums (2CD, 2018)\CD1\01. Everyday.wav
     Pre-gap length  0:00:02.00
     Peak level 90.3 %
     Extraction speed 1.8 X
     Track quality 100.0 %
     Test CRC C965B9BE
     Copy CRC C965B9BE
     Track not present in AccurateRip database
     Copy OK
Track  2
     Filename D:\ssagwebster\Lambert, Hendricks & Ross - Four Classic Albums (2CD, 2018)\CD1\02. It's Sand, Man!.wav
     Pre-gap length  0:00:02.00
     Peak level 86.8 %
     Extraction speed 1.7 X
     Track quality 100.0 %
     Test CRC 90E30976
     Copy CRC 90E30976
     Track not present in AccurateRip database
     Copy OK
Track  3
     Filename D:\ssagwebster\Lambert, Hendricks & Ross - Four Classic Albums (2CD, 2018)\CD1\03. Two For The Blues.wav
     Pre-gap length  0:00:02.00
     Peak level 93.3 %
     Extraction speed 1.6 X
     Track quality 99.9 %
     Test CRC 850198E5
     Copy CRC 850198E5
     Track not present in AccurateRip database
     Copy OK
Track  4
     Filename D:\ssagwebster\Lambert, Hendricks & Ross - Four Classic Albums (2CD, 2018)\CD1\04. One O'Clock Jump.wav
     Pre-gap length  0:00:02.00
     Peak level 93.3 %
     Extraction speed 4.9 X
     Track quality 100.0 %
     Test CRC 8C1AB83A
     Copy CRC 8C1AB83A
     Track not present in AccurateRip database
     Copy OK
Track  5
     Filename D:\ssagwebster\Lambert, Hendricks & Ross - Four Classic Albums (2CD, 2018)\CD1\05. Little Pony.wav
     Pre-gap length  0:00:02.00
     Peak level 87.4 %
     Extraction speed 4.2 X
     Track quality 99.9 %
     Test CRC 4F69A7BC
     Copy CRC 4F69A7BC
     Track not present in AccurateRip database
     Copy OK
Track  6
     Filename D:\ssagwebster\Lambert, Hendricks & Ross - Four Classic Albums (2CD, 2018)\CD1\06. Down For Double.wav
     Pre-gap length  0:00:02.00
     Peak level 78.3 %
     Extraction speed 4.1 X
     Track quality 99.9 %
     Test CRC D34555CD
     Copy CRC D34555CD
     Track not present in AccurateRip database
     Copy OK
Track  7
     Filename D:\ssagwebster\Lambert, Hendricks & Ross - Four Classic Albums (2CD, 2018)\CD1\07. Fiesta In Blue.wav
     Pre-gap length  0:00:02.00
     Peak level 66.2 %
     Extraction speed 5.6 X
     Track quality 100.0 %
     Test CRC A3AF1629
     Copy CRC A3AF1629
     Track not present in AccurateRip database
     Copy OK
Track  8
     Filename D:\ssagwebster\Lambert, Hendricks & Ross - Four Classic Albums (2CD, 2018)\CD1\08. Down For The Count.wav
     Pre-gap length  0:00:02.00
     Peak level 89.0 %
     Extraction speed 5.7 X
     Track quality 100.0 %
     Test CRC BA48B429
     Copy CRC BA48B429
     Track not present in AccurateRip database
     Copy OK
Track  9
     Filename D:\ssagwebster\Lambert, Hendricks & Ross - Four Classic Albums (2CD, 2018)\CD1\09. Blues Backstage.wav
     Pre-gap length  0:00:02.00
     Peak level 94.8 %
     Extraction speed 5.9 X
     Track quality 100.0 %
     Test CRC 0121E8C2
     Copy CRC 0121E8C2
     Track not present in AccurateRip database
     Copy OK
Track 10
     Filename D:\ssagwebster\Lambert, Hendricks & Ross - Four Classic Albums (2CD, 2018)\CD1\10. Avenue C.wav
     Pre-gap length  0:00:02.00
     Peak level 83.4 %
     Extraction speed 6.2 X
     Track quality 100.0 %
     Test CRC 811993DE
     Copy CRC 811993DE
     Track not present in AccurateRip database
     Copy OK
Track 11
     Filename D:\ssagwebster\Lambert, Hendricks & Ross - Four Classic Albums (2CD, 2018)\CD1\11. Airegin.wav
     Pre-gap length  0:00:02.00
     Peak level 100.0 %
     Extraction speed 6.6 X
     Track quality 100.0 %
     Test CRC 3A152691
     Copy CRC 3A152691
     Track not present in AccurateRip database
     Copy OK
Track 12
     Filename D:\ssagwebster\Lambert, Hendricks & Ross - Four Classic Albums (2CD, 2018)\CD1\12. Babe's Blues.wav
     Pre-gap length  0:00:02.00
     Peak level 90.5 %
     Extraction speed 6.6 X
     Track quality 100.0 %
     Test CRC 414E412D
     Copy CRC 414E412D
     Track not present in AccurateRip database
     Copy OK
Track 13
     Filename D:\ssagwebster\Lambert, Hendricks & Ross - Four Classic Albums (2CD, 2018)\CD1\13. Dark Cloud.wav
     Pre-gap length  0:00:02.00
     Peak level 91.7 %
     Extraction speed 6.9 X
     Track quality 100.0 %
     Test CRC D8395322
     Copy CRC D8395322
     Track not present in AccurateRip database
     Copy OK
Track 14
     Filename D:\ssagwebster\Lambert, Hendricks & Ross - Four Classic Albums (2CD, 2018)\CD1\14. Jackie.wav
     Pre-gap length  0:00:02.00
     Peak level 90.5 %
     Extraction speed 5.2 X
     Track quality 99.9 %
     Test CRC 7C02F768
     Copy CRC 7C02F768
     Track not present in AccurateRip database
     Copy OK
Track 15
     Filename D:\ssagwebster\Lambert, Hendricks & Ross - Four Classic Albums (2CD, 2018)\CD1\15. Swingin' 'Til The Girls Come Home.wav
     Pre-gap length  0:00:02.00
     Peak level 100.0 %
     Extraction speed 6.9 X
     Track quality 99.9 %
     Test CRC 1D46D194
     Copy CRC 1D46D194
     Track not present in AccurateRip database
     Copy OK
Track 16
     Filename D:\ssagwebster\Lambert, Hendricks & Ross - Four Classic Albums (2CD, 2018)\CD1\16. Four.wav
     Pre-gap length  0:00:02.00
     Peak level 87.0 %
     Extraction speed 7.7 X
     Track quality 100.0 %
     Test CRC DC00FAA4
     Copy CRC DC00FAA4
     Track not present in AccurateRip database
     Copy OK
Track 17
     Filename D:\ssagwebster\Lambert, Hendricks & Ross - Four Classic Albums (2CD, 2018)\CD1\17. Little Miles.wav
     Pre-gap length  0:00:02.00
     Peak level 92.3 %
     Extraction speed 7.7 X
     Track quality 100.0 %
     Test CRC 7BFF709D
     Copy CRC 7BFF709D
     Track not present in AccurateRip database
     Copy OK
Track 18
     Filename D:\ssagwebster\Lambert, Hendricks & Ross - Four Classic Albums (2CD, 2018)\CD1\18. Where.wav
     Pre-gap length  0:00:02.00
     Peak level 98.7 %
     Extraction speed 7.6 X
     Track quality 100.0 %
     Test CRC 14A801A9
     Copy CRC 14A801A9
     Track not present in AccurateRip database
     Copy OK
Track 19
     Filename D:\ssagwebster\Lambert, Hendricks & Ross - Four Classic Albums (2CD, 2018)\CD1\19. Now's The Time.wav
     Pre-gap length  0:00:02.00
     Peak level 90.5 %
     Extraction speed 7.8 X
     Track quality 100.0 %
     Test CRC 87FB33CB
     Copy CRC 87FB33CB
     Track not present in AccurateRip database
     Copy OK
Track 20
     Filename D:\ssagwebster\Lambert, Hendricks & Ross - Four Classic Albums (2CD, 2018)\CD1\20. Love Makes The World Go Around.wav
     Pre-gap length  0:00:02.00
     Peak level 89.9 %
     Extraction speed 8.2 X
     Track quality 100.0 %
     Test CRC 32823136
     Copy CRC 32823136
     Track not present in AccurateRip database
     Copy OK
None of the tracks are present in the AccurateRip database
No errors occurred
End of status report
==== Log checksum C66AEEE13889F551ADA1BF7F72F8F6C355E4EE5C17A160539C161C16ACDF6BA0 ====
Код:
REM GENRE Jazz
REM DATE 2018
REM DISCID 120F6314
REM COMMENT "ExactAudioCopy v1.3"
PERFORMER "Lambert, Hendricks & Ross"
TITLE "Four Classic Albums CD1"
FILE "01 - Everyday.wav" WAVE
  TRACK 01 AUDIO
    TITLE "Everyday"
    PERFORMER "Lambert, Hendricks & Ross"
    ISRC GBBMH1832001
    INDEX 01 00:00:00
  TRACK 02 AUDIO
    TITLE "It's Sand, Man!"
    PERFORMER "Lambert, Hendricks & Ross"
    ISRC GBBMH1832002
    INDEX 00 05:19:07
FILE "02 - It's Sand, Man!.wav" WAVE
    INDEX 01 00:00:00
  TRACK 03 AUDIO
    TITLE "Two for the Blues"
    PERFORMER "Lambert, Hendricks & Ross"
    ISRC GBBMH1832003
    INDEX 00 02:27:46
FILE "03 - Two for the Blues.wav" WAVE
    INDEX 01 00:00:00
  TRACK 04 AUDIO
    TITLE "One O'Clock Jump"
    PERFORMER "Lambert, Hendricks & Ross"
    ISRC GBBMH1832004
    INDEX 00 02:42:49
FILE "04 - One O'Clock Jump.wav" WAVE
    INDEX 01 00:00:00
  TRACK 05 AUDIO
    TITLE "Little Pony"
    PERFORMER "Lambert, Hendricks & Ross"
    ISRC GBBMH1832005
    INDEX 00 03:01:30
FILE "05 - Little Pony.wav" WAVE
    INDEX 01 00:00:00
  TRACK 06 AUDIO
    TITLE "Down for Double"
    PERFORMER "Lambert, Hendricks & Ross"
    ISRC GBBMH1832006
    INDEX 00 02:29:31
FILE "06 - Down for Double.wav" WAVE
    INDEX 01 00:00:00
  TRACK 07 AUDIO
    TITLE "Fiesta in Blue"
    PERFORMER "Lambert, Hendricks & Ross"
    ISRC GBBMH1832007
    INDEX 00 02:11:57
FILE "07 - Fiesta in Blue.wav" WAVE
    INDEX 01 00:00:00
  TRACK 08 AUDIO
    TITLE "Down for the Count"
    PERFORMER "Lambert, Hendricks & Ross"
    ISRC GBBMH1832008
    INDEX 00 03:15:32
FILE "08 - Down for the Count.wav" WAVE
    INDEX 01 00:00:00
  TRACK 09 AUDIO
    TITLE "Blues Backstage"
    PERFORMER "Lambert, Hendricks & Ross"
    ISRC GBBMH1832009
    INDEX 00 02:59:01
FILE "09 - Blues Backstage.wav" WAVE
    INDEX 01 00:00:00
  TRACK 10 AUDIO
    TITLE "Avenue C"
    PERFORMER "Lambert, Hendricks & Ross"
    ISRC GBBMH1832010
    INDEX 00 02:58:57
FILE "10 - Avenue C.wav" WAVE
    INDEX 01 00:00:00
  TRACK 11 AUDIO
    TITLE "Airegin"
    PERFORMER "Lambert, Hendricks & Ross"
    ISRC GBBMH1832011
    INDEX 00 02:52:65
FILE "11 - Airegin.wav" WAVE
    INDEX 01 00:00:00
  TRACK 12 AUDIO
    TITLE "Babe's Blues"
    PERFORMER "Lambert, Hendricks & Ross"
    ISRC GBBMH1832012
    INDEX 00 03:30:25
FILE "12 - Babe's Blues.wav" WAVE
    INDEX 01 00:00:00
  TRACK 13 AUDIO
    TITLE "Dark Cloud"
    PERFORMER "Lambert, Hendricks & Ross"
    ISRC GBBMH1832013
    INDEX 00 03:15:28
FILE "13 - Dark Cloud.wav" WAVE
    INDEX 01 00:00:00
  TRACK 14 AUDIO
    TITLE "Jackie"
    PERFORMER "Lambert, Hendricks & Ross"
    ISRC GBBMH1832014
    INDEX 00 03:31:23
FILE "14 - Jackie.wav" WAVE
    INDEX 01 00:00:00
  TRACK 15 AUDIO
    TITLE "Swingin' Till the Girls Come Home"
    PERFORMER "Lambert, Hendricks & Ross"
    ISRC GBBMH1832015
    INDEX 00 02:02:35
FILE "15 - Swingin' Till the Girls Come Home.wav" WAVE
    INDEX 01 00:00:00
  TRACK 16 AUDIO
    TITLE "Four"
    PERFORMER "Lambert, Hendricks & Ross"
    ISRC GBBMH1832016
    INDEX 00 05:06:05
FILE "16 - Four.wav" WAVE
    INDEX 01 00:00:00
  TRACK 17 AUDIO
    TITLE "Little Niles"
    PERFORMER "Lambert, Hendricks & Ross"
    ISRC GBBMH1832017
    INDEX 00 04:12:34
FILE "17 - Little Niles.wav" WAVE
    INDEX 01 00:00:00
  TRACK 18 AUDIO
    TITLE "Where"
    PERFORMER "Lambert, Hendricks & Ross"
    ISRC GBBMH1832018
    INDEX 00 03:28:44
FILE "18 - Where.wav" WAVE
    INDEX 01 00:00:00
  TRACK 19 AUDIO
    TITLE "Now's the Time"
    PERFORMER "Lambert, Hendricks & Ross"
    ISRC GBBMH1832019
    INDEX 00 02:55:32
FILE "19 - Now's the Time.wav" WAVE
    INDEX 01 00:00:00
  TRACK 20 AUDIO
    TITLE "Love Makes the World Go 'Round"
    PERFORMER "Lambert, Hendricks & Ross"
    ISRC GBBMH1832020
    INDEX 00 02:56:68
FILE "20 - Love Makes the World Go 'Round.wav" WAVE
    INDEX 01 00:00:00
Lambert, Hendricks & Ross with the Voice of Joe Williams plus The Basie Band - Sing Along with Basie (1958)
01. Jumpin' at the Woodside (3:20)
02. Goin' to Chicago Blues (4:13)
03. Tickle Toe (2:40)
04. Let Me See (3:16)
05. Every Tub (3:26)
06. Shorty George (3:09)
07. Rusty Dusty Blues (3:46)
08. The King (3:25)
09. Swingin' the Blues (3:04)
10. Lil' Darlin' (4:39)
The Hottest New Group in Jazz (1959)
11. Charleston Alley (3:21)
12. Moanin' (2:37)
13. Twisted (2:19)
14. Bijou (3:19)
15. Cloudburst (2:19)
16. Centerpiece (2:30)
17. Gimme That Wine (3:01)
18. Sermonette (3:50)
19. Summertime (1:46)
20. Everybody's Boppin' (4:11)
Код:
Exact Audio Copy V1.3 from 2. September 2016
EAC extraction logfile from 6. March 2020, 14:49
Lambert, Hendricks & Ross / Four Classic Albums - CD2
Used drive  : TSSTcorpCDDVDW SH-224FB   Adapter: 1  ID: 0
Read mode               : Secure
Utilize accurate stream : Yes
Defeat audio cache      : Yes
Make use of C2 pointers : No
Read offset correction                      : 6
Overread into Lead-In and Lead-Out          : No
Fill up missing offset samples with silence : Yes
Delete leading and trailing silent blocks   : No
Null samples used in CRC calculations       : Yes
Used interface                              : Native Win32 interface for Win NT & 2000
Gap handling                                : Appended to previous track
Used output format              : User Defined Encoder
Selected bitrate                : 128 kBit/s
Quality                         : High
Add ID3 tag                     : No
Command line compressor         : C:\Program Files (x86)\Exact Audio Copy\Flac\flac.exe
Additional command line options : -V -8 -T "Genre=%genre%" -T "Artist=%artist%" -T "Title=%title%" -T "Album=%albumtitle%" -T "Date=%year%" -T "Tracknumber=%tracknr%" -T "Comment=%comment%" %source%
TOC of the extracted CD
     Track |   Start  |  Length  | Start sector | End sector
    ---------------------------------------------------------
        1  |  0:00.00 |  3:20.16 |         0    |    15015
        2  |  3:20.16 |  4:13.02 |     15016    |    33992
        3  |  7:33.18 |  2:40.11 |     33993    |    46003
        4  | 10:13.29 |  3:15.42 |     46004    |    60670
        5  | 13:28.71 |  3:25.56 |     60671    |    76101
        6  | 16:54.52 |  3:08.43 |     76102    |    90244
        7  | 20:03.20 |  3:46.12 |     90245    |   107206
        8  | 23:49.32 |  3:24.61 |    107207    |   122567
        9  | 27:14.18 |  3:04.26 |    122568    |   136393
       10  | 30:18.44 |  4:39.15 |    136394    |   157333
       11  | 34:57.59 |  3:20.44 |    157334    |   172377
       12  | 38:18.28 |  2:36.48 |    172378    |   184125
       13  | 40:55.01 |  2:19.12 |    184126    |   194562
       14  | 43:14.13 |  3:19.25 |    194563    |   209512
       15  | 46:33.38 |  2:18.66 |    209513    |   219928
       16  | 48:52.29 |  2:29.49 |    219929    |   231152
       17  | 51:22.03 |  3:00.56 |    231153    |   244708
       18  | 54:22.59 |  3:50.11 |    244709    |   261969
       19  | 58:12.70 |  1:46.23 |    261970    |   269942
       20  | 59:59.18 |  4:11.07 |    269943    |   288774
Track  1
     Filename D:\ssagwebster\Lambert, Hendricks & Ross - Four Classic Albums (2CD, 2018)\CD2\01. Jumpin' At The Woodside.wav
     Pre-gap length  0:00:02.00
     Peak level 99.5 %
     Extraction speed 1.6 X
     Track quality 100.0 %
     Test CRC 5181315F
     Copy CRC 5181315F
     Track not present in AccurateRip database
     Copy OK
Track  2
     Filename D:\ssagwebster\Lambert, Hendricks & Ross - Four Classic Albums (2CD, 2018)\CD2\02. Going To Chicago Blues.wav
     Pre-gap length  0:00:02.00
     Peak level 92.5 %
     Extraction speed 1.9 X
     Track quality 100.0 %
     Test CRC B097C302
     Copy CRC B097C302
     Track not present in AccurateRip database
     Copy OK
Track  3
     Filename D:\ssagwebster\Lambert, Hendricks & Ross - Four Classic Albums (2CD, 2018)\CD2\03. Tickle Toe.wav
     Pre-gap length  0:00:02.00
     Peak level 90.2 %
     Extraction speed 1.9 X
     Track quality 100.0 %
     Test CRC 7B3D218E
     Copy CRC 7B3D218E
     Track not present in AccurateRip database
     Copy OK
Track  4
     Filename D:\ssagwebster\Lambert, Hendricks & Ross - Four Classic Albums (2CD, 2018)\CD2\04. Let Me See.wav
     Pre-gap length  0:00:02.00
     Peak level 89.8 %
     Extraction speed 4.2 X
     Track quality 99.9 %
     Test CRC 0D6BF3F8
     Copy CRC 0D6BF3F8
     Track not present in AccurateRip database
     Copy OK
Track  5
     Filename D:\ssagwebster\Lambert, Hendricks & Ross - Four Classic Albums (2CD, 2018)\CD2\05. Every Tub.wav
     Pre-gap length  0:00:02.00
     Peak level 94.5 %
     Extraction speed 5.3 X
     Track quality 100.0 %
     Test CRC A900A934
     Copy CRC A900A934
     Track not present in AccurateRip database
     Copy OK
Track  6
     Filename D:\ssagwebster\Lambert, Hendricks & Ross - Four Classic Albums (2CD, 2018)\CD2\06. Shorty George.wav
     Pre-gap length  0:00:02.00
     Peak level 99.0 %
     Extraction speed 4.7 X
     Track quality 99.9 %
     Test CRC F9EC317F
     Copy CRC F9EC317F
     Track not present in AccurateRip database
     Copy OK
Track  7
     Filename D:\ssagwebster\Lambert, Hendricks & Ross - Four Classic Albums (2CD, 2018)\CD2\07. Rusty Dusty Blues.wav
     Pre-gap length  0:00:02.00
     Peak level 84.4 %
     Extraction speed 5.9 X
     Track quality 100.0 %
     Test CRC 66FEC9A4
     Copy CRC 66FEC9A4
     Track not present in AccurateRip database
     Copy OK
Track  8
     Filename D:\ssagwebster\Lambert, Hendricks & Ross - Four Classic Albums (2CD, 2018)\CD2\08. The King.wav
     Pre-gap length  0:00:02.00
     Peak level 97.1 %
     Extraction speed 5.2 X
     Track quality 99.9 %
     Test CRC 9F5F69A9
     Copy CRC 9F5F69A9
     Track not present in AccurateRip database
     Copy OK
Track  9
     Filename D:\ssagwebster\Lambert, Hendricks & Ross - Four Classic Albums (2CD, 2018)\CD2\09. Swingin' The Blues.wav
     Pre-gap length  0:00:02.00
     Peak level 99.5 %
     Extraction speed 6.1 X
     Track quality 100.0 %
     Test CRC 31DA2E9D
     Copy CRC 31DA2E9D
     Track not present in AccurateRip database
     Copy OK
Track 10
     Filename D:\ssagwebster\Lambert, Hendricks & Ross - Four Classic Albums (2CD, 2018)\CD2\10. Lil' Darlin'.wav
     Pre-gap length  0:00:02.00
     Peak level 77.2 %
     Extraction speed 6.1 X
     Track quality 99.9 %
     Test CRC B9C72D9B
     Copy CRC B9C72D9B
     Track not present in AccurateRip database
     Copy OK
Track 11
     Filename D:\ssagwebster\Lambert, Hendricks & Ross - Four Classic Albums (2CD, 2018)\CD2\11. Charleston Alley.wav
     Pre-gap length  0:00:02.00
     Peak level 100.0 %
     Extraction speed 6.7 X
     Track quality 100.0 %
     Test CRC E1864198
     Copy CRC E1864198
     Track not present in AccurateRip database
     Copy OK
Track 12
     Filename D:\ssagwebster\Lambert, Hendricks & Ross - Four Classic Albums (2CD, 2018)\CD2\12. Moanin'.wav
     Pre-gap length  0:00:02.00
     Peak level 97.7 %
     Extraction speed 6.6 X
     Track quality 100.0 %
     Test CRC B7C95F09
     Copy CRC B7C95F09
     Track not present in AccurateRip database
     Copy OK
Track 13
     Filename D:\ssagwebster\Lambert, Hendricks & Ross - Four Classic Albums (2CD, 2018)\CD2\13. Twisted.wav
     Pre-gap length  0:00:02.00
     Peak level 100.0 %
     Extraction speed 6.6 X
     Track quality 100.0 %
     Test CRC 291E315B
     Copy CRC 291E315B
     Track not present in AccurateRip database
     Copy OK
Track 14
     Filename D:\ssagwebster\Lambert, Hendricks & Ross - Four Classic Albums (2CD, 2018)\CD2\14. Bijou.wav
     Pre-gap length  0:00:02.00
     Peak level 95.3 %
     Extraction speed 7.2 X
     Track quality 100.0 %
     Test CRC D08247B3
     Copy CRC D08247B3
     Track not present in AccurateRip database
     Copy OK
Track 15
     Filename D:\ssagwebster\Lambert, Hendricks & Ross - Four Classic Albums (2CD, 2018)\CD2\15. Cloudburst.wav
     Pre-gap length  0:00:02.00
     Peak level 99.8 %
     Extraction speed 6.8 X
     Track quality 100.0 %
     Test CRC F76682AA
     Copy CRC F76682AA
     Track not present in AccurateRip database
     Copy OK
Track 16
     Filename D:\ssagwebster\Lambert, Hendricks & Ross - Four Classic Albums (2CD, 2018)\CD2\16. Centerpiece.wav
     Pre-gap length  0:00:02.00
     Peak level 95.8 %
     Extraction speed 7.0 X
     Track quality 100.0 %
     Test CRC B9A52AE5
     Copy CRC B9A52AE5
     Track not present in AccurateRip database
     Copy OK
Track 17
     Filename D:\ssagwebster\Lambert, Hendricks & Ross - Four Classic Albums (2CD, 2018)\CD2\17. Gimme That Wine.wav
     Pre-gap length  0:00:02.00
     Peak level 95.6 %
     Extraction speed 7.4 X
     Track quality 100.0 %
     Test CRC D65F7CE0
     Copy CRC D65F7CE0
     Track not present in AccurateRip database
     Copy OK
Track 18
     Filename D:\ssagwebster\Lambert, Hendricks & Ross - Four Classic Albums (2CD, 2018)\CD2\18. Sermonette.wav
     Pre-gap length  0:00:02.00
     Peak level 98.7 %
     Extraction speed 7.9 X
     Track quality 100.0 %
     Test CRC 2234682A
     Copy CRC 2234682A
     Track not present in AccurateRip database
     Copy OK
Track 19
     Filename D:\ssagwebster\Lambert, Hendricks & Ross - Four Classic Albums (2CD, 2018)\CD2\19. Summertime.wav
     Pre-gap length  0:00:02.00
     Peak level 89.2 %
     Extraction speed 7.0 X
     Track quality 100.0 %
     Test CRC 68DA68A0
     Copy CRC 68DA68A0
     Track not present in AccurateRip database
     Copy OK
Track 20
     Filename D:\ssagwebster\Lambert, Hendricks & Ross - Four Classic Albums (2CD, 2018)\CD2\20. Everybody's Boppin'.wav
     Pre-gap length  0:00:02.00
     Peak level 95.1 %
     Extraction speed 8.3 X
     Track quality 100.0 %
     Test CRC 5574BFBE
     Copy CRC 5574BFBE
     Track not present in AccurateRip database
     Copy OK
None of the tracks are present in the AccurateRip database
No errors occurred
End of status report
==== Log checksum 85075A71022F42BE4706546D694DFDFD3B21AC59E1B0AA57DF08602EFE68007B ====
Код:
REM GENRE Jazz
REM DATE 2018
REM DISCID 040F0A14
REM COMMENT "ExactAudioCopy v1.3"
PERFORMER "Lambert, Hendricks & Ross"
TITLE "Four Classic Albums CD2"
FILE "01 - Jumpin' at the Woodside.wav" WAVE
  TRACK 01 AUDIO
    TITLE "Jumpin' at the Woodside"
    PERFORMER "Lambert, Hendricks & Ross"
    ISRC GBBMH1832021
    INDEX 01 00:00:00
  TRACK 02 AUDIO
    TITLE "Goin' to Chicago Blues"
    PERFORMER "Lambert, Hendricks & Ross"
    ISRC GBBMH1832022
    INDEX 00 03:18:16
FILE "02 - Goin' to Chicago Blues.wav" WAVE
    INDEX 01 00:00:00
  TRACK 03 AUDIO
    TITLE "Tickle Toe"
    PERFORMER "Lambert, Hendricks & Ross"
    ISRC GBBMH1832023
    INDEX 00 04:11:02
FILE "03 - Tickle Toe.wav" WAVE
    INDEX 01 00:00:00
  TRACK 04 AUDIO
    TITLE "Let Me See"
    PERFORMER "Lambert, Hendricks & Ross"
    ISRC GBBMH1832024
    INDEX 00 02:38:11
FILE "04 - Let Me See.wav" WAVE
    INDEX 01 00:00:00
  TRACK 05 AUDIO
    TITLE "Every Tub"
    PERFORMER "Lambert, Hendricks & Ross"
    ISRC GBBMH1832025
    INDEX 00 03:13:42
FILE "05 - Every Tub.wav" WAVE
    INDEX 01 00:00:00
  TRACK 06 AUDIO
    TITLE "Shorty George"
    PERFORMER "Lambert, Hendricks & Ross"
    ISRC GBBMH1832026
    INDEX 00 03:23:56
FILE "06 - Shorty George.wav" WAVE
    INDEX 01 00:00:00
  TRACK 07 AUDIO
    TITLE "Rusty Dusty Blues"
    PERFORMER "Lambert, Hendricks & Ross"
    ISRC GBBMH1832027
    INDEX 00 03:06:43
FILE "07 - Rusty Dusty Blues.wav" WAVE
    INDEX 01 00:00:00
  TRACK 08 AUDIO
    TITLE "The King"
    PERFORMER "Lambert, Hendricks & Ross"
    ISRC GBBMH1832028
    INDEX 00 03:44:12
FILE "08 - The King.wav" WAVE
    INDEX 01 00:00:00
  TRACK 09 AUDIO
    TITLE "Swingin' the Blues"
    PERFORMER "Lambert, Hendricks & Ross"
    ISRC GBBMH1832029
    INDEX 00 03:22:61
FILE "09 - Swingin' the Blues.wav" WAVE
    INDEX 01 00:00:00
  TRACK 10 AUDIO
    TITLE "Lil' Darlin'"
    PERFORMER "Lambert, Hendricks & Ross"
    ISRC GBBMH1832030
    INDEX 00 03:02:26
FILE "10 - Lil' Darlin'.wav" WAVE
    INDEX 01 00:00:00
  TRACK 11 AUDIO
    TITLE "Charleston Alley"
    PERFORMER "Lambert, Hendricks & Ross"
    ISRC GBBMH1832031
    INDEX 00 04:37:15
FILE "11 - Charleston Alley.wav" WAVE
    INDEX 01 00:00:00
  TRACK 12 AUDIO
    TITLE "Moanin'"
    PERFORMER "Lambert, Hendricks & Ross"
    ISRC GBBMH1832032
    INDEX 00 03:18:44
FILE "12 - Moanin'.wav" WAVE
    INDEX 01 00:00:00
  TRACK 13 AUDIO
    TITLE "Twisted"
    PERFORMER "Lambert, Hendricks & Ross"
    ISRC GBBMH1832033
    INDEX 00 02:34:48
FILE "13 - Twisted.wav" WAVE
    INDEX 01 00:00:00
  TRACK 14 AUDIO
    TITLE "Bijou"
    PERFORMER "Lambert, Hendricks & Ross"
    ISRC GBBMH1832034
    INDEX 00 02:17:12
FILE "14 - Bijou.wav" WAVE
    INDEX 01 00:00:00
  TRACK 15 AUDIO
    TITLE "Cloudburst"
    PERFORMER "Lambert, Hendricks & Ross"
    ISRC GBBMH1832035
    INDEX 00 03:17:25
FILE "15 - Cloudburst.wav" WAVE
    INDEX 01 00:00:00
  TRACK 16 AUDIO
    TITLE "Centerpiece"
    PERFORMER "Lambert, Hendricks & Ross"
    ISRC GBBMH1832036
    INDEX 00 02:16:66
FILE "16 - Centerpiece.wav" WAVE
    INDEX 01 00:00:00
  TRACK 17 AUDIO
    TITLE "Gimme That Wine"
    PERFORMER "Lambert, Hendricks & Ross"
    ISRC GBBMH1832037
    INDEX 00 02:27:49
FILE "17 - Gimme That Wine.wav" WAVE
    INDEX 01 00:00:00
  TRACK 18 AUDIO
    TITLE "Sermonette"
    PERFORMER "Lambert, Hendricks & Ross"
    ISRC GBBMH1832038
    INDEX 00 02:58:56
FILE "18 - Sermonette.wav" WAVE
    INDEX 01 00:00:00
  TRACK 19 AUDIO
    TITLE "Summertime"
    PERFORMER "Lambert, Hendricks & Ross"
    ISRC GBBMH1832039
    INDEX 00 03:48:11
FILE "19 - Summertime.wav" WAVE
    INDEX 01 00:00:00
  TRACK 20 AUDIO
    TITLE "Everybody's Boppin'"
    PERFORMER "Lambert, Hendricks & Ross"
    ISRC GBBMH1832040
    INDEX 00 01:44:23
FILE "20 - Everybody's Boppin'.wav" WAVE
    INDEX 01 00:00:00
Two yanks and a limey! No, not the ingredients for a smooth cocktail but for one of the first vocal super-groups in jazz. Dave Lambert, Jon Hendricks and Annie Ross formed their unique trio in 1957 and kicked off with the classic vocalese album Sing A Song Of Basie which garnered such lavish praise from the Count himself that they went on to make a second album, Sing Along With Basie in 1959. Check out some of the heavyweight jazz musicians who thought these three were cool enough to play with…. Count Basie, Zoot Sims, Russ Freeman, Tommy Flanagan, Jim Hall, Elvin Jones, Freddie Green, Harry Edison, Thad Jones, Joe Newman, Frank Wess and Joe Williams. The original group splintered in 1962 when British born Annie Ross left for a spectacular solo career as a jazz singer. They left behind a string or Grammy awards and a highly influential sound that has often been copied but never bettered.
Правила, инструкции, FAQ!!!
Торрент  Добавлен [22 июн 2020, 15:38] Скачать торрент Магнет ссылка
Скачать торрент
[ Размер 17.94 КБ / Просмотров 1 ]

Статус
Проверен 
 
Размер  723.34 МБ
Приватный: Нет (DHT включён)
.torrent скачан  0
 


     Отправить личное сообщение
   
Страница 1 из 1
Показать сообщения за:  Поле сортировки  
Начать новую тему Ответить на тему


Сейчас этот форум просматривают: нет зарегистрированных пользователей и гости: 1


Вы не можете начинать темы
Вы не можете отвечать на сообщения
Вы не можете редактировать свои сообщения
Вы не можете удалять свои сообщения
Вы не можете добавлять вложения

Перейти:  
cron