Начать новую тему Ответить на тему
Статистика раздачи
Размер: 881.97 МБ | Добавлен: 02 мар 2020, 16:52 | Скачали: 0
Сидеров: 1  [0 байт/сек]    Личеров: 0  [0 байт/сек]
Пред. тема | След. тема 

Автор
Сообщение

СообщениеДобавлено: 02 мар 2020, 16:52 

Ответить с цитатой 

Katie Melua / Katie Melua ft. Gori Women's Choir - Live In Concert
Жанр: Vocal Jazz
Носитель: CD
Страна-производитель диска (релиза): EU
Год издания: 2019
Издатель (лейбл): BMG
Номер по каталогу: 538558842 LC19813
Страна исполнителя (группы): UK
Аудиокодек: FLAC (*.flac)
Тип рипа: image+.cue
Продолжительность: 01:25:31
Источник: собственный рип
Наличие сканов в содержимом раздачи: да
Треклист:
01. Tu Ase Turpa Ikavi [0:02:33.00]
02. Plane Song [0:03:42.00]
03. Belfast [0:04:32.00]
04. Nine Million Bicycles [0:03:33.61]
05. Just Like Heaven [0:03:59.05]
06. River [0:03:41.57]
07. Dreams On Fire [0:04:21.68]
08. Cradle Song [0:02:07.52]
09. Nunc Dimittis [0:04:37.11]
10. O Holy Night [0:04:52.19]
11. Diamonds Are Forever [0:03:15.68]
Код:
Exact Audio Copy V1.3 from 2. September 2016
Отчёт EAC об извлечении, выполненном 25. февраля 2020, 19:21
Katie Melua / Katie Melua ft. Gori Women's Choir (Live In Concert)
Дисковод: PLEXTOR DVDR   PX-755A   Adapter: 1  ID: 1
Режим чтения                 : Достоверность
Использование точного потока : Да
Отключение кэша аудио        : Да
Использование указателей C2  : Нет
Коррекция смещения при чтении                     : 30
Способность читать области Lead-in и Lead-out     : Нет
Заполнение пропущенных сэмплов тишиной            : Да
Удаление блоков с тишиной в начале и конце        : Нет
При вычислениях CRC использовались нулевые сэмплы : Да
Интерфейс                                         : Встроенный Win32-интерфейс для Win NT/2000
Выходной формат          : Пользовательский кодировщик
Выбранный битрейт        : 128 kBit/s
Качество                 : Высокий
Добавление ID3-тега      : Нет
Утилита сжатия           : C:\Program Files (x86)\Exact Audio Copy\Flac\flac.exe
Дополнительные параметры : -V -8 -T "Date=%year%" -T "Genre=%genre%" %source%
TOC извлечённого CD
     Трек |   Старт  | Длительность | Начальный сектор | Конечный сектор
    ---------------------------------------------------------------------
       1  |  0:00.00 |    2:33.00   |           0      |      11474
       2  |  2:33.00 |    3:42.00   |       11475      |      28124
       3  |  6:15.00 |    4:32.00   |       28125      |      48524
       4  | 10:47.00 |    3:33.61   |       48525      |      64560
       5  | 14:20.61 |    3:59.05   |       64561      |      82490
       6  | 18:19.66 |    3:41.57   |       82491      |      99122
       7  | 22:01.48 |    4:21.68   |       99123      |     118765
       8  | 26:23.41 |    2:07.52   |      118766      |     128342
       9  | 28:31.18 |    4:37.11   |      128343      |     149128
      10  | 33:08.29 |    4:52.19   |      149129      |     171047
      11  | 38:00.48 |    3:15.68   |      171048      |     185740
Характеристики диапазона извлечения и сообщения об ошибках
Выбранный диапазон
     Имя файла D:\РАЗДАЧА\Katie Melua ft. Gori Women's Choir - Live In Concert - 2019\Katie Melua - Katie Melua ft. Gori Women's Choir (Live In Concert).wav
     Пиковый уровень 97.9 %
     Скорость извлечения 7.5 X
     Качество диапазона 100.0 %
     CRC теста B99DB011
     CRC копии B99DB011
     Копирование... OK
Ошибок не произошло
AccurateRip: сводка
Трек  1  : извлечено точно (доверие 7)  [B85552CD]  (AR v2)
Трек  2  : извлечено точно (доверие 7)  [9EBF10B3]  (AR v2)
Трек  3  : извлечено точно (доверие 7)  [1D910033]  (AR v2)
Трек  4  : извлечено точно (доверие 7)  [F499159A]  (AR v2)
Трек  5  : извлечено точно (доверие 7)  [B23C6C22]  (AR v2)
Трек  6  : извлечено точно (доверие 7)  [146A0FB5]  (AR v2)
Трек  7  : извлечено точно (доверие 7)  [B84E865F]  (AR v2)
Трек  8  : извлечено точно (доверие 7)  [614D5CBC]  (AR v2)
Трек  9  : извлечено точно (доверие 7)  [FE1D19E9]  (AR v2)
Трек 10  : извлечено точно (доверие 7)  [8A956826]  (AR v2)
Трек 11  : извлечено точно (доверие 7)  [2CE7BDDF]  (AR v2)
Все треки извлечены точно
Конец отчёта
---- CUETools DB Plugin V2.1.6
[CTDB TOCID: 1dlKSYxatVXfM6zHVCo_6I9XcU0-] found
Submit result: 1dlKSYxatVXfM6zHVCo_6I9XcU0- has been confirmed
Track | CTDB Status
  1   | (72/72) Accurately ripped
  2   | (72/72) Accurately ripped
  3   | (72/72) Accurately ripped
  4   | (72/72) Accurately ripped
  5   | (72/72) Accurately ripped
  6   | (72/72) Accurately ripped
  7   | (72/72) Accurately ripped
  8   | (72/72) Accurately ripped
  9   | (72/72) Accurately ripped
 10   | (72/72) Accurately ripped
 11   | (70/72) Accurately ripped
==== Контрольная сумма отчёта A025085928FED2E5223AA05AAB33E4AB007AE97B24BD55F14E144505F076FA67 ====
Код:
REM GENRE Vocal
REM DATE 2019
REM DISCID 8D09AC0B
REM COMMENT "ExactAudioCopy v1.3"
PERFORMER "Katie Melua"
TITLE "Katie Melua ft. Gori Women's Choir (Live In Concert)"
REM COMPOSER "Katie Melua"
FILE "Katie Melua - Katie Melua ft. Gori Women's Choir (Live In Concert).flac" WAVE
  TRACK 01 AUDIO
    TITLE "1 Tu Ase Turpa Ikavi"
    PERFORMER "Katie Melua"
    REM COMPOSER "Katie Melua"
    INDEX 01 00:00:00
  TRACK 02 AUDIO
    TITLE "2 Plane Song"
    PERFORMER "Katie Melua"
    REM COMPOSER "Katie Melua"
    INDEX 01 02:33:00
  TRACK 03 AUDIO
    TITLE "3 Belfast"
    PERFORMER "Katie Melua"
    REM COMPOSER "Katie Melua"
    INDEX 01 06:15:00
  TRACK 04 AUDIO
    TITLE "4 Nine Million Bicycles"
    PERFORMER "Katie Melua"
    REM COMPOSER "Katie Melua"
    INDEX 01 10:47:00
  TRACK 05 AUDIO
    TITLE "5 Just Like Heaven"
    PERFORMER "Katie Melua"
    REM COMPOSER "Katie Melua"
    INDEX 01 14:20:61
  TRACK 06 AUDIO
    TITLE "6 River"
    PERFORMER "Katie Melua"
    REM COMPOSER "Katie Melua"
    INDEX 01 18:19:66
  TRACK 07 AUDIO
    TITLE "7 Dreams On Fire"
    PERFORMER "Katie Melua"
    REM COMPOSER "Katie Melua"
    INDEX 01 22:01:48
  TRACK 08 AUDIO
    TITLE "8 Cradle Song"
    PERFORMER "Katie Melua"
    REM COMPOSER "Katie Melua"
    INDEX 01 26:23:41
  TRACK 09 AUDIO
    TITLE "9 Nunc Dimittis"
    PERFORMER "Katie Melua"
    REM COMPOSER "Katie Melua"
    INDEX 01 28:31:18
  TRACK 10 AUDIO
    TITLE "10 O Holy Night"
    PERFORMER "Katie Melua"
    REM COMPOSER "Katie Melua"
    INDEX 01 33:08:29
  TRACK 11 AUDIO
    TITLE "11 Diamonds Are Forever"
    PERFORMER "Katie Melua"
    REM COMPOSER "Katie Melua"
    INDEX 01 38:00:48
Треклист
01. Perfect World [0:04:50.17]
02. The Little Swallow [0:02:12.41]
03. I Cried For You [0:04:01.70]
04. The Flood [0:04:36.52]
05. The Closest Thing To Crazy [0:04:32.28]
06. Piece By Piece [0:03:41.00]
07. Wonderful Life [0:06:37.45]
08. Fields Of Gold [0:03:56.47]
09. Maybe I Dreamt It [0:05:10.00]
10. What A Wonderful World [0:04:36.23]
Код:
Exact Audio Copy V1.3 from 2. September 2016
Отчёт EAC об извлечении, выполненном 25. февраля 2020, 20:10
Katie Melua / Katie Melua ft.Gori Women's Choir  (Live In Concert) - CD2
Дисковод: PLEXTOR DVDR   PX-755A   Adapter: 1  ID: 1
Режим чтения                 : Достоверность
Использование точного потока : Да
Отключение кэша аудио        : Да
Использование указателей C2  : Нет
Коррекция смещения при чтении                     : 30
Способность читать области Lead-in и Lead-out     : Нет
Заполнение пропущенных сэмплов тишиной            : Да
Удаление блоков с тишиной в начале и конце        : Нет
При вычислениях CRC использовались нулевые сэмплы : Да
Интерфейс                                         : Встроенный Win32-интерфейс для Win NT/2000
Выходной формат          : Пользовательский кодировщик
Выбранный битрейт        : 128 kBit/s
Качество                 : Высокий
Добавление ID3-тега      : Нет
Утилита сжатия           : C:\Program Files (x86)\Exact Audio Copy\Flac\flac.exe
Дополнительные параметры : -V -8 -T "Date=%year%" -T "Genre=%genre%" %source%
TOC извлечённого CD
     Трек |   Старт  | Длительность | Начальный сектор | Конечный сектор
    ---------------------------------------------------------------------
       1  |  0:00.00 |    4:50.17   |           0      |      21766
       2  |  4:50.17 |    2:12.41   |       21767      |      31707
       3  |  7:02.58 |    4:01.70   |       31708      |      49852
       4  | 11:04.53 |    4:36.52   |       49853      |      70604
       5  | 15:41.30 |    4:32.28   |       70605      |      91032
       6  | 20:13.58 |    3:41.00   |       91033      |     107607
       7  | 23:54.58 |    6:37.45   |      107608      |     137427
       8  | 30:32.28 |    3:56.47   |      137428      |     155174
       9  | 34:29.00 |    5:10.00   |      155175      |     178424
      10  | 39:39.00 |    4:36.23   |      178425      |     199147
Характеристики диапазона извлечения и сообщения об ошибках
Выбранный диапазон
     Имя файла D:\РАЗДАЧА\Katie Melua ft. Gori Women's Choir - Live In Concert - 2019\CD-2\Katie Melua - Katie Melua ft.Gori Women's Choir  (Live In Concert) - CD2.wav
     Пиковый уровень 98.5 %
     Скорость извлечения 6.1 X
     Качество диапазона 100.0 %
     CRC теста 8F433900
     CRC копии 8F433900
     Копирование... OK
Ошибок не произошло
AccurateRip: сводка
Трек  1  : извлечено точно (доверие 4)  [10DDCDFF]  (AR v2)
Трек  2  : извлечено точно (доверие 4)  [6400E4E8]  (AR v2)
Трек  3  : извлечено точно (доверие 4)  [B5B16A3F]  (AR v2)
Трек  4  : извлечено точно (доверие 4)  [C196C08D]  (AR v2)
Трек  5  : извлечено точно (доверие 4)  [40D1B13E]  (AR v2)
Трек  6  : извлечено точно (доверие 4)  [5A983D25]  (AR v2)
Трек  7  : извлечено точно (доверие 4)  [13051401]  (AR v2)
Трек  8  : извлечено точно (доверие 4)  [2A25D873]  (AR v2)
Трек  9  : извлечено точно (доверие 4)  [4191ED4D]  (AR v2)
Трек 10  : извлечено точно (доверие 4)  [F315713B]  (AR v2)
Все треки извлечены точно
Конец отчёта
---- CUETools DB Plugin V2.1.6
[CTDB TOCID: qAuDmSM7C.CWGkaldWM_qfXlPs4-] found
Submit result: qAuDmSM7C.CWGkaldWM_qfXlPs4- has been confirmed
Track | CTDB Status
  1   | (73/73) Accurately ripped
  2   | (73/73) Accurately ripped
  3   | (73/73) Accurately ripped
  4   | (73/73) Accurately ripped
  5   | (73/73) Accurately ripped
  6   | (73/73) Accurately ripped
  7   | (73/73) Accurately ripped
  8   | (73/73) Accurately ripped
  9   | (73/73) Accurately ripped
 10   | (73/73) Accurately ripped
==== Контрольная сумма отчёта C9EA7439C9A8E0C39B7B0B17925EFD8840D98E824CFE89CB10AEF6B00D00FC40 ====
Код:
REM GENRE Vocal
REM DATE 2019
REM DISCID 7A0A5F0A
REM COMMENT "ExactAudioCopy v1.3"
PERFORMER "Katie Melua"
TITLE "Katie Melua ft.Gori Women's Choir  (Live In Concert) - CD2"
REM COMPOSER "Katie Melua"
FILE "Katie Melua - Katie Melua ft.Gori Women's Choir  (Live In Concert) - CD2.flac" WAVE
  TRACK 01 AUDIO
    TITLE "1 Perfect World"
    PERFORMER "Katie Melua"
    REM COMPOSER "Katie Melua"
    INDEX 01 00:00:00
  TRACK 02 AUDIO
    TITLE "2 The Little Swallow"
    PERFORMER "Katie Melua"
    REM COMPOSER "Katie Melua"
    INDEX 01 04:50:17
  TRACK 03 AUDIO
    TITLE "3 I Cried For You"
    PERFORMER "Katie Melua"
    REM COMPOSER "Katie Melua"
    INDEX 01 07:02:58
  TRACK 04 AUDIO
    TITLE "4 The Flood"
    PERFORMER "Katie Melua"
    REM COMPOSER "Katie Melua"
    INDEX 01 11:04:53
  TRACK 05 AUDIO
    TITLE "5 The Closest Thing To Crazy"
    PERFORMER "Katie Melua"
    REM COMPOSER "Katie Melua"
    INDEX 01 15:41:30
  TRACK 06 AUDIO
    TITLE "6 Piece By Piece"
    PERFORMER "Katie Melua"
    REM COMPOSER "Katie Melua"
    INDEX 01 20:13:58
  TRACK 07 AUDIO
    TITLE "7 Wonderful Life"
    PERFORMER "Katie Melua"
    REM COMPOSER "Katie Melua"
    INDEX 01 23:54:58
  TRACK 08 AUDIO
    TITLE "8 Fields Of Gold"
    PERFORMER "Katie Melua"
    REM COMPOSER "Katie Melua"
    INDEX 01 30:32:28
  TRACK 09 AUDIO
    TITLE "9 Maybe I Dreamt It"
    PERFORMER "Katie Melua"
    REM COMPOSER "Katie Melua"
    INDEX 01 34:29:00
  TRACK 10 AUDIO
    TITLE "10 What A Wonderful World"
    PERFORMER "Katie Melua"
    REM COMPOSER "Katie Melua"
    INDEX 01 39:39:00
Правила, инструкции, FAQ!!!
Торрент  Добавлен [02 мар 2020, 16:52] Скачать торрент Магнет ссылка
Скачать торрент
[ Размер 21.09 КБ / Просмотров 7 ]

Статус
Проверен 
 
Размер  881.97 МБ
Приватный: Нет (DHT включён)
.torrent скачан  0
 


     Отправить личное сообщение
   
Страница 1 из 1
Показать сообщения за:  Поле сортировки  
Начать новую тему Ответить на тему


Сейчас этот форум просматривают: нет зарегистрированных пользователей и гости: 0


Вы не можете начинать темы
Вы не можете отвечать на сообщения
Вы не можете редактировать свои сообщения
Вы не можете удалять свои сообщения
Вы не можете добавлять вложения

Перейти:  
cron
cron