Начать новую тему Ответить на тему
Статистика раздачи
Размер: 239.27 МБ | Добавлен: 02 мар 2020, 16:51 | Скачали: 0
Сидеров: 0  [0 байт/сек]    Личеров: 0  [0 байт/сек]
Пред. тема | След. тема 

Автор
Сообщение

СообщениеДобавлено: 02 мар 2020, 16:51 

Ответить с цитатой 

Maki Asakawa - Who's Knocking on My Door
Жанр: Vocal Jazz, Funk, Rock
Носитель: CD
Страна-производитель диска (релиза): Япония
Год издания: 1983 (2011)
Издатель (лейбл): Express/Toshiba-EMI
Номер по каталогу: TOCT-27075
Аудиокодек: FLAC (*.flac)
Тип рипа: tracks+.cue
Продолжительность: 00:37:05
Источник: What.CD
Наличие сканов в содержимом раздачи: нет
Треклист:
01. Mada Wakakute (3:54)
02. Tomodachi (4:57)
03. Ano Otoko ga Yokatta Nante Nostalgie (4:44)
04. Machi no Kisen (3:50)
05. Jidai ni Awasete Kokyuu wo Suru Tsumori wa Nai (2:17)
06. Kurashi (4:11)
07. Kiri ni Hisomu (4:19)
08. Saigo no Melody (5:37)
09. Control (3:16)
Код:
X Lossless Decoder version 20140504 (147.0)
XLD extraction logfile from 2014-06-18 16:13:47 +0900
浅川マキ / Who's knocking on my door
Used drive : MATSHITA DVD-R   UJ-8A8 (revision HB14)
Media type : Pressed CD
Ripper mode             : XLD Secure Ripper
Disable audio cache     : OK for the drive with a cache less than 1375KiB
Make use of C2 pointers : NO
Read offset correction  : 102
Max retry count         : 20
Gap status              : Analyzed, Appended (except HTOA)
TOC of the extracted CD
     Track |   Start  |  Length  | Start sector | End sector
    ---------------------------------------------------------
        1  | 00:00:00 | 03:54:09 |         0    |    17558
        2  | 03:54:09 | 04:57:36 |     17559    |    39869
        3  | 08:51:45 | 04:44:01 |     39870    |    61170
        4  | 13:35:46 | 03:50:22 |     61171    |    78442
        5  | 17:25:68 | 02:16:45 |     78443    |    88687
        6  | 19:42:38 | 04:11:37 |     88688    |   107549
        7  | 23:54:00 | 04:18:68 |    107550    |   126967
        8  | 28:12:68 | 05:37:16 |    126968    |   152258
        9  | 33:50:09 | 03:16:32 |    152259    |   166990
AccurateRip Summary (DiscID: 000ccf4b-005d936f-6b08b209)
    Track 01 : OK (v1+v2, confidence 2/2)
    Track 02 : OK (v1+v2, confidence 2/2)
    Track 03 : OK (v1+v2, confidence 2/2)
    Track 04 : OK (v1+v2, confidence 2/2)
    Track 05 : OK (v1+v2, confidence 2/2)
    Track 06 : OK (v1+v2, confidence 2/2)
    Track 07 : OK (v1+v2, confidence 2/2)
    Track 08 : OK (v1+v2, confidence 2/2)
    Track 09 : OK (v1+v2, confidence 2/2)
        ->All tracks accurately ripped.
All Tracks
    Album gain               : -5.30 dB
    Peak                     : 1.000000
    Statistics
        Read error                           : 0
        Jitter error (maybe fixed)           : 0
        Retry sector count                   : 0
        Damaged sector count                 : 0
Track 01
    Filename : /Volumes/G/浅川マキ - Who's knocking on my door (1983) [FLAC]/01 まだ若くて.flac
    Pre-gap length : 00:02:00
    Track gain               : -5.11 dB
    Peak                     : 1.000000
    CRC32 hash (test run)    : 516606FE
    CRC32 hash               : 516606FE
    CRC32 hash (skip zero)   : EB06D413
    AccurateRip v1 signature : B4DADD4A
    AccurateRip v2 signature : 1E5136C2
        ->Accurately ripped (v1+v2, confidence 1+1/2)
    Statistics
        Read error                           : 0
        Jitter error (maybe fixed)           : 0
        Retry sector count                   : 0
        Damaged sector count                 : 0
Track 02
    Filename : /Volumes/G/浅川マキ - Who's knocking on my door (1983) [FLAC]/02 ともだち.flac
    Pre-gap length : 00:02:53
    Track gain               : -7.03 dB
    Peak                     : 1.000000
    CRC32 hash (test run)    : F6136C39
    CRC32 hash               : F6136C39
    CRC32 hash (skip zero)   : DB6AF69F
    AccurateRip v1 signature : 1ABB3DAD
    AccurateRip v2 signature : 8AE416B3
        ->Accurately ripped (v1+v2, confidence 1+1/2)
    Statistics
        Read error                           : 0
        Jitter error (maybe fixed)           : 0
        Retry sector count                   : 0
        Damaged sector count                 : 0
Track 03
    Filename : /Volumes/G/浅川マキ - Who's knocking on my door (1983) [FLAC]/03 あの男がよかったなんて ノスタルジー.flac
    Pre-gap length : 00:05:09
    Track gain               : 1.04 dB
    Peak                     : 1.000000
    CRC32 hash (test run)    : 83F63EE9
    CRC32 hash               : 83F63EE9
    CRC32 hash (skip zero)   : 36B25C1D
    AccurateRip v1 signature : 660F6F3B
    AccurateRip v2 signature : 8C62491D
        ->Accurately ripped (v1+v2, confidence 1+1/2)
    Statistics
        Read error                           : 0
        Jitter error (maybe fixed)           : 0
        Retry sector count                   : 0
        Damaged sector count                 : 0
Track 04
    Filename : /Volumes/G/浅川マキ - Who's knocking on my door (1983) [FLAC]/04 町の汽船.flac
    Pre-gap length : 00:02:40
    Track gain               : -5.42 dB
    Peak                     : 1.000000
    CRC32 hash (test run)    : E3F23DDD
    CRC32 hash               : E3F23DDD
    CRC32 hash (skip zero)   : 167E0F92
    AccurateRip v1 signature : 4B29C42A
    AccurateRip v2 signature : 57302690
        ->Accurately ripped (v1+v2, confidence 1+1/2)
    Statistics
        Read error                           : 0
        Jitter error (maybe fixed)           : 0
        Retry sector count                   : 0
        Damaged sector count                 : 0
Track 05
    Filename : /Volumes/G/浅川マキ - Who's knocking on my door (1983) [FLAC]/05 時代に合わせて呼吸をする積もりはない.flac
    Pre-gap length : 00:02:14
    Track gain               : -5.60 dB
    Peak                     : 1.000000
    CRC32 hash (test run)    : CCE7D139
    CRC32 hash               : CCE7D139
    CRC32 hash (skip zero)   : 32214913
    AccurateRip v1 signature : DE62F39B
    AccurateRip v2 signature : 7C8C2F60
        ->Accurately ripped (v1+v2, confidence 1+1/2)
    Statistics
        Read error                           : 0
        Jitter error (maybe fixed)           : 0
        Retry sector count                   : 0
        Damaged sector count                 : 0
Track 06
    Filename : /Volumes/G/浅川マキ - Who's knocking on my door (1983) [FLAC]/06 暮し.flac
    Pre-gap length : 00:02:49
    Track gain               : -1.13 dB
    Peak                     : 1.000000
    CRC32 hash (test run)    : 900597FB
    CRC32 hash               : 900597FB
    CRC32 hash (skip zero)   : FBA92044
    AccurateRip v1 signature : C5E2379E
    AccurateRip v2 signature : 1C081D90
        ->Accurately ripped (v1+v2, confidence 1+1/2)
    Statistics
        Read error                           : 0
        Jitter error (maybe fixed)           : 0
        Retry sector count                   : 0
        Damaged sector count                 : 0
Track 07
    Filename : /Volumes/G/浅川マキ - Who's knocking on my door (1983) [FLAC]/07 霧に潜む.flac
    Pre-gap length : 00:02:14
    Track gain               : -4.94 dB
    Peak                     : 1.000000
    CRC32 hash (test run)    : 2A393030
    CRC32 hash               : 2A393030
    CRC32 hash (skip zero)   : 9E70802D
    AccurateRip v1 signature : 7608F82C
    AccurateRip v2 signature : 154A1379
        ->Accurately ripped (v1+v2, confidence 1+1/2)
    Statistics
        Read error                           : 0
        Jitter error (maybe fixed)           : 0
        Retry sector count                   : 0
        Damaged sector count                 : 0
Track 08
    Filename : /Volumes/G/浅川マキ - Who's knocking on my door (1983) [FLAC]/08 最後のメロディ.flac
    Pre-gap length : 00:04:07
    Track gain               : -2.98 dB
    Peak                     : 1.000000
    CRC32 hash (test run)    : B2935535
    CRC32 hash               : B2935535
    CRC32 hash (skip zero)   : 0187AC88
    AccurateRip v1 signature : 28FFFFF6
    AccurateRip v2 signature : 3E5F12F5
        ->Accurately ripped (v1+v2, confidence 1+1/2)
    Statistics
        Read error                           : 0
        Jitter error (maybe fixed)           : 0
        Retry sector count                   : 0
        Damaged sector count                 : 0
Track 09
    Filename : /Volumes/G/浅川マキ - Who's knocking on my door (1983) [FLAC]/09 コントロール.flac
    Pre-gap length : 00:03:34
    Track gain               : -4.48 dB
    Peak                     : 1.000000
    CRC32 hash (test run)    : 59236C8A
    CRC32 hash               : 59236C8A
    CRC32 hash (skip zero)   : 7C94A8ED
    AccurateRip v1 signature : C0ED7538
    AccurateRip v2 signature : 61282B8C
        ->Accurately ripped (v1+v2, confidence 1+1/2)
    Statistics
        Read error                           : 0
        Jitter error (maybe fixed)           : 0
        Retry sector count                   : 0
        Damaged sector count                 : 0
No errors occurred
End of status report
-----BEGIN XLD SIGNATURE-----
UjF.IuLtXXREioQEHHaDDkYALDBx4xvcedtav2YwOCQ_B0V1_HzxeH5BqT0RiDirGSKXAjjSOF4cLzBPFR5U2IJEv1cVIsiFwmnQ4z4
-----END XLD SIGNATURE-----
Код:
TITLE "Who's Knocking on My Door"
PERFORMER "Maki Asakawa"
REM GENRE "Jazz"
REM DATE "1983"
REM DISCID 6B08B209
REM REPLAYGAIN_ALBUM_GAIN -5.30 dB
REM REPLAYGAIN_ALBUM_PEAK 1.000000
FILE "01 - Mada Wakakute.flac" WAVE
  TRACK 01 AUDIO
    TITLE "Mada Wakakute"
    ISRC JPTO08312430
    REM REPLAYGAIN_TRACK_GAIN -5.11 dB
    REM REPLAYGAIN_TRACK_PEAK 1.000000
    INDEX 01 00:00:00
  TRACK 02 AUDIO
    TITLE "Tomodachi"
    ISRC JPTO08312440
    REM REPLAYGAIN_TRACK_GAIN -7.03 dB
    REM REPLAYGAIN_TRACK_PEAK 1.000000
    INDEX 00 03:51:31
FILE "02 - Tomodachi.flac" WAVE
    INDEX 01 00:00:00
  TRACK 03 AUDIO
    TITLE "Ano Otoko ga Yokatta Nante Nostalgie"
    ISRC JPTO08312450
    REM REPLAYGAIN_TRACK_GAIN 1.04 dB
    REM REPLAYGAIN_TRACK_PEAK 1.000000
    INDEX 00 04:52:27
FILE "03 - Ano Otoko ga Yokatta Nante Nostalgie.flac" WAVE
    INDEX 01 00:00:00
  TRACK 04 AUDIO
    TITLE "Machi no Kisen"
    ISRC JPTO08312460
    REM REPLAYGAIN_TRACK_GAIN -5.42 dB
    REM REPLAYGAIN_TRACK_PEAK 1.000000
    INDEX 00 04:41:36
FILE "04 - Machi no Kisen.flac" WAVE
    INDEX 01 00:00:00
  TRACK 05 AUDIO
    TITLE "Jidai ni Awasete Kokyuu wo Suru Tsumori wa Nai"
    ISRC JPTO08312470
    REM REPLAYGAIN_TRACK_GAIN -5.60 dB
    REM REPLAYGAIN_TRACK_PEAK 1.000000
    INDEX 00 03:48:08
FILE "05 - Jidai ni Awasete Kokyuu wo Suru Tsumori wa Nai.flac" WAVE
    INDEX 01 00:00:00
  TRACK 06 AUDIO
    TITLE "Kurashi"
    ISRC JPTO08312480
    REM REPLAYGAIN_TRACK_GAIN -1.13 dB
    REM REPLAYGAIN_TRACK_PEAK 1.000000
    INDEX 00 02:13:71
FILE "06 - Kurashi.flac" WAVE
    INDEX 01 00:00:00
  TRACK 07 AUDIO
    TITLE "Kiri ni Hisomu"
    ISRC JPTO08312490
    REM REPLAYGAIN_TRACK_GAIN -4.94 dB
    REM REPLAYGAIN_TRACK_PEAK 1.000000
    INDEX 00 04:09:23
FILE "07 - Kiri ni Hisomu.flac" WAVE
    INDEX 01 00:00:00
  TRACK 08 AUDIO
    TITLE "Saigo no Melody"
    ISRC JPTO08312500
    REM REPLAYGAIN_TRACK_GAIN -2.98 dB
    REM REPLAYGAIN_TRACK_PEAK 1.000000
    INDEX 00 04:14:61
FILE "08 - Saigo no Melody.flac" WAVE
    INDEX 01 00:00:00
  TRACK 09 AUDIO
    TITLE "Control"
    ISRC JPTO08312510
    REM REPLAYGAIN_TRACK_GAIN -4.48 dB
    REM REPLAYGAIN_TRACK_PEAK 1.000000
    INDEX 00 05:33:57
FILE "09 - Control.flac" WAVE
    INDEX 01 00:00:00
Код:
[CUETools log; Date: 10.02.2020 22:20:46; Version: 2.1.6]
[CTDB TOCID: KLGlm.KDUKop3sWTAzsX_SWIjHA-] found.
Track | CTDB Status
  1   | (12/12) Accurately ripped
  2   | (12/12) Accurately ripped
  3   | (12/12) Accurately ripped
  4   | (12/12) Accurately ripped
  5   | (12/12) Accurately ripped
  6   | (12/12) Accurately ripped
  7   | (12/12) Accurately ripped
  8   | (12/12) Accurately ripped
  9   | (12/12) Accurately ripped
[AccurateRip ID: 000ccf4b-005d936f-6b08b209] found.
Track   [  CRC   |   V2   ] Status
 01     [b4dadd4a|1e5136c2] (2+2/4) Accurately ripped
 02     [1abb3dad|8ae416b3] (2+2/4) Accurately ripped
 03     [660f6f3b|8c62491d] (2+2/4) Accurately ripped
 04     [4b29c42a|57302690] (2+2/4) Accurately ripped
 05     [de62f39b|7c8c2f60] (2+2/4) Accurately ripped
 06     [c5e2379e|1c081d90] (2+2/4) Accurately ripped
 07     [7608f82c|154a1379] (2+2/4) Accurately ripped
 08     [28fffff6|3e5f12f5] (2+2/4) Accurately ripped
 09     [c0ed7538|61282b8c] (2+2/4) Accurately ripped
Track Peak [ CRC32  ] [W/O NULL]
 --  100,0 [E3623F4C] [CBF37652]
 01  100,0 [516606FE] [EB06D413]
 02  100,0 [F6136C39] [DB6AF69F]
 03  100,0 [83F63EE9] [36B25C1D]
 04  100,0 [E3F23DDD] [167E0F92]
 05  100,0 [CCE7D139] [32214913]
 06  100,0 [900597FB] [FBA92044]
 07  100,0 [2A393030] [9E70802D]
 08  100,0 [B2935535] [0187AC88]
 09  100,0 [59236C8A] [7C94A8ED]
Правила, инструкции, FAQ!!!
Торрент  Добавлен [02 мар 2020, 16:51] Скачать торрент Магнет ссылка
Скачать торрент
[ Размер 20.21 КБ / Просмотров 3 ]

Статус
Проверен 
 
Размер  239.27 МБ
Приватный: Нет (DHT включён)
.torrent скачан  0
 


     Отправить личное сообщение
   
Страница 1 из 1
Показать сообщения за:  Поле сортировки  
Начать новую тему Ответить на тему


Сейчас этот форум просматривают: нет зарегистрированных пользователей и гости: 0


Вы не можете начинать темы
Вы не можете отвечать на сообщения
Вы не можете редактировать свои сообщения
Вы не можете удалять свои сообщения
Вы не можете добавлять вложения

Перейти:  
cron