Начать новую тему Ответить на тему
Статистика раздачи
Размер: 316.28 МБ | Добавлен: 22 июн 2020, 15:38 | Скачали: 0
Сидеров: 0  [0 байт/сек]    Личеров: 0  [0 байт/сек]
Пред. тема | След. тема 

Автор
Сообщение

СообщениеДобавлено: 22 июн 2020, 15:38 

Ответить с цитатой 

Fay Claassen - Close to You
Жанр: Vocal Jazz
Носитель: CD
Страна-производитель диска (релиза): Нидерланды
Год издания: 2020
Издатель (лейбл): WedgeView Music
Номер по каталогу: WVM2020008
Аудиокодек: FLAC (*.flac)
Тип рипа: tracks+.cue
Продолжительность: 00:48:35
Источник: redacted
Наличие сканов в содержимом раздачи: да
Треклист:
01. The Fool on the Hill (4:20)
02. Sailing (4:20)
03. If You Leave Me Now (3:56)
04. Close to You (4:49)
05. Got to Get You into My Life (3:28)
06. One Day I'll Fly Away (5:13)
07. I Can't Make You Love Me (4:42)
08. Killing Me Softly (4:35)
09. Spinning Wheel (3:29)
10. At Seventeen (5:17)
11. The First Time Ever I Saw Your Face (4:26)
Код:
Exact Audio Copy V1.3 from 2. September 2016
EAC extraction logfile from 19. February 2020, 18:15
Fay Claassen / Close To You
Used drive  : PLEXTOR PX-891SAF   Adapter: 1  ID: 0
Read mode               : Secure
Utilize accurate stream : Yes
Defeat audio cache      : Yes
Make use of C2 pointers : No
Read offset correction                      : 6
Overread into Lead-In and Lead-Out          : No
Fill up missing offset samples with silence : Yes
Delete leading and trailing silent blocks   : No
Null samples used in CRC calculations       : Yes
Used interface                              : Native Win32 interface for Win NT & 2000
Gap handling                                : Appended to previous track
Used output format              : User Defined Encoder
Selected bitrate                : 1024 kBit/s
Quality                         : High
Add ID3 tag                     : No
Command line compressor         : C:\Program Files (x86)\Exact Audio Copy\Flac\flac.exe
Additional command line options : -8 -V -T "ARTIST=%artist%" -T "TITLE=%title%" -T "ALBUM=%albumtitle%" -T "DATE=%year%" -T "TRACKNUMBER=%tracknr%" -T "GENRE=%genre%" -T "PERFORMER=%albuminterpret%" -T "COMPOSER=%composer%" %haslyrics%--tag-from-file=LYRICS="%lyricsfile%"%haslyrics% -T "ALBUMARTIST=%albumartist%" -T "DISCNUMBER=%cdnumber%" -T "TOTALDISCS=%totalcds%" -T "TOTALTRACKS=%numtracks%" -T "COMMENT=%comment%" %source% -o %dest%
TOC of the extracted CD
     Track |   Start  |  Length  | Start sector | End sector
    ---------------------------------------------------------
        1  |  0:00.00 |  4:20.31 |         0    |    19530
        2  |  4:20.31 |  4:20.12 |     19531    |    39042
        3  |  8:40.43 |  3:55.51 |     39043    |    56718
        4  | 12:36.19 |  4:48.53 |     56719    |    78371
        5  | 17:24.72 |  3:28.00 |     78372    |    93971
        6  | 20:52.72 |  5:13.17 |     93972    |   117463
        7  | 26:06.14 |  4:42.35 |    117464    |   138648
        8  | 30:48.49 |  4:34.58 |    138649    |   159256
        9  | 35:23.32 |  3:29.30 |    159257    |   174961
       10  | 38:52.62 |  5:16.70 |    174962    |   198731
       11  | 44:09.57 |  4:25.60 |    198732    |   218666
Track  1
     Filename D:\#cdr\#wav+flac\Fay Claassen - Close To You\01. Fay Claassen - The Fool On The Hill.wav
     Pre-gap length  0:00:02.00
     Peak level 98.5 %
     Extraction speed 5.3 X
     Track quality 100.0 %
     Test CRC 2F817018
     Copy CRC 2F817018
     Track not present in AccurateRip database
     Copy OK
Track  2
     Filename D:\#cdr\#wav+flac\Fay Claassen - Close To You\02. Fay Claassen - Sailing.wav
     Peak level 98.0 %
     Extraction speed 5.9 X
     Track quality 100.0 %
     Test CRC A8BA3D9B
     Copy CRC A8BA3D9B
     Track not present in AccurateRip database
     Copy OK
Track  3
     Filename D:\#cdr\#wav+flac\Fay Claassen - Close To You\03. Fay Claassen - If You Leave Me Now.wav
     Peak level 97.9 %
     Extraction speed 5.3 X
     Track quality 99.9 %
     Test CRC DCB6415A
     Copy CRC DCB6415A
     Track not present in AccurateRip database
     Copy OK
Track  4
     Filename D:\#cdr\#wav+flac\Fay Claassen - Close To You\04. Fay Claassen - Close To You.wav
     Peak level 97.8 %
     Extraction speed 7.0 X
     Track quality 100.0 %
     Test CRC 1209CA6C
     Copy CRC 1209CA6C
     Track not present in AccurateRip database
     Copy OK
Track  5
     Filename D:\#cdr\#wav+flac\Fay Claassen - Close To You\05. Fay Claassen - Got To Get You Into My Life.wav
     Peak level 98.5 %
     Extraction speed 7.1 X
     Track quality 100.0 %
     Test CRC A72D63BF
     Copy CRC A72D63BF
     Track not present in AccurateRip database
     Copy OK
Track  6
     Filename D:\#cdr\#wav+flac\Fay Claassen - Close To You\06. Fay Claassen - One Day I'll Fly Away.wav
     Peak level 98.0 %
     Extraction speed 7.9 X
     Track quality 100.0 %
     Test CRC E753F5AD
     Copy CRC E753F5AD
     Track not present in AccurateRip database
     Copy OK
Track  7
     Filename D:\#cdr\#wav+flac\Fay Claassen - Close To You\07. Fay Claassen - I Can't Make You Love Me.wav
     Peak level 98.0 %
     Extraction speed 8.2 X
     Track quality 100.0 %
     Test CRC 81D3B7A2
     Copy CRC 81D3B7A2
     Track not present in AccurateRip database
     Copy OK
Track  8
     Filename D:\#cdr\#wav+flac\Fay Claassen - Close To You\08. Fay Claassen - Killing Me Softly.wav
     Peak level 98.4 %
     Extraction speed 8.6 X
     Track quality 100.0 %
     Test CRC 01ECC565
     Copy CRC 01ECC565
     Track not present in AccurateRip database
     Copy OK
Track  9
     Filename D:\#cdr\#wav+flac\Fay Claassen - Close To You\09. Fay Claassen - Spinning Wheel.wav
     Peak level 98.6 %
     Extraction speed 8.6 X
     Track quality 100.0 %
     Test CRC 884DDC76
     Copy CRC 884DDC76
     Track not present in AccurateRip database
     Copy OK
Track 10
     Filename D:\#cdr\#wav+flac\Fay Claassen - Close To You\10. Fay Claassen - At Seventeen.wav
     Peak level 98.3 %
     Extraction speed 9.3 X
     Track quality 100.0 %
     Test CRC C413D8BC
     Copy CRC C413D8BC
     Track not present in AccurateRip database
     Copy OK
Track 11
     Filename D:\#cdr\#wav+flac\Fay Claassen - Close To You\11. Fay Claassen - The First Time Ever I Saw Your Face.wav
     Peak level 97.8 %
     Extraction speed 9.5 X
     Track quality 100.0 %
     Test CRC 28641E67
     Copy CRC 28641E67
     Track not present in AccurateRip database
     Copy OK
None of the tracks are present in the AccurateRip database
No errors occurred
End of status report
---- CUETools DB Plugin V2.1.6
[CTDB TOCID: An_GE3HfSBEecXDtIyO0sked7n4-] disk not present in database
Submit result: An_GE3HfSBEecXDtIyO0sked7n4- has been uploaded
==== Log checksum EA963889F6AED39FA31E979F25E1DBAA35E8672A1443FE06AB42055D290236CF ====
Код:
REM GENRE Jazz
REM DATE 2020
REM DISCID 860B630B
REM COMMENT "ExactAudioCopy v1.3"
PERFORMER "Fay Claassen"
TITLE "Close to You"
FILE "01 - The Fool on the Hill.wav" WAVE
  TRACK 01 AUDIO
    TITLE "The Fool on the Hill"
    PERFORMER "Fay Claassen"
    ISRC NL1VU1901746
    INDEX 01 00:00:00
FILE "02 - Sailing.wav" WAVE
  TRACK 02 AUDIO
    TITLE "Sailing"
    PERFORMER "Fay Claassen"
    ISRC NL1VU1901747
    INDEX 01 00:00:00
FILE "03 - If You Leave Me Now.wav" WAVE
  TRACK 03 AUDIO
    TITLE "If You Leave Me Now"
    PERFORMER "Fay Claassen"
    ISRC NL1VU1901748
    INDEX 01 00:00:00
FILE "04 - Close to You.wav" WAVE
  TRACK 04 AUDIO
    TITLE "Close to You"
    PERFORMER "Fay Claassen"
    ISRC NL1VU1901749
    INDEX 01 00:00:00
FILE "05 - Got to Get You into My Life.wav" WAVE
  TRACK 05 AUDIO
    TITLE "Got to Get You into My Life"
    PERFORMER "Fay Claassen"
    ISRC NL1VU1901750
    INDEX 01 00:00:00
FILE "06 - One Day I'll Fly Away.wav" WAVE
  TRACK 06 AUDIO
    TITLE "One Day I'll Fly Away"
    PERFORMER "Fay Claassen"
    ISRC NL1VU1901751
    INDEX 01 00:00:00
FILE "07 - I Can't Make You Love Me.wav" WAVE
  TRACK 07 AUDIO
    TITLE "I Can't Make You Love Me"
    PERFORMER "Fay Claassen"
    ISRC NL1VU1901752
    INDEX 01 00:00:00
FILE "08 - Killing Me Softly.wav" WAVE
  TRACK 08 AUDIO
    TITLE "Killing Me Softly"
    PERFORMER "Fay Claassen"
    ISRC NL1VU1901753
    INDEX 01 00:00:00
FILE "09 - Spinning Wheel.wav" WAVE
  TRACK 09 AUDIO
    TITLE "Spinning Wheel"
    PERFORMER "Fay Claassen"
    ISRC NL1VU1901754
    INDEX 01 00:00:00
FILE "10 - At Seventeen.wav" WAVE
  TRACK 10 AUDIO
    TITLE "At Seventeen"
    PERFORMER "Fay Claassen"
    ISRC NL1VU1901755
    INDEX 01 00:00:00
FILE "11 - The First Time Ever I Saw Your Face.wav" WAVE
  TRACK 11 AUDIO
    TITLE "The First Time Ever I Saw Your Face"
    PERFORMER "Fay Claassen"
    ISRC NL1VU1901756
    INDEX 01 00:00:00
Код:
[CUETools log; Date: 08.06.2020 14:55:47; Version: 2.1.6]
[CTDB TOCID: An_GE3HfSBEecXDtIyO0sked7n4-] found.
Track | CTDB Status
  1   | (2/2) Accurately ripped
  2   | (2/2) Accurately ripped
  3   | (2/2) Accurately ripped
  4   | (2/2) Accurately ripped
  5   | (2/2) Accurately ripped
  6   | (2/2) Accurately ripped
  7   | (2/2) Accurately ripped
  8   | (2/2) Accurately ripped
  9   | (2/2) Accurately ripped
 10   | (2/2) Accurately ripped
 11   | (2/2) Accurately ripped
[AccurateRip ID: 0013c408-00abdcd5-860b630b] found.
Track   [  CRC   |   V2   ] Status
 01     [85a53d0c|6c0cc13a] (0+2/2) Accurately ripped
 02     [96366331|1f043c83] (0+2/2) Accurately ripped
 03     [ecfd2f85|be88c5d8] (0+2/2) Accurately ripped
 04     [88fa8202|87e4db27] (0+2/2) Accurately ripped
 05     [af91d523|b6b1b835] (0+2/2) Accurately ripped
 06     [ceb7fa88|b7809743] (0+2/2) Accurately ripped
 07     [757a9fb9|ff5f55f2] (0+2/2) Accurately ripped
 08     [4404f5a8|47aa6c7c] (0+2/2) Accurately ripped
 09     [53b3d269|cbb15bf3] (0+2/2) Accurately ripped
 10     [1b89512a|af32e04a] (0+2/2) Accurately ripped
 11     [3e6fed9f|630bf86f] (0+2/2) Accurately ripped
Track Peak [ CRC32  ] [W/O NULL] [  LOG   ]
 --   98,6 [219C42F6] [E761FC61]
 01   98,5 [2F817018] [B4C7D442]   CRC32
 02   98,0 [A8BA3D9B] [B213C153]   CRC32
 03   97,9 [DCB6415A] [4145654E]   CRC32
 04   97,8 [1209CA6C] [5EFF15CE]   CRC32
 05   98,5 [A72D63BF] [CFDFDA02]   CRC32
 06   98,0 [E753F5AD] [814B75DE]   CRC32
 07   98,0 [81D3B7A2] [811CA161]   CRC32
 08   98,4 [01ECC565] [AA1446AB]   CRC32
 09   98,6 [884DDC76] [EF1F21D8]   CRC32
 10   98,3 [C413D8BC] [BD3A208C]   CRC32
 11   97,8 [28641E67] [225F3B90]   CRC32
Правила, инструкции, FAQ!!!
Торрент  Добавлен [22 июн 2020, 15:38] Скачать торрент Магнет ссылка
Скачать торрент
[ Размер 13.89 КБ / Просмотров 1 ]

Статус
Проверен 
 
Размер  316.28 МБ
Приватный: Нет (DHT включён)
.torrent скачан  0
 


     Отправить личное сообщение
   
Страница 1 из 1
Показать сообщения за:  Поле сортировки  
Начать новую тему Ответить на тему


Сейчас этот форум просматривают: нет зарегистрированных пользователей и гости: 0


Вы не можете начинать темы
Вы не можете отвечать на сообщения
Вы не можете редактировать свои сообщения
Вы не можете удалять свои сообщения
Вы не можете добавлять вложения

Перейти:  
cron