Начать новую тему Ответить на тему
Статистика раздачи
Размер: 238.04 МБ | Добавлен: 02 мар 2020, 16:53 | Скачали: 0
Сидеров: 8  [0 байт/сек]    Личеров: 2  [0 байт/сек]
Пред. тема | След. тема 

Автор
Сообщение

СообщениеДобавлено: 02 мар 2020, 16:53 

Ответить с цитатой 

Ella Fitzgerald - Two Sides of Ella: Her Early Recordings
Жанр: Vocal Jazz
Носитель: CD
Страна-производитель диска (релиза): Великобритания
Год издания: 2000
Издатель (лейбл): Vocalion
Номер по каталогу: CDUS 3009
Аудиокодек: FLAC (*.flac)
Тип рипа: tracks+.cue
Продолжительность: 01:09:35
Источник: catfish27
Наличие сканов в содержимом раздачи: нет
Треклист:
01. That's All Brother (3:11)
02. So Long (3:07)
03. Five O'Clock Whistle (3:13)
04. Wishful Thinking (3:05)
05. Cow Cow Boogie (3:00)
06. You're Breaking in a New Heart (2:26)
07. Don't You Think I Ought to Know? (3:06)
08. My Baby Likes to Re-Bop (2:43)
09. I've Got a Feeling I'm Falling (2:36)
10. I Can't Go On (Without You) (2:51)
11. To Make a Mistake Is Human (3:10)
12. Someone Like You (3:06)
13. I Couldn't Stay Away from You (3:20)
14. Baby, It's Cold Outside (2:44)
15. Black Coffee (3:07)
16. Lover's Gold (3:08)
17. Crying (3:12)
18. A New Shade of Blues (3:02)
19. I Hadn't Anyone Till You (3:03)
20. Foolish Tears (3:00)
21. A Man Wrote a Song (3:20)
22. Solid as a Rock (2:59)
23. Sugarfoot Rag (3:06)
Код:
X Lossless Decoder version 20191004 (152.0)
XLD extraction logfile from 2020-02-27 22:36:25 -0800
Ella Fitzgerald / Two Sides of Ella: Her Early Recordings
Used drive : HL-DT-ST DVDRAM GP65NB60 (revision PF00)
Media type : Pressed CD
Ripper mode             : XLD Secure Ripper
Disable audio cache     : OK for the drive with a cache less than 1375KiB
Make use of C2 pointers : NO
Read offset correction  : 6
Max retry count         : 100
Gap status              : Analyzed, Appended (except HTOA)
TOC of the extracted CD
     Track |   Start  |  Length  | Start sector | End sector
    ---------------------------------------------------------
        1  | 00:00:00 | 03:10:57 |         0    |    14306
        2  | 03:10:57 | 03:06:73 |     14307    |    28329
        3  | 06:17:55 | 03:12:45 |     28330    |    42774
        4  | 09:30:25 | 03:05:30 |     42775    |    56679
        5  | 12:35:55 | 02:59:70 |     56680    |    70174
        6  | 15:35:50 | 02:26:32 |     70175    |    81156
        7  | 18:02:07 | 03:05:40 |     81157    |    95071
        8  | 21:07:47 | 02:42:63 |     95072    |   107284
        9  | 23:50:35 | 02:35:50 |    107285    |   118959
       10  | 26:26:10 | 02:51:17 |    118960    |   131801
       11  | 29:17:27 | 03:10:13 |    131802    |   146064
       12  | 32:27:40 | 03:05:52 |    146065    |   159991
       13  | 35:33:17 | 03:19:70 |    159992    |   174986
       14  | 38:53:12 | 02:44:25 |    174987    |   187311
       15  | 41:37:37 | 03:06:65 |    187312    |   201326
       16  | 44:44:27 | 03:07:73 |    201327    |   215424
       17  | 47:52:25 | 03:11:70 |    215425    |   229819
       18  | 51:04:20 | 03:01:42 |    229820    |   243436
       19  | 54:05:62 | 03:02:43 |    243437    |   257129
       20  | 57:08:30 | 03:00:07 |    257130    |   270636
       21  | 60:08:37 | 03:19:53 |    270637    |   285614
       22  | 63:28:15 | 02:58:45 |    285615    |   299009
       23  | 66:26:60 | 03:05:72 |    299010    |   312956
AccurateRip Summary (DiscID: 0038eb51-03b47588-78104c17)
    Track 01 : OK (v2, confidence 3/3)
    Track 02 : OK (v1+v2, confidence 5/5)
    Track 03 : OK (v1+v2, confidence 5/5)
    Track 04 : OK (v1+v2, confidence 5/5)
    Track 05 : OK (v1+v2, confidence 5/5)
    Track 06 : OK (v1+v2, confidence 5/5)
    Track 07 : OK (v1+v2, confidence 5/5)
    Track 08 : OK (v1+v2, confidence 5/5)
    Track 09 : OK (v1+v2, confidence 5/5)
    Track 10 : OK (v1+v2, confidence 5/5)
    Track 11 : OK (v1+v2, confidence 5/5)
    Track 12 : OK (v1+v2, confidence 5/5)
    Track 13 : OK (v1+v2, confidence 5/5)
    Track 14 : OK (v1+v2, confidence 5/5)
    Track 15 : OK (v1+v2, confidence 5/5)
    Track 16 : OK (v1+v2, confidence 5/5)
    Track 17 : OK (v1+v2, confidence 5/5)
    Track 18 : OK (v1+v2, confidence 5/5)
    Track 19 : OK (v1+v2, confidence 5/5)
    Track 20 : OK (v1+v2, confidence 5/5)
    Track 21 : OK (v1+v2, confidence 5/5)
    Track 22 : OK (v1+v2, confidence 5/5)
    Track 23 : OK (v1+v2, confidence 5/5)
        ->All tracks accurately ripped.
All Tracks
    Album gain               : 3.42 dB
    Peak                     : 0.741974
    Statistics
        Read error                           : 0
        Jitter error (maybe fixed)           : 0
        Retry sector count                   : 5
        Damaged sector count                 : 0
Track 01
    Filename : /Volumes/Hollywood and Vine/Rips/Ella Fitzgerald - Two Sides of Ellaпјљ Her Early Recordings (2000) [FLAC]/01 That's All Brother.flac
    Pre-gap length : 00:02:00
    Track gain               : 1.89 dB
    Peak                     : 0.741974
    CRC32 hash (test run)    : B07B86F6
    CRC32 hash               : B07B86F6
    CRC32 hash (skip zero)   : CC31F263
    AccurateRip v1 signature : 77D68BEC
    AccurateRip v2 signature : D636F9BC
        ->Accurately ripped (v2, confidence 3/3)
    Statistics
        Read error                           : 0
        Jitter error (maybe fixed)           : 0
        Retry sector count                   : 0
        Damaged sector count                 : 0
Track 02
    Filename : /Volumes/Hollywood and Vine/Rips/Ella Fitzgerald - Two Sides of Ellaпјљ Her Early Recordings (2000) [FLAC]/02 So Long.flac
    Pre-gap length : 00:02:60
    Track gain               : 5.61 dB
    Peak                     : 0.545837
    CRC32 hash (test run)    : 64D8FB52
    CRC32 hash               : 64D8FB52
    CRC32 hash (skip zero)   : 2F6CA947
    AccurateRip v1 signature : 9BF89BC0
    AccurateRip v2 signature : 67BBAA69
        ->Accurately ripped (v1+v2, confidence 2+3/5)
    Statistics
        Read error                           : 0
        Jitter error (maybe fixed)           : 0
        Retry sector count                   : 0
        Damaged sector count                 : 0
Track 03
    Filename : /Volumes/Hollywood and Vine/Rips/Ella Fitzgerald - Two Sides of Ellaпјљ Her Early Recordings (2000) [FLAC]/03 Five O'Clock Whistle.flac
    Pre-gap length : 00:02:70
    Track gain               : 3.17 dB
    Peak                     : 0.635651
    CRC32 hash (test run)    : 7195AB6B
    CRC32 hash               : 7195AB6B
    CRC32 hash (skip zero)   : A77F46F7
    AccurateRip v1 signature : 654233A4
    AccurateRip v2 signature : BAB5D8D8
        ->Accurately ripped (v1+v2, confidence 2+3/5)
    Statistics
        Read error                           : 0
        Jitter error (maybe fixed)           : 0
        Retry sector count                   : 0
        Damaged sector count                 : 0
Track 04
    Filename : /Volumes/Hollywood and Vine/Rips/Ella Fitzgerald - Two Sides of Ellaпјљ Her Early Recordings (2000) [FLAC]/04 Wishful Thinking.flac
    Pre-gap length : 00:02:48
    Track gain               : 4.57 dB
    Peak                     : 0.616364
    CRC32 hash (test run)    : 40837B14
    CRC32 hash               : 40837B14
    CRC32 hash (skip zero)   : DC0101ED
    AccurateRip v1 signature : 30654866
    AccurateRip v2 signature : AE23EC7A
        ->Accurately ripped (v1+v2, confidence 2+3/5)
    Statistics
        Read error                           : 0
        Jitter error (maybe fixed)           : 0
        Retry sector count                   : 0
        Damaged sector count                 : 0
Track 05
    Filename : /Volumes/Hollywood and Vine/Rips/Ella Fitzgerald - Two Sides of Ellaпјљ Her Early Recordings (2000) [FLAC]/05 Cow Cow Boogie.flac
    Pre-gap length : 00:02:30
    Track gain               : 6.74 dB
    Peak                     : 0.404602
    CRC32 hash (test run)    : 0727B72D
    CRC32 hash               : 0727B72D
    CRC32 hash (skip zero)   : 05E2422F
    AccurateRip v1 signature : 05E0386C
    AccurateRip v2 signature : 7E7C939E
        ->Accurately ripped (v1+v2, confidence 2+3/5)
    Statistics
        Read error                           : 0
        Jitter error (maybe fixed)           : 0
        Retry sector count                   : 0
        Damaged sector count                 : 0
Track 06
    Filename : /Volumes/Hollywood and Vine/Rips/Ella Fitzgerald - Two Sides of Ellaпјљ Her Early Recordings (2000) [FLAC]/06 You're Breaking In a New Heart.flac
    Pre-gap length : 00:02:30
    Track gain               : 3.60 dB
    Peak                     : 0.462830
    CRC32 hash (test run)    : 3AF5AF20
    CRC32 hash               : 3AF5AF20
    CRC32 hash (skip zero)   : D42EE1D9
    AccurateRip v1 signature : EC0FC9F7
    AccurateRip v2 signature : 93216FCD
        ->Accurately ripped (v1+v2, confidence 2+3/5)
    Statistics
        Read error                           : 0
        Jitter error (maybe fixed)           : 0
        Retry sector count                   : 0
        Damaged sector count                 : 0
Track 07
    Filename : /Volumes/Hollywood and Vine/Rips/Ella Fitzgerald - Two Sides of Ellaпјљ Her Early Recordings (2000) [FLAC]/07 Don't You Think I Ought to Know_.flac
    Pre-gap length : 00:02:55
    Track gain               : 3.95 dB
    Peak                     : 0.474091
    CRC32 hash (test run)    : 3CD8DADC
    CRC32 hash               : 3CD8DADC
    CRC32 hash (skip zero)   : C14D7814
    AccurateRip v1 signature : A9FB312A
    AccurateRip v2 signature : 4A858FB7
        ->Accurately ripped (v1+v2, confidence 2+3/5)
    Statistics
        Read error                           : 0
        Jitter error (maybe fixed)           : 0
        Retry sector count                   : 5
        Damaged sector count                 : 0
Track 08
    Filename : /Volumes/Hollywood and Vine/Rips/Ella Fitzgerald - Two Sides of Ellaпјљ Her Early Recordings (2000) [FLAC]/08 My Baby Likes to Re-Bop.flac
    Pre-gap length : 00:02:35
    Track gain               : 0.52 dB
    Peak                     : 0.534119
    CRC32 hash (test run)    : 23F42BEE
    CRC32 hash               : 23F42BEE
    CRC32 hash (skip zero)   : DA3D1904
    AccurateRip v1 signature : 222A06D6
    AccurateRip v2 signature : 9AB14455
        ->Accurately ripped (v1+v2, confidence 2+3/5)
    Statistics
        Read error                           : 0
        Jitter error (maybe fixed)           : 0
        Retry sector count                   : 0
        Damaged sector count                 : 0
Track 09
    Filename : /Volumes/Hollywood and Vine/Rips/Ella Fitzgerald - Two Sides of Ellaпјљ Her Early Recordings (2000) [FLAC]/09 I've Got a Feeling I'm Falling.flac
    Pre-gap length : 00:02:10
    Track gain               : 2.42 dB
    Peak                     : 0.475861
    CRC32 hash (test run)    : B1386C36
    CRC32 hash               : B1386C36
    CRC32 hash (skip zero)   : 27F4B278
    AccurateRip v1 signature : 18C4A2DB
    AccurateRip v2 signature : A3BEB610
        ->Accurately ripped (v1+v2, confidence 2+3/5)
    Statistics
        Read error                           : 0
        Jitter error (maybe fixed)           : 0
        Retry sector count                   : 0
        Damaged sector count                 : 0
Track 10
    Filename : /Volumes/Hollywood and Vine/Rips/Ella Fitzgerald - Two Sides of Ellaпјљ Her Early Recordings (2000) [FLAC]/10 I Can't Go On (Without You).flac
    Pre-gap length : 00:02:43
    Track gain               : 3.54 dB
    Peak                     : 0.471497
    CRC32 hash (test run)    : 8A63BBCC
    CRC32 hash               : 8A63BBCC
    CRC32 hash (skip zero)   : 297DDA6B
    AccurateRip v1 signature : 7D47D6F5
    AccurateRip v2 signature : C9E73DCB
        ->Accurately ripped (v1+v2, confidence 2+3/5)
    Statistics
        Read error                           : 0
        Jitter error (maybe fixed)           : 0
        Retry sector count                   : 0
        Damaged sector count                 : 0
Track 11
    Filename : /Volumes/Hollywood and Vine/Rips/Ella Fitzgerald - Two Sides of Ellaпјљ Her Early Recordings (2000) [FLAC]/11 To Make a Mistake Is Human.flac
    Pre-gap length : 00:03:17
    Track gain               : 3.16 dB
    Peak                     : 0.545959
    CRC32 hash (test run)    : CE8610C0
    CRC32 hash               : CE8610C0
    CRC32 hash (skip zero)   : C3344941
    AccurateRip v1 signature : 46C01C27
    AccurateRip v2 signature : 89D9B504
        ->Accurately ripped (v1+v2, confidence 2+3/5)
    Statistics
        Read error                           : 0
        Jitter error (maybe fixed)           : 0
        Retry sector count                   : 0
        Damaged sector count                 : 0
Track 12
    Filename : /Volumes/Hollywood and Vine/Rips/Ella Fitzgerald - Two Sides of Ellaпјљ Her Early Recordings (2000) [FLAC]/12 Someone Like You.flac
    Pre-gap length : 00:02:50
    Track gain               : 3.78 dB
    Peak                     : 0.473145
    CRC32 hash (test run)    : AE465960
    CRC32 hash               : AE465960
    CRC32 hash (skip zero)   : D889BA13
    AccurateRip v1 signature : B3E7D919
    AccurateRip v2 signature : 75CDF72E
        ->Accurately ripped (v1+v2, confidence 2+3/5)
    Statistics
        Read error                           : 0
        Jitter error (maybe fixed)           : 0
        Retry sector count                   : 0
        Damaged sector count                 : 0
Track 13
    Filename : /Volumes/Hollywood and Vine/Rips/Ella Fitzgerald - Two Sides of Ellaпјљ Her Early Recordings (2000) [FLAC]/13 I Couldn't Stay Away from You.flac
    Pre-gap length : 00:02:62
    Track gain               : 3.31 dB
    Peak                     : 0.562439
    CRC32 hash (test run)    : 81719B78
    CRC32 hash               : 81719B78
    CRC32 hash (skip zero)   : 49733D08
    AccurateRip v1 signature : 733FD496
    AccurateRip v2 signature : 3D9BB41C
        ->Accurately ripped (v1+v2, confidence 2+3/5)
    Statistics
        Read error                           : 0
        Jitter error (maybe fixed)           : 0
        Retry sector count                   : 0
        Damaged sector count                 : 0
Track 14
    Filename : /Volumes/Hollywood and Vine/Rips/Ella Fitzgerald - Two Sides of Ellaпјљ Her Early Recordings (2000) [FLAC]/14 Baby, It's Cold Outside.flac
    Pre-gap length : 00:02:02
    Track gain               : 3.79 dB
    Peak                     : 0.456451
    CRC32 hash (test run)    : 2858A4FD
    CRC32 hash               : 2858A4FD
    CRC32 hash (skip zero)   : A8E7FA93
    AccurateRip v1 signature : 30C11F52
    AccurateRip v2 signature : 2A2B8426
        ->Accurately ripped (v1+v2, confidence 2+3/5)
    Statistics
        Read error                           : 0
        Jitter error (maybe fixed)           : 0
        Retry sector count                   : 0
        Damaged sector count                 : 0
Track 15
    Filename : /Volumes/Hollywood and Vine/Rips/Ella Fitzgerald - Two Sides of Ellaпјљ Her Early Recordings (2000) [FLAC]/15 Black Coffee.flac
    Pre-gap length : 00:02:35
    Track gain               : 3.75 dB
    Peak                     : 0.449432
    CRC32 hash (test run)    : 3099278E
    CRC32 hash               : 3099278E
    CRC32 hash (skip zero)   : 934F0B6A
    AccurateRip v1 signature : 301B2E74
    AccurateRip v2 signature : 89B99D38
        ->Accurately ripped (v1+v2, confidence 2+3/5)
    Statistics
        Read error                           : 0
        Jitter error (maybe fixed)           : 0
        Retry sector count                   : 0
        Damaged sector count                 : 0
Track 16
    Filename : /Volumes/Hollywood and Vine/Rips/Ella Fitzgerald - Two Sides of Ellaпјљ Her Early Recordings (2000) [FLAC]/16 Lover's Gold.flac
    Pre-gap length : 00:02:15
    Track gain               : 5.06 dB
    Peak                     : 0.390533
    CRC32 hash (test run)    : 4137ABD0
    CRC32 hash               : 4137ABD0
    CRC32 hash (skip zero)   : 0AF88BCD
    AccurateRip v1 signature : A60C31C2
    AccurateRip v2 signature : E82B37A1
        ->Accurately ripped (v1+v2, confidence 2+3/5)
    Statistics
        Read error                           : 0
        Jitter error (maybe fixed)           : 0
        Retry sector count                   : 0
        Damaged sector count                 : 0
Track 17
    Filename : /Volumes/Hollywood and Vine/Rips/Ella Fitzgerald - Two Sides of Ellaпјљ Her Early Recordings (2000) [FLAC]/17 Crying.flac
    Pre-gap length : 00:02:18
    Track gain               : 3.30 dB
    Peak                     : 0.435394
    CRC32 hash (test run)    : 37721918
    CRC32 hash               : 37721918
    CRC32 hash (skip zero)   : 6A188C3A
    AccurateRip v1 signature : 7B3D8102
    AccurateRip v2 signature : CBB20D1E
        ->Accurately ripped (v1+v2, confidence 2+3/5)
    Statistics
        Read error                           : 0
        Jitter error (maybe fixed)           : 0
        Retry sector count                   : 0
        Damaged sector count                 : 0
Track 18
    Filename : /Volumes/Hollywood and Vine/Rips/Ella Fitzgerald - Two Sides of Ellaпјљ Her Early Recordings (2000) [FLAC]/18 A New Shade of Blues.flac
    Pre-gap length : 00:02:70
    Track gain               : 2.75 dB
    Peak                     : 0.452942
    CRC32 hash (test run)    : 6D8FA708
    CRC32 hash               : 6D8FA708
    CRC32 hash (skip zero)   : 17D5385C
    AccurateRip v1 signature : A9DFDA9E
    AccurateRip v2 signature : B1A8B241
        ->Accurately ripped (v1+v2, confidence 2+3/5)
    Statistics
        Read error                           : 0
        Jitter error (maybe fixed)           : 0
        Retry sector count                   : 0
        Damaged sector count                 : 0
Track 19
    Filename : /Volumes/Hollywood and Vine/Rips/Ella Fitzgerald - Two Sides of Ellaпјљ Her Early Recordings (2000) [FLAC]/19 I Hadn't Anyone Till You.flac
    Pre-gap length : 00:02:30
    Track gain               : 4.94 dB
    Peak                     : 0.485565
    CRC32 hash (test run)    : EEA70051
    CRC32 hash               : EEA70051
    CRC32 hash (skip zero)   : 72E0EFB2
    AccurateRip v1 signature : E224EC8B
    AccurateRip v2 signature : 99E23776
        ->Accurately ripped (v1+v2, confidence 2+3/5)
    Statistics
        Read error                           : 0
        Jitter error (maybe fixed)           : 0
        Retry sector count                   : 0
        Damaged sector count                 : 0
Track 20
    Filename : /Volumes/Hollywood and Vine/Rips/Ella Fitzgerald - Two Sides of Ellaпјљ Her Early Recordings (2000) [FLAC]/20 Foolish Tears.flac
    Pre-gap length : 00:02:33
    Track gain               : 6.36 dB
    Peak                     : 0.304962
    CRC32 hash (test run)    : 27AC2B6F
    CRC32 hash               : 27AC2B6F
    CRC32 hash (skip zero)   : 5298389B
    AccurateRip v1 signature : F854F805
    AccurateRip v2 signature : 7106940B
        ->Accurately ripped (v1+v2, confidence 2+3/5)
    Statistics
        Read error                           : 0
        Jitter error (maybe fixed)           : 0
        Retry sector count                   : 0
        Damaged sector count                 : 0
Track 21
    Filename : /Volumes/Hollywood and Vine/Rips/Ella Fitzgerald - Two Sides of Ellaпјљ Her Early Recordings (2000) [FLAC]/21 A Man Wrote a Song.flac
    Pre-gap length : 00:02:00
    Track gain               : 6.65 dB
    Peak                     : 0.385590
    CRC32 hash (test run)    : B0FB51D6
    CRC32 hash               : B0FB51D6
    CRC32 hash (skip zero)   : 6E25F64F
    AccurateRip v1 signature : 609BD348
    AccurateRip v2 signature : ABCB10BD
        ->Accurately ripped (v1+v2, confidence 2+3/5)
    Statistics
        Read error                           : 0
        Jitter error (maybe fixed)           : 0
        Retry sector count                   : 0
        Damaged sector count                 : 0
Track 22
    Filename : /Volumes/Hollywood and Vine/Rips/Ella Fitzgerald - Two Sides of Ellaпјљ Her Early Recordings (2000) [FLAC]/22 Solid As a Rock.flac
    Pre-gap length : 00:02:70
    Track gain               : 2.20 dB
    Peak                     : 0.619415
    CRC32 hash (test run)    : 8403A820
    CRC32 hash               : 8403A820
    CRC32 hash (skip zero)   : F294ED73
    AccurateRip v1 signature : 6CB373C4
    AccurateRip v2 signature : 036D8ED4
        ->Accurately ripped (v1+v2, confidence 2+3/5)
    Statistics
        Read error                           : 0
        Jitter error (maybe fixed)           : 0
        Retry sector count                   : 0
        Damaged sector count                 : 0
Track 23
    Filename : /Volumes/Hollywood and Vine/Rips/Ella Fitzgerald - Two Sides of Ellaпјљ Her Early Recordings (2000) [FLAC]/23 Sugarfoot Rag.flac
    Pre-gap length : 00:02:30
    Track gain               : 1.22 dB
    Peak                     : 0.546417
    CRC32 hash (test run)    : 1753CF41
    CRC32 hash               : 1753CF41
    CRC32 hash (skip zero)   : 2244B15F
    AccurateRip v1 signature : 226D33CC
    AccurateRip v2 signature : 92702DE9
        ->Accurately ripped (v1+v2, confidence 2+3/5)
    Statistics
        Read error                           : 0
        Jitter error (maybe fixed)           : 0
        Retry sector count                   : 0
        Damaged sector count                 : 0
No errors occurred
End of status report
-----BEGIN XLD SIGNATURE-----
xUEL9kJoXrEcV9RgT96OUopnSJkBuBwdbmNsJSIZ.ysIuYq0y9O_oqUs36PNEHI6WwEuR8UwTfu5LtwteO80H0h.lRN13lmP6rM39_8
-----END XLD SIGNATURE-----
Код:
TITLE "Two Sides of Ella: Her Early Recordings"
PERFORMER "Ella Fitzgerald"
REM GENRE "Jazz"
REM DATE "2000"
REM DISCID 78104C17
REM REPLAYGAIN_ALBUM_GAIN 3.42 dB
REM REPLAYGAIN_ALBUM_PEAK 0.741974
FILE "01 - That's All Brother.flac" WAVE
  TRACK 01 AUDIO
    TITLE "That's All Brother"
    ISRC GBCTP0030901
    REM REPLAYGAIN_TRACK_GAIN 1.89 dB
    REM REPLAYGAIN_TRACK_PEAK 0.741974
    INDEX 01 00:00:00
  TRACK 02 AUDIO
    TITLE "So Long"
    ISRC GBCTP0030902
    REM REPLAYGAIN_TRACK_GAIN 5.61 dB
    REM REPLAYGAIN_TRACK_PEAK 0.545837
    INDEX 00 03:07:72
FILE "02 - So Long.flac" WAVE
    INDEX 01 00:00:00
  TRACK 03 AUDIO
    TITLE "Five O'Clock Whistle"
    ISRC GBCTP0030903
    REM REPLAYGAIN_TRACK_GAIN 3.17 dB
    REM REPLAYGAIN_TRACK_PEAK 0.635651
    INDEX 00 03:04:03
FILE "03 - Five O'Clock Whistle.flac" WAVE
    INDEX 01 00:00:00
  TRACK 04 AUDIO
    TITLE "Wishful Thinking"
    ISRC GBCTP0030904
    REM REPLAYGAIN_TRACK_GAIN 4.57 dB
    REM REPLAYGAIN_TRACK_PEAK 0.616364
    INDEX 00 03:09:72
FILE "04 - Wishful Thinking.flac" WAVE
    INDEX 01 00:00:00
  TRACK 05 AUDIO
    TITLE "Cow Cow Boogie"
    ISRC GBCTP0030905
    REM REPLAYGAIN_TRACK_GAIN 6.74 dB
    REM REPLAYGAIN_TRACK_PEAK 0.404602
    INDEX 00 03:03:00
FILE "05 - Cow Cow Boogie.flac" WAVE
    INDEX 01 00:00:00
  TRACK 06 AUDIO
    TITLE "You're Breaking in a New Heart"
    ISRC GBCTP0030906
    REM REPLAYGAIN_TRACK_GAIN 3.60 dB
    REM REPLAYGAIN_TRACK_PEAK 0.462830
    INDEX 00 02:57:40
FILE "06 - You're Breaking in a New Heart.flac" WAVE
    INDEX 01 00:00:00
  TRACK 07 AUDIO
    TITLE "Don't You Think I Ought to Know?"
    ISRC GBCTP0030907
    REM REPLAYGAIN_TRACK_GAIN 3.95 dB
    REM REPLAYGAIN_TRACK_PEAK 0.474091
    INDEX 00 02:23:52
FILE "07 - Don't You Think I Ought to Know.flac" WAVE
    INDEX 01 00:00:00
  TRACK 08 AUDIO
    TITLE "My Baby Likes to Re-Bop"
    ISRC GBCTP0030908
    REM REPLAYGAIN_TRACK_GAIN 0.52 dB
    REM REPLAYGAIN_TRACK_PEAK 0.534119
    INDEX 00 03:03:05
FILE "08 - My Baby Likes to Re-Bop.flac" WAVE
    INDEX 01 00:00:00
  TRACK 09 AUDIO
    TITLE "I've Got a Feeling I'm Falling"
    ISRC GBCTP0030909
    REM REPLAYGAIN_TRACK_GAIN 2.42 dB
    REM REPLAYGAIN_TRACK_PEAK 0.475861
    INDEX 00 02:40:53
FILE "09 - I've Got a Feeling I'm Falling.flac" WAVE
    INDEX 01 00:00:00
  TRACK 10 AUDIO
    TITLE "I Can't Go On (Without You)"
    ISRC GBCTP0030910
    REM REPLAYGAIN_TRACK_GAIN 3.54 dB
    REM REPLAYGAIN_TRACK_PEAK 0.471497
    INDEX 00 02:33:07
FILE "10 - I Can't Go On (Without You).flac" WAVE
    INDEX 01 00:00:00
  TRACK 11 AUDIO
    TITLE "To Make a Mistake Is Human"
    ISRC GBCTP0030911
    REM REPLAYGAIN_TRACK_GAIN 3.16 dB
    REM REPLAYGAIN_TRACK_PEAK 0.545959
    INDEX 00 02:48:00
FILE "11 - To Make a Mistake Is Human.flac" WAVE
    INDEX 01 00:00:00
  TRACK 12 AUDIO
    TITLE "Someone Like You"
    ISRC GBCTP0030912
    REM REPLAYGAIN_TRACK_GAIN 3.78 dB
    REM REPLAYGAIN_TRACK_PEAK 0.473145
    INDEX 00 03:07:38
FILE "12 - Someone Like You.flac" WAVE
    INDEX 01 00:00:00
  TRACK 13 AUDIO
    TITLE "I Couldn't Stay Away from You"
    ISRC GBCTP0030913
    REM REPLAYGAIN_TRACK_GAIN 3.31 dB
    REM REPLAYGAIN_TRACK_PEAK 0.562439
    INDEX 00 03:02:65
FILE "13 - I Couldn't Stay Away from You.flac" WAVE
    INDEX 01 00:00:00
  TRACK 14 AUDIO
    TITLE "Baby, It's Cold Outside"
    ISRC GBCTP0030914
    REM REPLAYGAIN_TRACK_GAIN 3.79 dB
    REM REPLAYGAIN_TRACK_PEAK 0.456451
    INDEX 00 03:17:68
FILE "14 - Baby, It's Cold Outside.flac" WAVE
    INDEX 01 00:00:00
  TRACK 15 AUDIO
    TITLE "Black Coffee"
    ISRC GBCTP0030915
    REM REPLAYGAIN_TRACK_GAIN 3.75 dB
    REM REPLAYGAIN_TRACK_PEAK 0.449432
    INDEX 00 02:41:65
FILE "15 - Black Coffee.flac" WAVE
    INDEX 01 00:00:00
  TRACK 16 AUDIO
    TITLE "Lover's Gold"
    ISRC GBCTP0030916
    REM REPLAYGAIN_TRACK_GAIN 5.06 dB
    REM REPLAYGAIN_TRACK_PEAK 0.390533
    INDEX 00 03:04:50
FILE "16 - Lover's Gold.flac" WAVE
    INDEX 01 00:00:00
  TRACK 17 AUDIO
    TITLE "Crying"
    ISRC GBCTP0030917
    REM REPLAYGAIN_TRACK_GAIN 3.30 dB
    REM REPLAYGAIN_TRACK_PEAK 0.435394
    INDEX 00 03:05:55
FILE "17 - Crying.flac" WAVE
    INDEX 01 00:00:00
  TRACK 18 AUDIO
    TITLE "A New Shade of Blues"
    ISRC GBCTP0030918
    REM REPLAYGAIN_TRACK_GAIN 2.75 dB
    REM REPLAYGAIN_TRACK_PEAK 0.452942
    INDEX 00 03:09:00
FILE "18 - A New Shade of Blues.flac" WAVE
    INDEX 01 00:00:00
  TRACK 19 AUDIO
    TITLE "I Hadn't Anyone Till You"
    ISRC GBCTP0030919
    REM REPLAYGAIN_TRACK_GAIN 4.94 dB
    REM REPLAYGAIN_TRACK_PEAK 0.485565
    INDEX 00 02:59:12
FILE "19 - I Hadn't Anyone Till You.flac" WAVE
    INDEX 01 00:00:00
  TRACK 20 AUDIO
    TITLE "Foolish Tears"
    ISRC GBCTP0030920
    REM REPLAYGAIN_TRACK_GAIN 6.36 dB
    REM REPLAYGAIN_TRACK_PEAK 0.304962
    INDEX 00 03:00:10
FILE "20 - Foolish Tears.flac" WAVE
    INDEX 01 00:00:00
  TRACK 21 AUDIO
    TITLE "A Man Wrote a Song"
    ISRC GBCTP0030921
    REM REPLAYGAIN_TRACK_GAIN 6.65 dB
    REM REPLAYGAIN_TRACK_PEAK 0.385590
    INDEX 00 02:58:07
FILE "21 - A Man Wrote a Song.flac" WAVE
    INDEX 01 00:00:00
  TRACK 22 AUDIO
    TITLE "Solid as a Rock"
    ISRC GBCTP0030922
    REM REPLAYGAIN_TRACK_GAIN 2.20 dB
    REM REPLAYGAIN_TRACK_PEAK 0.619415
    INDEX 00 03:16:58
FILE "22 - Solid as a Rock.flac" WAVE
    INDEX 01 00:00:00
  TRACK 23 AUDIO
    TITLE "Sugarfoot Rag"
    ISRC GBCTP0030923
    REM REPLAYGAIN_TRACK_GAIN 1.22 dB
    REM REPLAYGAIN_TRACK_PEAK 0.546417
    INDEX 00 02:56:15
FILE "23 - Sugarfoot Rag.flac" WAVE
    INDEX 01 00:00:00
Правила, инструкции, FAQ!!!
Торрент  Добавлен [02 мар 2020, 16:53] Скачать торрент Магнет ссылка
Скачать торрент
[ Размер 20.92 КБ / Просмотров 0 ]

Статус
Проверен 
 
Размер  238.04 МБ
Приватный: Нет (DHT включён)
.torrent скачан  0
 


     Отправить личное сообщение
   
Страница 1 из 1
Показать сообщения за:  Поле сортировки  
Начать новую тему Ответить на тему


Сейчас этот форум просматривают: нет зарегистрированных пользователей и гости: 0


Вы не можете начинать темы
Вы не можете отвечать на сообщения
Вы не можете редактировать свои сообщения
Вы не можете удалять свои сообщения
Вы не можете добавлять вложения

Перейти:  
cron
cron