Начать новую тему Ответить на тему
Статистика раздачи
Размер: 183.8 МБ | Добавлен: 02 мар 2020, 16:52 | Скачали: 0
Сидеров: 0  [0 байт/сек]    Личеров: 0  [0 байт/сек]
Пред. тема | След. тема 

Автор
Сообщение

СообщениеДобавлено: 02 мар 2020, 16:52 

Ответить с цитатой 

Ella Fitzgerald - The Chronological Classics: 1951
Жанр: Vocal Jazz
Носитель: CD
Страна-производитель диска (релиза): Франция
Год издания: 2002
Издатель (лейбл): Classics
Номер по каталогу: 1261
Страна исполнителя (группы): США
Аудиокодек: FLAC (*.flac)
Тип рипа: tracks+.cue
Продолжительность: 01:10:16
Источник: catfish27
Наличие сканов в содержимом раздачи: сетевые
Треклист:
01. Lonesome Gal (3:04)
02. The Bean Bag Song (3:09)
03. The Cheasapeake and Ohio (2:42)
04. Two Little Men in a Flying Saucer (3:23)
05. Because of Rain (3:11)
06. The Hot Canary (3:16)
07. Even as You and I (3:32)
08. Do You Really Love Me? (3:13)
09. Love You Madly (3:02)
10. Mixed Emotions (3:19)
11. Smooth Sailing (3:07)
12. Come On-A My House (1:59)
13. I Don't Want to Take a Chance (3:15)
14. There Never Was a Baby (2:49)
15. Give a Little, Get a Little (3:22)
16. Necessary Evil (2:34)
17. Oops! (3:11)
18. Would You Like to Take a Walk? (3:18)
19. Who Walks In When I Walk Out? (2:19)
20. Baby Doll (3:20)
21. What Does It Take? (2:43)
22. Lady Bug (3:20)
23. Lazy Day (3:08)
Код:
X Lossless Decoder version 20191004 (152.0)
XLD extraction logfile from 2020-02-27 17:43:49 -0800
Ella Fitzgerald / The Chronological Classics: 1951
Used drive : HL-DT-ST DVDRAM GP65NB60 (revision PF00)
Media type : Pressed CD
Ripper mode             : XLD Secure Ripper
Disable audio cache     : OK for the drive with a cache less than 1375KiB
Make use of C2 pointers : NO
Read offset correction  : 6
Max retry count         : 100
Gap status              : Analyzed, Appended (except HTOA)
TOC of the extracted CD
     Track |   Start  |  Length  | Start sector | End sector
    ---------------------------------------------------------
        1  | 00:00:32 | 03:04:08 |        32    |    13839
        2  | 03:04:40 | 03:08:65 |     13840    |    28004
        3  | 06:13:30 | 02:41:46 |     28005    |    40125
        4  | 08:55:01 | 03:23:29 |     40126    |    55379
        5  | 12:18:30 | 03:11:16 |     55380    |    69720
        6  | 15:29:46 | 03:16:25 |     69721    |    84445
        7  | 18:45:71 | 03:31:46 |     84446    |   100316
        8  | 22:17:42 | 03:13:17 |    100317    |   114808
        9  | 25:30:59 | 03:01:50 |    114809    |   128433
       10  | 28:32:34 | 03:19:37 |    128434    |   143395
       11  | 31:51:71 | 03:07:07 |    143396    |   157427
       12  | 34:59:03 | 01:59:17 |    157428    |   166369
       13  | 36:58:20 | 03:14:63 |    166370    |   180982
       14  | 40:13:08 | 02:49:04 |    180983    |   193661
       15  | 43:02:12 | 03:22:06 |    193662    |   208817
       16  | 46:24:18 | 02:33:43 |    208818    |   220335
       17  | 48:57:61 | 03:10:69 |    220336    |   234654
       18  | 52:08:55 | 03:17:42 |    234655    |   249471
       19  | 55:26:22 | 02:18:74 |    249472    |   259895
       20  | 57:45:21 | 03:19:58 |    259896    |   274878
       21  | 61:05:04 | 02:43:18 |    274879    |   287121
       22  | 63:48:22 | 03:19:67 |    287122    |   302113
       23  | 67:08:14 | 03:08:20 |    302114    |   316233
AccurateRip Summary (DiscID: 003a72cb-03cacdbd-36107817)
    Track 01 : OK (v2, confidence 1/1)
    Track 02 : OK (v2, confidence 1/1)
    Track 03 : OK (v2, confidence 1/1)
    Track 04 : OK (v2, confidence 1/1)
    Track 05 : OK (v2, confidence 1/1)
    Track 06 : OK (v2, confidence 1/1)
    Track 07 : OK (v2, confidence 1/1)
    Track 08 : OK (v2, confidence 1/1)
    Track 09 : OK (v2, confidence 1/1)
    Track 10 : OK (v2, confidence 1/1)
    Track 11 : OK (v2, confidence 1/1)
    Track 12 : OK (v2, confidence 1/1)
    Track 13 : OK (v2, confidence 1/1)
    Track 14 : OK (v2, confidence 1/1)
    Track 15 : OK (v2, confidence 1/1)
    Track 16 : OK (v2, confidence 1/1)
    Track 17 : OK (v2, confidence 1/1)
    Track 18 : OK (v2, confidence 1/1)
    Track 19 : OK (v2, confidence 1/1)
    Track 20 : OK (v2, confidence 1/1)
    Track 21 : OK (v2, confidence 1/1)
    Track 22 : OK (v2, confidence 1/1)
    Track 23 : OK (v2, confidence 1/1)
        ->All tracks accurately ripped.
All Tracks
    Album gain               : -3.95 dB
    Peak                     : 0.978729
    Statistics
        Read error                           : 0
        Jitter error (maybe fixed)           : 0
        Retry sector count                   : 0
        Damaged sector count                 : 0
Track 01
    Filename : /Volumes/Hollywood and Vine/Rips/Ella Fitzgerald - The Chronological Classicsпјљ 1951 (2002) [FLAC]/01 Lonesome Gal.flac
    Pre-gap length : 00:02:32
    Track gain               : -2.40 dB
    Peak                     : 0.977905
    CRC32 hash (test run)    : F324D091
    CRC32 hash               : F324D091
    CRC32 hash (skip zero)   : 581EE3FC
    AccurateRip v1 signature : 797EE00F
    AccurateRip v2 signature : E043CC50
        ->Accurately ripped (v2, confidence 1/1)
    Statistics
        Read error                           : 0
        Jitter error (maybe fixed)           : 0
        Retry sector count                   : 0
        Damaged sector count                 : 0
Track 02
    Filename : /Volumes/Hollywood and Vine/Rips/Ella Fitzgerald - The Chronological Classicsпјљ 1951 (2002) [FLAC]/02 The Bean Bag Song.flac
    Pre-gap length : 00:02:02
    Track gain               : -2.65 dB
    Peak                     : 0.978119
    CRC32 hash (test run)    : 2A355572
    CRC32 hash               : 2A355572
    CRC32 hash (skip zero)   : 28F34619
    AccurateRip v1 signature : 4B487C5C
    AccurateRip v2 signature : DEFC1AF3
        ->Accurately ripped (v2, confidence 1/1)
    Statistics
        Read error                           : 0
        Jitter error (maybe fixed)           : 0
        Retry sector count                   : 0
        Damaged sector count                 : 0
Track 03
    Filename : /Volumes/Hollywood and Vine/Rips/Ella Fitzgerald - The Chronological Classicsпјљ 1951 (2002) [FLAC]/03 The Cheasapeake and Ohio.flac
    Pre-gap length : 00:02:02
    Track gain               : -3.63 dB
    Peak                     : 0.977203
    CRC32 hash (test run)    : CFEE95C3
    CRC32 hash               : CFEE95C3
    CRC32 hash (skip zero)   : 19B83809
    AccurateRip v1 signature : F73E9CE6
    AccurateRip v2 signature : 9D070D12
        ->Accurately ripped (v2, confidence 1/1)
    Statistics
        Read error                           : 0
        Jitter error (maybe fixed)           : 0
        Retry sector count                   : 0
        Damaged sector count                 : 0
Track 04
    Filename : /Volumes/Hollywood and Vine/Rips/Ella Fitzgerald - The Chronological Classicsпјљ 1951 (2002) [FLAC]/04 Two Little Men in a Flying Saucer.flac
    Pre-gap length : 00:02:02
    Track gain               : -2.08 dB
    Peak                     : 0.976990
    CRC32 hash (test run)    : 7346285D
    CRC32 hash               : 7346285D
    CRC32 hash (skip zero)   : CFF66B98
    AccurateRip v1 signature : 98E523C8
    AccurateRip v2 signature : E8354866
        ->Accurately ripped (v2, confidence 1/1)
    Statistics
        Read error                           : 0
        Jitter error (maybe fixed)           : 0
        Retry sector count                   : 0
        Damaged sector count                 : 0
Track 05
    Filename : /Volumes/Hollywood and Vine/Rips/Ella Fitzgerald - The Chronological Classicsпјљ 1951 (2002) [FLAC]/05 Because of Rain.flac
    Pre-gap length : 00:02:03
    Track gain               : -3.90 dB
    Peak                     : 0.957245
    CRC32 hash (test run)    : EF7A7E76
    CRC32 hash               : EF7A7E76
    CRC32 hash (skip zero)   : 706A9ECB
    AccurateRip v1 signature : F0708577
    AccurateRip v2 signature : F94F652B
        ->Accurately ripped (v2, confidence 1/1)
    Statistics
        Read error                           : 0
        Jitter error (maybe fixed)           : 0
        Retry sector count                   : 0
        Damaged sector count                 : 0
Track 06
    Filename : /Volumes/Hollywood and Vine/Rips/Ella Fitzgerald - The Chronological Classicsпјљ 1951 (2002) [FLAC]/06 The Hot Canary.flac
    Pre-gap length : 00:02:03
    Track gain               : -4.32 dB
    Peak                     : 0.977966
    CRC32 hash (test run)    : AB24E01C
    CRC32 hash               : AB24E01C
    CRC32 hash (skip zero)   : A874B521
    AccurateRip v1 signature : F35CD50D
    AccurateRip v2 signature : 44B6F57A
        ->Accurately ripped (v2, confidence 1/1)
    Statistics
        Read error                           : 0
        Jitter error (maybe fixed)           : 0
        Retry sector count                   : 0
        Damaged sector count                 : 0
Track 07
    Filename : /Volumes/Hollywood and Vine/Rips/Ella Fitzgerald - The Chronological Classicsпјљ 1951 (2002) [FLAC]/07 Even As You and I.flac
    Pre-gap length : 00:02:03
    Track gain               : -1.66 dB
    Peak                     : 0.977905
    CRC32 hash (test run)    : CF23A8E6
    CRC32 hash               : CF23A8E6
    CRC32 hash (skip zero)   : 018F052D
    AccurateRip v1 signature : 011A48B9
    AccurateRip v2 signature : 6C78FE13
        ->Accurately ripped (v2, confidence 1/1)
    Statistics
        Read error                           : 0
        Jitter error (maybe fixed)           : 0
        Retry sector count                   : 0
        Damaged sector count                 : 0
Track 08
    Filename : /Volumes/Hollywood and Vine/Rips/Ella Fitzgerald - The Chronological Classicsпјљ 1951 (2002) [FLAC]/08 Do You Really Love Me_.flac
    Pre-gap length : 00:02:03
    Track gain               : -2.86 dB
    Peak                     : 0.977142
    CRC32 hash (test run)    : D097A3E8
    CRC32 hash               : D097A3E8
    CRC32 hash (skip zero)   : 665B4AAA
    AccurateRip v1 signature : DF2D7F29
    AccurateRip v2 signature : B2337C1C
        ->Accurately ripped (v2, confidence 1/1)
    Statistics
        Read error                           : 0
        Jitter error (maybe fixed)           : 0
        Retry sector count                   : 0
        Damaged sector count                 : 0
Track 09
    Filename : /Volumes/Hollywood and Vine/Rips/Ella Fitzgerald - The Chronological Classicsпјљ 1951 (2002) [FLAC]/09 Love You Madly.flac
    Pre-gap length : 00:02:02
    Track gain               : -4.52 dB
    Peak                     : 0.949097
    CRC32 hash (test run)    : 0969A414
    CRC32 hash               : 0969A414
    CRC32 hash (skip zero)   : 62A592B7
    AccurateRip v1 signature : 8BDA81B0
    AccurateRip v2 signature : 26A8CC5B
        ->Accurately ripped (v2, confidence 1/1)
    Statistics
        Read error                           : 0
        Jitter error (maybe fixed)           : 0
        Retry sector count                   : 0
        Damaged sector count                 : 0
Track 10
    Filename : /Volumes/Hollywood and Vine/Rips/Ella Fitzgerald - The Chronological Classicsпјљ 1951 (2002) [FLAC]/10 Mixed Emotions.flac
    Pre-gap length : 00:02:03
    Track gain               : -1.25 dB
    Peak                     : 0.927216
    CRC32 hash (test run)    : 6B29C497
    CRC32 hash               : 6B29C497
    CRC32 hash (skip zero)   : 73E3CD21
    AccurateRip v1 signature : CDC4FCEC
    AccurateRip v2 signature : 1E5EC9C2
        ->Accurately ripped (v2, confidence 1/1)
    Statistics
        Read error                           : 0
        Jitter error (maybe fixed)           : 0
        Retry sector count                   : 0
        Damaged sector count                 : 0
Track 11
    Filename : /Volumes/Hollywood and Vine/Rips/Ella Fitzgerald - The Chronological Classicsпјљ 1951 (2002) [FLAC]/11 Smooth Sailing.flac
    Pre-gap length : 00:02:03
    Track gain               : -4.45 dB
    Peak                     : 0.940430
    CRC32 hash (test run)    : E50B038C
    CRC32 hash               : E50B038C
    CRC32 hash (skip zero)   : 9DB4A337
    AccurateRip v1 signature : 868AD56F
    AccurateRip v2 signature : 462218B0
        ->Accurately ripped (v2, confidence 1/1)
    Statistics
        Read error                           : 0
        Jitter error (maybe fixed)           : 0
        Retry sector count                   : 0
        Damaged sector count                 : 0
Track 12
    Filename : /Volumes/Hollywood and Vine/Rips/Ella Fitzgerald - The Chronological Classicsпјљ 1951 (2002) [FLAC]/12 Come On-A My House.flac
    Pre-gap length : 00:02:03
    Track gain               : -5.40 dB
    Peak                     : 0.959747
    CRC32 hash (test run)    : 49519463
    CRC32 hash               : 49519463
    CRC32 hash (skip zero)   : 5CC582A1
    AccurateRip v1 signature : 5C9ABB5F
    AccurateRip v2 signature : 2174E4E8
        ->Accurately ripped (v2, confidence 1/1)
    Statistics
        Read error                           : 0
        Jitter error (maybe fixed)           : 0
        Retry sector count                   : 0
        Damaged sector count                 : 0
Track 13
    Filename : /Volumes/Hollywood and Vine/Rips/Ella Fitzgerald - The Chronological Classicsпјљ 1951 (2002) [FLAC]/13 I Don't Want to Take a Chance.flac
    Pre-gap length : 00:02:03
    Track gain               : -6.41 dB
    Peak                     : 0.957794
    CRC32 hash (test run)    : 704ABFB3
    CRC32 hash               : 704ABFB3
    CRC32 hash (skip zero)   : 19A1AA8F
    AccurateRip v1 signature : AD5EEE42
    AccurateRip v2 signature : EFF62644
        ->Accurately ripped (v2, confidence 1/1)
    Statistics
        Read error                           : 0
        Jitter error (maybe fixed)           : 0
        Retry sector count                   : 0
        Damaged sector count                 : 0
Track 14
    Filename : /Volumes/Hollywood and Vine/Rips/Ella Fitzgerald - The Chronological Classicsпјљ 1951 (2002) [FLAC]/14 There Never Was a Baby.flac
    Pre-gap length : 00:02:02
    Track gain               : -5.43 dB
    Peak                     : 0.957306
    CRC32 hash (test run)    : 203F6AEB
    CRC32 hash               : 203F6AEB
    CRC32 hash (skip zero)   : 6E2A71C4
    AccurateRip v1 signature : 58B89F3F
    AccurateRip v2 signature : CFACC700
        ->Accurately ripped (v2, confidence 1/1)
    Statistics
        Read error                           : 0
        Jitter error (maybe fixed)           : 0
        Retry sector count                   : 0
        Damaged sector count                 : 0
Track 15
    Filename : /Volumes/Hollywood and Vine/Rips/Ella Fitzgerald - The Chronological Classicsпјљ 1951 (2002) [FLAC]/15 Give a Little, Get a Little.flac
    Pre-gap length : 00:02:02
    Track gain               : -4.21 dB
    Peak                     : 0.955383
    CRC32 hash (test run)    : 5E4BFC83
    CRC32 hash               : 5E4BFC83
    CRC32 hash (skip zero)   : D650158D
    AccurateRip v1 signature : 18E72160
    AccurateRip v2 signature : 0F15BA23
        ->Accurately ripped (v2, confidence 1/1)
    Statistics
        Read error                           : 0
        Jitter error (maybe fixed)           : 0
        Retry sector count                   : 0
        Damaged sector count                 : 0
Track 16
    Filename : /Volumes/Hollywood and Vine/Rips/Ella Fitzgerald - The Chronological Classicsпјљ 1951 (2002) [FLAC]/16 Necessary Evil.flac
    Pre-gap length : 00:02:03
    Track gain               : -2.70 dB
    Peak                     : 0.959564
    CRC32 hash (test run)    : DF1453B9
    CRC32 hash               : DF1453B9
    CRC32 hash (skip zero)   : 2073C610
    AccurateRip v1 signature : 1F859FB2
    AccurateRip v2 signature : 29094E47
        ->Accurately ripped (v2, confidence 1/1)
    Statistics
        Read error                           : 0
        Jitter error (maybe fixed)           : 0
        Retry sector count                   : 0
        Damaged sector count                 : 0
Track 17
    Filename : /Volumes/Hollywood and Vine/Rips/Ella Fitzgerald - The Chronological Classicsпјљ 1951 (2002) [FLAC]/17 Oops!.flac
    Pre-gap length : 00:02:03
    Track gain               : -2.68 dB
    Peak                     : 0.894836
    CRC32 hash (test run)    : C7CAC949
    CRC32 hash               : C7CAC949
    CRC32 hash (skip zero)   : E52491AB
    AccurateRip v1 signature : AC4DEFAB
    AccurateRip v2 signature : CD235868
        ->Accurately ripped (v2, confidence 1/1)
    Statistics
        Read error                           : 0
        Jitter error (maybe fixed)           : 0
        Retry sector count                   : 0
        Damaged sector count                 : 0
Track 18
    Filename : /Volumes/Hollywood and Vine/Rips/Ella Fitzgerald - The Chronological Classicsпјљ 1951 (2002) [FLAC]/18 Would You Like to Take a Walk.flac
    Pre-gap length : 00:02:02
    Track gain               : -2.51 dB
    Peak                     : 0.961975
    CRC32 hash (test run)    : 6DFF852E
    CRC32 hash               : 6DFF852E
    CRC32 hash (skip zero)   : B6443C76
    AccurateRip v1 signature : 9749C83E
    AccurateRip v2 signature : AD59ED6B
        ->Accurately ripped (v2, confidence 1/1)
    Statistics
        Read error                           : 0
        Jitter error (maybe fixed)           : 0
        Retry sector count                   : 0
        Damaged sector count                 : 0
Track 19
    Filename : /Volumes/Hollywood and Vine/Rips/Ella Fitzgerald - The Chronological Classicsпјљ 1951 (2002) [FLAC]/19 Who Walks In When I Walk Out_.flac
    Pre-gap length : 00:02:03
    Track gain               : -4.77 dB
    Peak                     : 0.967651
    CRC32 hash (test run)    : 35A594C7
    CRC32 hash               : 35A594C7
    CRC32 hash (skip zero)   : C6A5D873
    AccurateRip v1 signature : A0CA6680
    AccurateRip v2 signature : 9F53ACC8
        ->Accurately ripped (v2, confidence 1/1)
    Statistics
        Read error                           : 0
        Jitter error (maybe fixed)           : 0
        Retry sector count                   : 0
        Damaged sector count                 : 0
Track 20
    Filename : /Volumes/Hollywood and Vine/Rips/Ella Fitzgerald - The Chronological Classicsпјљ 1951 (2002) [FLAC]/20 Baby Doll.flac
    Pre-gap length : 00:02:03
    Track gain               : -4.89 dB
    Peak                     : 0.978729
    CRC32 hash (test run)    : 3727CC8C
    CRC32 hash               : 3727CC8C
    CRC32 hash (skip zero)   : B238B405
    AccurateRip v1 signature : FE0FC253
    AccurateRip v2 signature : 474CD570
        ->Accurately ripped (v2, confidence 1/1)
    Statistics
        Read error                           : 0
        Jitter error (maybe fixed)           : 0
        Retry sector count                   : 0
        Damaged sector count                 : 0
Track 21
    Filename : /Volumes/Hollywood and Vine/Rips/Ella Fitzgerald - The Chronological Classicsпјљ 1951 (2002) [FLAC]/21 What Does It Take_.flac
    Pre-gap length : 00:02:03
    Track gain               : -5.48 dB
    Peak                     : 0.958923
    CRC32 hash (test run)    : 3059C23C
    CRC32 hash               : 3059C23C
    CRC32 hash (skip zero)   : 2E232C48
    AccurateRip v1 signature : EF4393F9
    AccurateRip v2 signature : 8B9162F2
        ->Accurately ripped (v2, confidence 1/1)
    Statistics
        Read error                           : 0
        Jitter error (maybe fixed)           : 0
        Retry sector count                   : 0
        Damaged sector count                 : 0
Track 22
    Filename : /Volumes/Hollywood and Vine/Rips/Ella Fitzgerald - The Chronological Classicsпјљ 1951 (2002) [FLAC]/22 Lady Bug.flac
    Pre-gap length : 00:02:02
    Track gain               : -4.44 dB
    Peak                     : 0.955353
    CRC32 hash (test run)    : ACD7DDF1
    CRC32 hash               : ACD7DDF1
    CRC32 hash (skip zero)   : 1603CB34
    AccurateRip v1 signature : 7442CFFD
    AccurateRip v2 signature : 5483ECBE
        ->Accurately ripped (v2, confidence 1/1)
    Statistics
        Read error                           : 0
        Jitter error (maybe fixed)           : 0
        Retry sector count                   : 0
        Damaged sector count                 : 0
Track 23
    Filename : /Volumes/Hollywood and Vine/Rips/Ella Fitzgerald - The Chronological Classicsпјљ 1951 (2002) [FLAC]/23 Lazy Day.flac
    Pre-gap length : 00:02:03
    Track gain               : -3.86 dB
    Peak                     : 0.958344
    CRC32 hash (test run)    : 275001F8
    CRC32 hash               : 275001F8
    CRC32 hash (skip zero)   : C7502046
    AccurateRip v1 signature : 28129F2F
    AccurateRip v2 signature : 79F33494
        ->Accurately ripped (v2, confidence 1/1)
    Statistics
        Read error                           : 0
        Jitter error (maybe fixed)           : 0
        Retry sector count                   : 0
        Damaged sector count                 : 0
No errors occurred
End of status report
-----BEGIN XLD SIGNATURE-----
QJdzRis0Llg9wcrZmdFPi4.kvkbULqE8tjMHXS.jJJYKLYRchQlSTSAZ3xEGv9lXnpahg7Wsuy6F_bnW.DwX_aYJz.MLA1bxERHjx.q
-----END XLD SIGNATURE-----
Код:
TITLE "1951"
PERFORMER "Ella Fitzgerald"
REM GENRE "Jazz"
REM DATE "2002"
REM DISCID 36107817
REM REPLAYGAIN_ALBUM_GAIN -3.95 dB
REM REPLAYGAIN_ALBUM_PEAK 0.978729
FILE "01 - Lonesome Gal.flac" WAVE
  TRACK 01 AUDIO
    TITLE "Lonesome Gal"
    REM REPLAYGAIN_TRACK_GAIN -2.40 dB
    REM REPLAYGAIN_TRACK_PEAK 0.977905
    PREGAP 00:00:32
    INDEX 01 00:00:00
  TRACK 02 AUDIO
    TITLE "The Bean Bag Song"
    REM REPLAYGAIN_TRACK_GAIN -2.65 dB
    REM REPLAYGAIN_TRACK_PEAK 0.978119
    INDEX 00 03:02:06
FILE "02 - The Bean Bag Song.flac" WAVE
    INDEX 01 00:00:00
  TRACK 03 AUDIO
    TITLE "The Cheasapeake and Ohio"
    REM REPLAYGAIN_TRACK_GAIN -3.63 dB
    REM REPLAYGAIN_TRACK_PEAK 0.977203
    INDEX 00 03:06:63
FILE "03 - The Cheasapeake and Ohio.flac" WAVE
    INDEX 01 00:00:00
  TRACK 04 AUDIO
    TITLE "Two Little Men in a Flying Saucer"
    REM REPLAYGAIN_TRACK_GAIN -2.08 dB
    REM REPLAYGAIN_TRACK_PEAK 0.976990
    INDEX 00 02:39:44
FILE "04 - Two Little Men in a Flying Saucer.flac" WAVE
    INDEX 01 00:00:00
  TRACK 05 AUDIO
    TITLE "Because of Rain"
    REM REPLAYGAIN_TRACK_GAIN -3.90 dB
    REM REPLAYGAIN_TRACK_PEAK 0.957245
    INDEX 00 03:21:26
FILE "05 - Because of Rain.flac" WAVE
    INDEX 01 00:00:00
  TRACK 06 AUDIO
    TITLE "The Hot Canary"
    REM REPLAYGAIN_TRACK_GAIN -4.32 dB
    REM REPLAYGAIN_TRACK_PEAK 0.977966
    INDEX 00 03:09:13
FILE "06 - The Hot Canary.flac" WAVE
    INDEX 01 00:00:00
  TRACK 07 AUDIO
    TITLE "Even as You and I"
    REM REPLAYGAIN_TRACK_GAIN -1.66 dB
    REM REPLAYGAIN_TRACK_PEAK 0.977905
    INDEX 00 03:14:22
FILE "07 - Even as You and I.flac" WAVE
    INDEX 01 00:00:00
  TRACK 08 AUDIO
    TITLE "Do You Really Love Me?"
    REM REPLAYGAIN_TRACK_GAIN -2.86 dB
    REM REPLAYGAIN_TRACK_PEAK 0.977142
    INDEX 00 03:29:43
FILE "08 - Do You Really Love Me.flac" WAVE
    INDEX 01 00:00:00
  TRACK 09 AUDIO
    TITLE "Love You Madly"
    REM REPLAYGAIN_TRACK_GAIN -4.52 dB
    REM REPLAYGAIN_TRACK_PEAK 0.949097
    INDEX 00 03:11:15
FILE "09 - Love You Madly.flac" WAVE
    INDEX 01 00:00:00
  TRACK 10 AUDIO
    TITLE "Mixed Emotions"
    REM REPLAYGAIN_TRACK_GAIN -1.25 dB
    REM REPLAYGAIN_TRACK_PEAK 0.927216
    INDEX 00 02:59:47
FILE "10 - Mixed Emotions.flac" WAVE
    INDEX 01 00:00:00
  TRACK 11 AUDIO
    TITLE "Smooth Sailing"
    REM REPLAYGAIN_TRACK_GAIN -4.45 dB
    REM REPLAYGAIN_TRACK_PEAK 0.940430
    INDEX 00 03:17:34
FILE "11 - Smooth Sailing.flac" WAVE
    INDEX 01 00:00:00
  TRACK 12 AUDIO
    TITLE "Come On-A My House"
    REM REPLAYGAIN_TRACK_GAIN -5.40 dB
    REM REPLAYGAIN_TRACK_PEAK 0.959747
    INDEX 00 03:05:04
FILE "12 - Come On-A My House.flac" WAVE
    INDEX 01 00:00:00
  TRACK 13 AUDIO
    TITLE "I Don't Want to Take a Chance"
    REM REPLAYGAIN_TRACK_GAIN -6.41 dB
    REM REPLAYGAIN_TRACK_PEAK 0.957794
    INDEX 00 01:57:14
FILE "13 - I Don't Want to Take a Chance.flac" WAVE
    INDEX 01 00:00:00
  TRACK 14 AUDIO
    TITLE "There Never Was a Baby"
    REM REPLAYGAIN_TRACK_GAIN -5.43 dB
    REM REPLAYGAIN_TRACK_PEAK 0.957306
    INDEX 00 03:12:61
FILE "14 - There Never Was a Baby.flac" WAVE
    INDEX 01 00:00:00
  TRACK 15 AUDIO
    TITLE "Give a Little, Get a Little"
    REM REPLAYGAIN_TRACK_GAIN -4.21 dB
    REM REPLAYGAIN_TRACK_PEAK 0.955383
    INDEX 00 02:47:02
FILE "15 - Give a Little, Get a Little.flac" WAVE
    INDEX 01 00:00:00
  TRACK 16 AUDIO
    TITLE "Necessary Evil"
    REM REPLAYGAIN_TRACK_GAIN -2.70 dB
    REM REPLAYGAIN_TRACK_PEAK 0.959564
    INDEX 00 03:20:03
FILE "16 - Necessary Evil.flac" WAVE
    INDEX 01 00:00:00
  TRACK 17 AUDIO
    TITLE "Oops!"
    REM REPLAYGAIN_TRACK_GAIN -2.68 dB
    REM REPLAYGAIN_TRACK_PEAK 0.894836
    INDEX 00 02:31:40
FILE "17 - Oops!.flac" WAVE
    INDEX 01 00:00:00
  TRACK 18 AUDIO
    TITLE "Would You Like to Take a Walk?"
    REM REPLAYGAIN_TRACK_GAIN -2.51 dB
    REM REPLAYGAIN_TRACK_PEAK 0.961975
    INDEX 00 03:08:67
FILE "18 - Would You Like to Take a Walk.flac" WAVE
    INDEX 01 00:00:00
  TRACK 19 AUDIO
    TITLE "Who Walks In When I Walk Out?"
    REM REPLAYGAIN_TRACK_GAIN -4.77 dB
    REM REPLAYGAIN_TRACK_PEAK 0.967651
    INDEX 00 03:15:39
FILE "19 - Who Walks In When I Walk Out.flac" WAVE
    INDEX 01 00:00:00
  TRACK 20 AUDIO
    TITLE "Baby Doll"
    REM REPLAYGAIN_TRACK_GAIN -4.89 dB
    REM REPLAYGAIN_TRACK_PEAK 0.978729
    INDEX 00 02:16:71
FILE "20 - Baby Doll.flac" WAVE
    INDEX 01 00:00:00
  TRACK 21 AUDIO
    TITLE "What Does It Take?"
    REM REPLAYGAIN_TRACK_GAIN -5.48 dB
    REM REPLAYGAIN_TRACK_PEAK 0.958923
    INDEX 00 03:17:55
FILE "21 - What Does It Take.flac" WAVE
    INDEX 01 00:00:00
  TRACK 22 AUDIO
    TITLE "Lady Bug"
    REM REPLAYGAIN_TRACK_GAIN -4.44 dB
    REM REPLAYGAIN_TRACK_PEAK 0.955353
    INDEX 00 02:41:16
FILE "22 - Lady Bug.flac" WAVE
    INDEX 01 00:00:00
  TRACK 23 AUDIO
    TITLE "Lazy Day"
    REM REPLAYGAIN_TRACK_GAIN -3.86 dB
    REM REPLAYGAIN_TRACK_PEAK 0.958344
    INDEX 00 03:17:64
FILE "23 - Lazy Day.flac" WAVE
    INDEX 01 00:00:00
Most of Ella Fitzgerald's recordings from 1951 (all of which are on this CD) are obscure and have rarely been reissued. "The First Lady of the American Song" turned 34 that year and was in peak form, as she would be throughout the decade. The music ranges from novelties ("Two Little Men In A Flying Saucer," and a cover of "Come On-A My House,") to worthy versions of "Love You Madly," "Smooth Sailing," and "Baby Doll." The settings range from tunes with Sy Oliver's Orchestra and occasional background singers, to a date with Hank Jones, and four lesser-known but delightful duets with Louis Armstrong: "Necessary Evil," "Oops," "Would You Like To Take A Walk," and "Who Walks In When I Walk Out."
The Chronological Classics на трекере
Список имеющихся на трекере lossless раздач лейбла "The Chronological Classics".
Взамен ушедшей в архив.
Правила, инструкции, FAQ!!!
Торрент  Добавлен [02 мар 2020, 16:52] Скачать торрент Магнет ссылка
Скачать торрент
[ Размер 16.54 КБ / Просмотров 4 ]

Статус
Проверен 
 
Размер  183.8 МБ
Приватный: Нет (DHT включён)
.torrent скачан  0
 


     Отправить личное сообщение
   
Страница 1 из 1
Показать сообщения за:  Поле сортировки  
Начать новую тему Ответить на тему


Сейчас этот форум просматривают: нет зарегистрированных пользователей и гости: 0


Вы не можете начинать темы
Вы не можете отвечать на сообщения
Вы не можете редактировать свои сообщения
Вы не можете удалять свои сообщения
Вы не можете добавлять вложения

Перейти:  
cron