Начать новую тему Ответить на тему
Статистика раздачи
Размер: 225.12 МБ | Добавлен: 02 мар 2020, 16:53 | Скачали: 0
Сидеров: 0  [0 байт/сек]    Личеров: 0  [0 байт/сек]
Пред. тема | След. тема 

Автор
Сообщение

СообщениеДобавлено: 02 мар 2020, 16:53 

Ответить с цитатой 

Ella Fitzgerald - Hallelujah!
Жанр: Vocal Jazz
Носитель: CD
Страна-производитель диска (релиза): США
Год издания: 1995
Издатель (лейбл): Milan
Номер по каталогу: 73138 35718-2
Аудиокодек: FLAC (*.flac)
Тип рипа: tracks+.cue
Продолжительность: 00:50:02
Источник: catfish27
Наличие сканов в содержимом раздачи: нет
Треклист:
01. A Tisket a Tasket (2:39)
02. My Man (Mon Homme) (3:04)
03. Darktown Strutters Ball (3:07)
04. Wake Up and Live (2:40)
05. Rock It for Me (3:10)
06. Hallelujah (4:05)
07. I Want to Be Happy (4:28)
08. Bei Mir Bist du Schon (3:08)
09. MacPherson Is Rehearsing (3:09)
10. Ella (2:49)
11. Gotta Pebble in My Shoe (2:55)
12. Strictly from Dixie (2:51)
13. Undecided (3:18)
14. Billy (2:43)
15. Gulf Coast Blues (3:02)
16. I Got It Bad (2:54)
Код:
X Lossless Decoder version 20170729 (150.3)
XLD extraction logfile from 2018-01-01 14:04:53 -0500
Ella Fitzgerald / Hallelujah!
Used drive : TSSTcorp BDDVDW SE-506BB (revision TS00)
Media type : Pressed CD
Ripper mode             : XLD Secure Ripper
Disable audio cache     : OK for the drive with a cache less than 1375KiB
Make use of C2 pointers : NO
Read offset correction  : 6
Max retry count         : 100
Gap status              : Analyzed, Appended (except HTOA)
TOC of the extracted CD
     Track |   Start  |  Length  | Start sector | End sector
    ---------------------------------------------------------
        1  | 00:00:40 | 02:38:45 |        40    |    11934
        2  | 02:39:10 | 03:04:35 |     11935    |    25769
        3  | 05:43:45 | 03:07:30 |     25770    |    39824
        4  | 08:51:00 | 02:40:20 |     39825    |    51844
        5  | 11:31:20 | 03:09:55 |     51845    |    66074
        6  | 14:41:00 | 04:05:00 |     66075    |    84449
        7  | 18:46:00 | 04:27:50 |     84450    |   104524
        8  | 23:13:50 | 03:08:07 |    104525    |   118631
        9  | 26:21:57 | 03:08:58 |    118632    |   132789
       10  | 29:30:40 | 02:48:45 |    132790    |   145434
       11  | 32:19:10 | 02:55:17 |    145435    |   158576
       12  | 35:14:27 | 02:51:15 |    158577    |   171416
       13  | 38:05:42 | 03:17:60 |    171417    |   186251
       14  | 41:23:27 | 02:42:68 |    186252    |   198469
       15  | 44:06:20 | 03:01:70 |    198470    |   212114
       16  | 47:08:15 | 02:53:55 |    212115    |   225144
AccurateRip Summary (DiscID: 001d7ff2-01632a72-e60bb910)
    Track 01 : OK (v1+v2, confidence 2/2)
    Track 02 : OK (v1+v2, confidence 2/2)
    Track 03 : OK (v1+v2, confidence 2/2)
    Track 04 : OK (v1+v2, confidence 2/2)
    Track 05 : OK (v1+v2, confidence 2/2)
    Track 06 : OK (v2, confidence 1/1)
    Track 07 : OK (v2, confidence 1/1)
    Track 08 : OK (v2, confidence 1/1)
    Track 09 : OK (v2, confidence 1/1)
    Track 10 : OK (v2, confidence 1/1)
    Track 11 : OK (v2, confidence 1/1)
    Track 12 : OK (v2, confidence 1/1)
    Track 13 : OK (v2, confidence 1/1)
    Track 14 : OK (v2, confidence 1/1)
    Track 15 : OK (v2, confidence 1/1)
    Track 16 : OK (v2, confidence 1/1)
        ->All tracks accurately ripped.
All Tracks
    Album gain               : -6.02 dB
    Peak                     : 0.993805
    Statistics
        Read error                           : 0
        Jitter error (maybe fixed)           : 5
        Retry sector count                   : 948
        Damaged sector count                 : 0
Track 01
    Filename : /Users/diridonstation/Rips/Ella Fitzgerald - Hallelujah_ (1994) [FLAC]/01 A Tisket a Tasket.flac
    Pre-gap length : 00:02:40
    Track gain               : -5.30 dB
    Peak                     : 0.802307
    CRC32 hash (test run)    : 45755B21
    CRC32 hash               : 45755B21
    CRC32 hash (skip zero)   : 7026B6FA
    AccurateRip v1 signature : 64267FCB
    AccurateRip v2 signature : 5E22E44D
        ->Accurately ripped (v1+v2, confidence 1+1/2)
    Statistics
        Read error                           : 0
        Jitter error (maybe fixed)           : 0
        Retry sector count                   : 0
        Damaged sector count                 : 0
Track 02
    Filename : /Users/diridonstation/Rips/Ella Fitzgerald - Hallelujah_ (1994) [FLAC]/02 My ManпјЏMon Homme.flac
    Pre-gap length : 00:02:15
    Track gain               : -5.71 dB
    Peak                     : 0.869324
    CRC32 hash (test run)    : B2B1CB64
    CRC32 hash               : B2B1CB64
    CRC32 hash (skip zero)   : 4FA96D9E
    AccurateRip v1 signature : 2BB45A80
    AccurateRip v2 signature : 04BFF3C0
        ->Accurately ripped (v1+v2, confidence 1+1/2)
    Statistics
        Read error                           : 0
        Jitter error (maybe fixed)           : 0
        Retry sector count                   : 1
        Damaged sector count                 : 0
Track 03
    Filename : /Users/diridonstation/Rips/Ella Fitzgerald - Hallelujah_ (1994) [FLAC]/03 Darktown Strutters Ball.flac
    Pre-gap length : 00:01:63
    Track gain               : -5.16 dB
    Peak                     : 0.833618
    CRC32 hash (test run)    : 320E8559
    CRC32 hash               : 320E8559
    CRC32 hash (skip zero)   : 3A0F23F5
    AccurateRip v1 signature : 3EAA51DE
    AccurateRip v2 signature : A69A1955
        ->Accurately ripped (v1+v2, confidence 1+1/2)
    Statistics
        Read error                           : 0
        Jitter error (maybe fixed)           : 2
        Retry sector count                   : 461
        Damaged sector count                 : 0
Track 04
    Filename : /Users/diridonstation/Rips/Ella Fitzgerald - Hallelujah_ (1994) [FLAC]/04 Wake Up and Live.flac
    Pre-gap length : 00:02:03
    Track gain               : -6.03 dB
    Peak                     : 0.937927
    CRC32 hash (test run)    : 58E966F8
    CRC32 hash               : 58E966F8
    CRC32 hash (skip zero)   : CE552F1C
    AccurateRip v1 signature : C13091E3
    AccurateRip v2 signature : 6D06ED85
        ->Accurately ripped (v1+v2, confidence 1+1/2)
    Statistics
        Read error                           : 0
        Jitter error (maybe fixed)           : 2
        Retry sector count                   : 468
        Damaged sector count                 : 0
Track 05
    Filename : /Users/diridonstation/Rips/Ella Fitzgerald - Hallelujah_ (1994) [FLAC]/05 Rock It for Me.flac
    Pre-gap length : 00:02:03
    Track gain               : -5.78 dB
    Peak                     : 0.951660
    CRC32 hash (test run)    : 4C62F35E
    CRC32 hash               : 4C62F35E
    CRC32 hash (skip zero)   : 3D9F0304
    AccurateRip v1 signature : 2686BA94
    AccurateRip v2 signature : 71724C6B
        ->Accurately ripped (v1+v2, confidence 1+1/2)
    Statistics
        Read error                           : 0
        Jitter error (maybe fixed)           : 0
        Retry sector count                   : 0
        Damaged sector count                 : 0
Track 06
    Filename : /Users/diridonstation/Rips/Ella Fitzgerald - Hallelujah_ (1994) [FLAC]/06 Hallelujah.flac
    Pre-gap length : 00:02:03
    Track gain               : -6.73 dB
    Peak                     : 0.893982
    CRC32 hash (test run)    : EA2E6E05
    CRC32 hash               : EA2E6E05
    CRC32 hash (skip zero)   : 70CAD842
    AccurateRip v1 signature : 907E00C2
    AccurateRip v2 signature : B87FA3E3
        ->Accurately ripped (v2, confidence 1/1)
    Statistics
        Read error                           : 0
        Jitter error (maybe fixed)           : 0
        Retry sector count                   : 0
        Damaged sector count                 : 0
Track 07
    Filename : /Users/diridonstation/Rips/Ella Fitzgerald - Hallelujah_ (1994) [FLAC]/07 I Want to Be Happy.flac
    Pre-gap length : 00:02:03
    Track gain               : -6.74 dB
    Peak                     : 0.951660
    CRC32 hash (test run)    : A4252BE5
    CRC32 hash               : A4252BE5
    CRC32 hash (skip zero)   : C0ED06AC
    AccurateRip v1 signature : 4C2A06C3
    AccurateRip v2 signature : D4D0956C
        ->Accurately ripped (v2, confidence 1/1)
    Statistics
        Read error                           : 0
        Jitter error (maybe fixed)           : 0
        Retry sector count                   : 0
        Damaged sector count                 : 0
Track 08
    Filename : /Users/diridonstation/Rips/Ella Fitzgerald - Hallelujah_ (1994) [FLAC]/08 Bei Mir Bist Du Schon.flac
    Pre-gap length : 00:01:63
    Track gain               : -5.78 dB
    Peak                     : 0.951660
    CRC32 hash (test run)    : 0A16DAC8
    CRC32 hash               : 0A16DAC8
    CRC32 hash (skip zero)   : 3B83008A
    AccurateRip v1 signature : B8A38611
    AccurateRip v2 signature : 0C1FF3D6
        ->Accurately ripped (v2, confidence 1/1)
    Statistics
        Read error                           : 0
        Jitter error (maybe fixed)           : 0
        Retry sector count                   : 0
        Damaged sector count                 : 0
Track 09
    Filename : /Users/diridonstation/Rips/Ella Fitzgerald - Hallelujah_ (1994) [FLAC]/09 Mac Pherson Is Rehearsing.flac
    Pre-gap length : 00:01:60
    Track gain               : -5.26 dB
    Peak                     : 0.951660
    CRC32 hash (test run)    : 853130C8
    CRC32 hash               : 853130C8
    CRC32 hash (skip zero)   : 7EC75C5F
    AccurateRip v1 signature : B090FADE
    AccurateRip v2 signature : B1200741
        ->Accurately ripped (v2, confidence 1/1)
    Statistics
        Read error                           : 0
        Jitter error (maybe fixed)           : 0
        Retry sector count                   : 0
        Damaged sector count                 : 0
Track 10
    Filename : /Users/diridonstation/Rips/Ella Fitzgerald - Hallelujah_ (1994) [FLAC]/10 Ella.flac
    Pre-gap length : 00:01:55
    Track gain               : -4.59 dB
    Peak                     : 0.951538
    CRC32 hash (test run)    : 1F4AFCA5
    CRC32 hash               : 1F4AFCA5
    CRC32 hash (skip zero)   : 7401CFC3
    AccurateRip v1 signature : A9166C47
    AccurateRip v2 signature : 8A29EE50
        ->Accurately ripped (v2, confidence 1/1)
    Statistics
        Read error                           : 0
        Jitter error (maybe fixed)           : 0
        Retry sector count                   : 0
        Damaged sector count                 : 0
Track 11
    Filename : /Users/diridonstation/Rips/Ella Fitzgerald - Hallelujah_ (1994) [FLAC]/11 Gotta Pebble in My Shoe.flac
    Pre-gap length : 00:02:13
    Track gain               : -6.84 dB
    Peak                     : 0.909210
    CRC32 hash (test run)    : 471B216B
    CRC32 hash               : 471B216B
    CRC32 hash (skip zero)   : E279493C
    AccurateRip v1 signature : A62054E9
    AccurateRip v2 signature : 473B10BC
        ->Accurately ripped (v2, confidence 1/1)
    Statistics
        Read error                           : 0
        Jitter error (maybe fixed)           : 1
        Retry sector count                   : 18
        Damaged sector count                 : 0
Track 12
    Filename : /Users/diridonstation/Rips/Ella Fitzgerald - Hallelujah_ (1994) [FLAC]/12 Strictly from Dixie.flac
    Pre-gap length : 00:01:65
    Track gain               : -4.84 dB
    Peak                     : 0.798431
    CRC32 hash (test run)    : 74D4F43F
    CRC32 hash               : 74D4F43F
    CRC32 hash (skip zero)   : 25B0CD61
    AccurateRip v1 signature : 5307FA53
    AccurateRip v2 signature : 3C9B7519
        ->Accurately ripped (v2, confidence 1/1)
    Statistics
        Read error                           : 0
        Jitter error (maybe fixed)           : 0
        Retry sector count                   : 0
        Damaged sector count                 : 0
Track 13
    Filename : /Users/diridonstation/Rips/Ella Fitzgerald - Hallelujah_ (1994) [FLAC]/13 Undecided.flac
    Pre-gap length : 00:01:45
    Track gain               : -6.12 dB
    Peak                     : 0.929382
    CRC32 hash (test run)    : D4AF573A
    CRC32 hash               : D4AF573A
    CRC32 hash (skip zero)   : AAF39301
    AccurateRip v1 signature : 8CD51538
    AccurateRip v2 signature : BACC207D
        ->Accurately ripped (v2, confidence 1/1)
    Statistics
        Read error                           : 0
        Jitter error (maybe fixed)           : 0
        Retry sector count                   : 0
        Damaged sector count                 : 0
Track 14
    Filename : /Users/diridonstation/Rips/Ella Fitzgerald - Hallelujah_ (1994) [FLAC]/14 Billy.flac
    Pre-gap length : 00:01:62
    Track gain               : -5.76 dB
    Peak                     : 0.993805
    CRC32 hash (test run)    : 21778C88
    CRC32 hash               : 21778C88
    CRC32 hash (skip zero)   : 477C0A02
    AccurateRip v1 signature : F98979DB
    AccurateRip v2 signature : 5E9554DC
        ->Accurately ripped (v2, confidence 1/1)
    Statistics
        Read error                           : 0
        Jitter error (maybe fixed)           : 0
        Retry sector count                   : 0
        Damaged sector count                 : 0
Track 15
    Filename : /Users/diridonstation/Rips/Ella Fitzgerald - Hallelujah_ (1994) [FLAC]/15 Gulf Coast Blues.flac
    Pre-gap length : 00:01:55
    Track gain               : -7.03 dB
    Peak                     : 0.842529
    CRC32 hash (test run)    : D1B9AB95
    CRC32 hash               : D1B9AB95
    CRC32 hash (skip zero)   : 399DF8D9
    AccurateRip v1 signature : 030C3618
    AccurateRip v2 signature : E2FA15E9
        ->Accurately ripped (v2, confidence 1/1)
    Statistics
        Read error                           : 0
        Jitter error (maybe fixed)           : 0
        Retry sector count                   : 0
        Damaged sector count                 : 0
Track 16
    Filename : /Users/diridonstation/Rips/Ella Fitzgerald - Hallelujah_ (1994) [FLAC]/16 I Got It Bad.flac
    Pre-gap length : 00:01:28
    Track gain               : -5.70 dB
    Peak                     : 0.951538
    CRC32 hash (test run)    : B3F57643
    CRC32 hash               : B3F57643
    CRC32 hash (skip zero)   : 4CBD0110
    AccurateRip v1 signature : 3BF3189A
    AccurateRip v2 signature : 76EC17F1
        ->Accurately ripped (v2, confidence 1/1)
    Statistics
        Read error                           : 0
        Jitter error (maybe fixed)           : 0
        Retry sector count                   : 0
        Damaged sector count                 : 0
No errors occurred
End of status report
-----BEGIN XLD SIGNATURE-----
41tOMmfjXBKaYypNcFc85naWkNmCGNuqa0pEeka2t8fEmxc7.ovMizxYR3cpUHUerdlg2wqYE3riZgoRRru5jBjXeQq188pmyyJydGm
-----END XLD SIGNATURE-----
Код:
TITLE "Hallelujah!"
PERFORMER "Ella Fitzgerald"
REM GENRE "Jazz"
REM DATE "1994"
REM DISCID E60BB910
REM REPLAYGAIN_ALBUM_GAIN -6.02 dB
REM REPLAYGAIN_ALBUM_PEAK 0.993805
FILE "01 - A Tisket a Tasket.flac" WAVE
  TRACK 01 AUDIO
    TITLE "A Tisket a Tasket"
    REM REPLAYGAIN_TRACK_GAIN -5.30 dB
    REM REPLAYGAIN_TRACK_PEAK 0.802307
    PREGAP 00:00:40
    INDEX 01 00:00:00
  TRACK 02 AUDIO
    TITLE "My Man (Mon Homme)"
    REM REPLAYGAIN_TRACK_GAIN -5.71 dB
    REM REPLAYGAIN_TRACK_PEAK 0.869324
    INDEX 00 02:36:30
FILE "02 - My Man (Mon Homme).flac" WAVE
    INDEX 01 00:00:00
  TRACK 03 AUDIO
    TITLE "Darktown Strutters Ball"
    REM REPLAYGAIN_TRACK_GAIN -5.16 dB
    REM REPLAYGAIN_TRACK_PEAK 0.833618
    INDEX 00 03:02:47
FILE "03 - Darktown Strutters Ball.flac" WAVE
    INDEX 01 00:00:00
  TRACK 04 AUDIO
    TITLE "Wake Up and Live"
    REM REPLAYGAIN_TRACK_GAIN -6.03 dB
    REM REPLAYGAIN_TRACK_PEAK 0.937927
    INDEX 00 03:05:27
FILE "04 - Wake Up and Live.flac" WAVE
    INDEX 01 00:00:00
  TRACK 05 AUDIO
    TITLE "Rock It for Me"
    REM REPLAYGAIN_TRACK_GAIN -5.78 dB
    REM REPLAYGAIN_TRACK_PEAK 0.951660
    INDEX 00 02:38:17
FILE "05 - Rock It for Me.flac" WAVE
    INDEX 01 00:00:00
  TRACK 06 AUDIO
    TITLE "Hallelujah"
    REM REPLAYGAIN_TRACK_GAIN -6.73 dB
    REM REPLAYGAIN_TRACK_PEAK 0.893982
    INDEX 00 03:07:52
FILE "06 - Hallelujah.flac" WAVE
    INDEX 01 00:00:00
  TRACK 07 AUDIO
    TITLE "I Want to Be Happy"
    REM REPLAYGAIN_TRACK_GAIN -6.74 dB
    REM REPLAYGAIN_TRACK_PEAK 0.951660
    INDEX 00 04:02:72
FILE "07 - I Want to Be Happy.flac" WAVE
    INDEX 01 00:00:00
  TRACK 08 AUDIO
    TITLE "Bei Mir Bist du Schon"
    REM REPLAYGAIN_TRACK_GAIN -5.78 dB
    REM REPLAYGAIN_TRACK_PEAK 0.951660
    INDEX 00 04:25:62
FILE "08 - Bei Mir Bist du Schon.flac" WAVE
    INDEX 01 00:00:00
  TRACK 09 AUDIO
    TITLE "MacPherson Is Rehearsing"
    REM REPLAYGAIN_TRACK_GAIN -5.26 dB
    REM REPLAYGAIN_TRACK_PEAK 0.951660
    INDEX 00 03:06:22
FILE "09 - MacPherson Is Rehearsing.flac" WAVE
    INDEX 01 00:00:00
  TRACK 10 AUDIO
    TITLE "Ella"
    REM REPLAYGAIN_TRACK_GAIN -4.59 dB
    REM REPLAYGAIN_TRACK_PEAK 0.951538
    INDEX 00 03:07:03
FILE "10 - Ella.flac" WAVE
    INDEX 01 00:00:00
  TRACK 11 AUDIO
    TITLE "Gotta Pebble in My Shoe"
    REM REPLAYGAIN_TRACK_GAIN -6.84 dB
    REM REPLAYGAIN_TRACK_PEAK 0.909210
    INDEX 00 02:46:32
FILE "11 - Gotta Pebble in My Shoe.flac" WAVE
    INDEX 01 00:00:00
  TRACK 12 AUDIO
    TITLE "Strictly from Dixie"
    REM REPLAYGAIN_TRACK_GAIN -4.84 dB
    REM REPLAYGAIN_TRACK_PEAK 0.798431
    INDEX 00 02:53:27
FILE "12 - Strictly from Dixie.flac" WAVE
    INDEX 01 00:00:00
  TRACK 13 AUDIO
    TITLE "Undecided"
    REM REPLAYGAIN_TRACK_GAIN -6.12 dB
    REM REPLAYGAIN_TRACK_PEAK 0.929382
    INDEX 00 02:49:45
FILE "13 - Undecided.flac" WAVE
    INDEX 01 00:00:00
  TRACK 14 AUDIO
    TITLE "Billy"
    REM REPLAYGAIN_TRACK_GAIN -5.76 dB
    REM REPLAYGAIN_TRACK_PEAK 0.993805
    INDEX 00 03:15:73
FILE "14 - Billy.flac" WAVE
    INDEX 01 00:00:00
  TRACK 15 AUDIO
    TITLE "Gulf Coast Blues"
    REM REPLAYGAIN_TRACK_GAIN -7.03 dB
    REM REPLAYGAIN_TRACK_PEAK 0.842529
    INDEX 00 02:41:13
FILE "15 - Gulf Coast Blues.flac" WAVE
    INDEX 01 00:00:00
  TRACK 16 AUDIO
    TITLE "I Got It Bad"
    REM REPLAYGAIN_TRACK_GAIN -5.70 dB
    REM REPLAYGAIN_TRACK_PEAK 0.951538
    INDEX 00 03:00:42
FILE "16 - I Got It Bad.flac" WAVE
    INDEX 01 00:00:00
Код:
[CUETools log; Date: 02.03.2020 0:50:15; Version: 2.1.6]
Pregap length 00:00:40.
[CTDB TOCID: PAp6F5zqbZRo3w7fzeeNyjx0.Vk-] found.
Track | CTDB Status
  1   | (3/3) Accurately ripped
  2   | (3/3) Accurately ripped
  3   | (3/3) Accurately ripped
  4   | (3/3) Accurately ripped
  5   | (3/3) Accurately ripped
  6   | (3/3) Accurately ripped
  7   | (3/3) Accurately ripped
  8   | (3/3) Accurately ripped
  9   | (3/3) Accurately ripped
 10   | (3/3) Accurately ripped
 11   | (3/3) Accurately ripped
 12   | (3/3) Accurately ripped
 13   | (3/3) Accurately ripped
 14   | (3/3) Accurately ripped
 15   | (3/3) Accurately ripped
 16   | (3/3) Accurately ripped
[AccurateRip ID: 001d7ff2-01632a72-e60bb910] found.
Track   [  CRC   |   V2   ] Status
 01     [64267fcb|5e22e44d] (1+1/2) Accurately ripped
 02     [2bb45a80|04bff3c0] (1+1/2) Accurately ripped
 03     [3eaa51de|a69a1955] (1+1/2) Accurately ripped
 04     [c13091e3|6d06ed85] (1+1/2) Accurately ripped
 05     [2686ba94|71724c6b] (1+1/2) Accurately ripped
 06     [907e00c2|b87fa3e3] (0+1/1) Accurately ripped
 07     [4c2a06c3|d4d0956c] (0+1/1) Accurately ripped
 08     [b8a38611|0c1ff3d6] (0+1/1) Accurately ripped
 09     [b090fade|b1200741] (0+1/1) Accurately ripped
 10     [a9166c47|8a29ee50] (0+1/1) Accurately ripped
 11     [a62054e9|473b10bc] (0+1/1) Accurately ripped
 12     [5307fa53|3c9b7519] (0+1/1) Accurately ripped
 13     [8cd51538|bacc207d] (0+1/1) Accurately ripped
 14     [f98979db|5e9554dc] (0+1/1) Accurately ripped
 15     [030c3618|e2fa15e9] (0+1/1) Accurately ripped
 16     [3bf3189a|76ec17f1] (0+1/1) Accurately ripped
Track Peak [ CRC32  ] [W/O NULL]
 --   99,3 [0825AB7F] [5AF891E0]
 01   80,2 [45755B21] [7026B6FA]
 02   86,9 [B2B1CB64] [4FA96D9E]
 03   83,3 [320E8559] [3A0F23F5]
 04   93,7 [58E966F8] [CE552F1C]
 05   95,1 [4C62F35E] [3D9F0304]
 06   89,3 [EA2E6E05] [70CAD842]
 07   95,1 [A4252BE5] [C0ED06AC]
 08   95,1 [0A16DAC8] [3B83008A]
 09   95,1 [853130C8] [7EC75C5F]
 10   95,1 [1F4AFCA5] [7401CFC3]
 11   90,9 [471B216B] [E279493C]
 12   79,8 [74D4F43F] [25B0CD61]
 13   92,9 [D4AF573A] [AAF39301]
 14   99,3 [21778C88] [477C0A02]
 15   84,2 [D1B9AB95] [399DF8D9]
 16   95,1 [B3F57643] [4CBD0110]
Правила, инструкции, FAQ!!!
Торрент  Добавлен [02 мар 2020, 16:53] Скачать торрент Магнет ссылка
Скачать торрент
[ Размер 19.26 КБ / Просмотров 5 ]

Статус
Проверен 
 
Размер  225.12 МБ
Приватный: Нет (DHT включён)
.torrent скачан  0
 


     Отправить личное сообщение
   
Страница 1 из 1
Показать сообщения за:  Поле сортировки  
Начать новую тему Ответить на тему


Сейчас этот форум просматривают: нет зарегистрированных пользователей и гости: 0


Вы не можете начинать темы
Вы не можете отвечать на сообщения
Вы не можете редактировать свои сообщения
Вы не можете удалять свои сообщения
Вы не можете добавлять вложения

Перейти:  
cron