Начать новую тему Ответить на тему
Статистика раздачи
Размер: 442.4 МБ | Добавлен: 02 мар 2020, 16:53 | Скачали: 0
Сидеров: 12  [0 байт/сек]    Личеров: 4  [0 байт/сек]
Пред. тема | След. тема 

Автор
Сообщение

СообщениеДобавлено: 02 мар 2020, 16:53 

Ответить с цитатой 

Ella Fitzgerald - Ella Abraca Jobim: Ella Fitzgerald Sings the Antonio Carlos Jobim Song Book
Жанр: Vocal Jazz
Носитель: CD
Страна-производитель диска (релиза): США
Год издания: 1991
Издатель (лейбл): Pablo Records
Номер по каталогу: PACD-2630-201-2
Аудиокодек: FLAC (*.flac)
Тип рипа: tracks+.cue
Продолжительность: 01:15:10
Источник: catfish27
Наличие сканов в содержимом раздачи: нет
Треклист:
01. Dreamer (Vivo Sonhando) (Jobim-Lees) - 4:54
02. This Love That I've Found (So Tinha de Ser com Voce) (Jobim-Oliveira) - 5:17
03. The Girl from Ipanema (Garota de Ipanema) (Jobim-De Moraes-Gimbel) - 3:51
04. Somewhere in the Hills (Favela) (Jobim-De Moraes-Gilbert) - 3:56
05. Photograph (Fotografia) (Jobim-Gilbert) - 3:49
06. Wave (Jobim) - 5:21
07. Triste (Jobim) - 4:06
08. Quiet Nights of Quiet Stars (Corcovado) (Jobim-Lees) - 5:39
09. Water to Drink (Agua de Beber) (Jobim-De Moraes-Gimbel) - 2:45
10. Bonita (Jobim-Lees-Gilbert) - 2:51
11. Off Key (Desafinado) (Jobim-Mendonca-Lees) - 3:42
12. He's a Carioca (Ele e Carioca) (Jobim-Gilbert-De Moraes) - 5:13
13. Dindi (Jobim-Oliveira-Gilbert) - 6:37
14. How Insensitive (Insensatez) (Jobim-De Moraes-Gimbel) - 3:00
15. One Note Samba (Samba de Uma Nota So) (Jobim-Mendonca) - 3:53
16. A Felicidade (Jobim-De Moraes) - 2:17
17. Useless Landscape (Inutil Paisagem) (Jobim-Oliveira-Gilbert) - 7:59
Код:
X Lossless Decoder version 20191004 (152.0)
XLD extraction logfile from 2020-02-27 15:57:24 -0800
Ella Fitzgerald / Ella Abraça Jobim
Used drive : HL-DT-ST DVDRAM GP65NB60 (revision PF00)
Media type : Pressed CD
Ripper mode             : XLD Secure Ripper
Disable audio cache     : OK for the drive with a cache less than 1375KiB
Make use of C2 pointers : NO
Read offset correction  : 6
Max retry count         : 100
Gap status              : Analyzed, Appended (except HTOA)
TOC of the extracted CD
     Track |   Start  |  Length  | Start sector | End sector
    ---------------------------------------------------------
        1  | 00:00:00 | 04:54:30 |         0    |    22079
        2  | 04:54:30 | 05:16:55 |     22080    |    45834
        3  | 10:11:10 | 03:50:45 |     45835    |    63129
        4  | 14:01:55 | 03:56:17 |     63130    |    80846
        5  | 17:57:72 | 03:48:55 |     80847    |    98001
        6  | 21:46:52 | 05:21:23 |     98002    |   122099
        7  | 27:08:00 | 04:06:35 |    122100    |   140584
        8  | 31:14:35 | 05:39:27 |    140585    |   166036
        9  | 36:53:62 | 02:44:60 |    166037    |   178396
       10  | 39:38:47 | 02:50:60 |    178397    |   191206
       11  | 42:29:32 | 03:41:70 |    191207    |   207851
       12  | 46:11:27 | 05:12:50 |    207852    |   231301
       13  | 51:24:02 | 06:36:45 |    231302    |   261046
       14  | 58:00:47 | 02:59:40 |    261047    |   274511
       15  | 61:00:12 | 03:52:58 |    274512    |   291969
       16  | 64:52:70 | 02:17:20 |    291970    |   302264
       17  | 67:10:15 | 07:59:27 |    302265    |   338216
List of alternate offset correction values
        #  | Absolute | Relative | Confidence
    ------------------------------------------
        1  |   -496   |   -502   |      3
        2  |    -23   |    -29   |      2
AccurateRip Summary (DiscID: 002e02d9-0243349c-f4119d11)
    Track 01 : OK (v1+v2, confidence 17/22)
    Track 02 : OK (v1+v2, confidence 16/21)
    Track 03 : OK (v1+v2, confidence 15/20)
    Track 04 : OK (v1+v2, confidence 16/21)
    Track 05 : OK (v1+v2, confidence 17/22)
    Track 06 : OK (v1+v2, confidence 16/21)
    Track 07 : OK (v1+v2, confidence 16/21)
    Track 08 : OK (v1+v2, confidence 16/21)
    Track 09 : OK (v1+v2, confidence 16/21)
    Track 10 : OK (v1+v2, confidence 16/21)
    Track 11 : OK (v1+v2, confidence 16/21)
    Track 12 : OK (v1+v2, confidence 15/20)
    Track 13 : OK (v1+v2, confidence 16/21)
    Track 14 : OK (v1+v2, confidence 16/21)
    Track 15 : OK (v1+v2, confidence 16/21)
    Track 16 : OK (v1+v2, confidence 16/21)
    Track 17 : OK (v1+v2, confidence 16/21)
        ->All tracks accurately ripped.
All Tracks
    Album gain               : -1.15 dB
    Peak                     : 0.998352
    Statistics
        Read error                           : 0
        Jitter error (maybe fixed)           : 0
        Retry sector count                   : 0
        Damaged sector count                 : 0
Track 01
    Filename : /Volumes/Hollywood and Vine/Rips/Ella Fitzgerald - Ella Abraça Jobim (1981) [FLAC]/01 Dreamer (Vivo Sonhando).flac
    Pre-gap length : 00:02:00
    Track gain               : -1.75 dB
    Peak                     : 0.934998
    CRC32 hash (test run)    : 61313969
    CRC32 hash               : 61313969
    CRC32 hash (skip zero)   : E3658FFC
    AccurateRip v1 signature : A10A3331
    AccurateRip v2 signature : A27B2BED
        ->Accurately ripped (v1+v2, confidence 5+12/22)
    Statistics
        Read error                           : 0
        Jitter error (maybe fixed)           : 0
        Retry sector count                   : 0
        Damaged sector count                 : 0
Track 02
    Filename : /Volumes/Hollywood and Vine/Rips/Ella Fitzgerald - Ella Abraça Jobim (1981) [FLAC]/02 This Love That I've Found (So Tinha De Ser Com Voce).flac
    Pre-gap length : 00:02:28
    Track gain               : -1.63 dB
    Peak                     : 0.865509
    CRC32 hash (test run)    : 894F6D1F
    CRC32 hash               : 894F6D1F
    CRC32 hash (skip zero)   : 0E240472
    AccurateRip v1 signature : 9C182501
    AccurateRip v2 signature : 741D75BF
        ->Accurately ripped (v1+v2, confidence 5+11/21)
    Statistics
        Read error                           : 0
        Jitter error (maybe fixed)           : 0
        Retry sector count                   : 0
        Damaged sector count                 : 0
Track 03
    Filename : /Volumes/Hollywood and Vine/Rips/Ella Fitzgerald - Ella Abraça Jobim (1981) [FLAC]/03 The Girl from Ipanema (Garota De Ipanema).flac
    Pre-gap length : 00:02:18
    Track gain               : -2.35 dB
    Peak                     : 0.868439
    CRC32 hash (test run)    : 442573D8
    CRC32 hash               : 442573D8
    CRC32 hash (skip zero)   : E8BBC57C
    AccurateRip v1 signature : 4E713D41
    AccurateRip v2 signature : 554E61FA
        ->Accurately ripped (v1+v2, confidence 4+11/20)
    Statistics
        Read error                           : 0
        Jitter error (maybe fixed)           : 0
        Retry sector count                   : 0
        Damaged sector count                 : 0
Track 04
    Filename : /Volumes/Hollywood and Vine/Rips/Ella Fitzgerald - Ella Abraça Jobim (1981) [FLAC]/04 Somewhere in the Hills (Favela).flac
    Pre-gap length : 00:02:30
    Track gain               : -1.22 dB
    Peak                     : 0.998352
    CRC32 hash (test run)    : DD197509
    CRC32 hash               : DD197509
    CRC32 hash (skip zero)   : EE8CA8C8
    AccurateRip v1 signature : BAB53445
    AccurateRip v2 signature : D1B1B2D9
        ->Accurately ripped (v1+v2, confidence 4+12/21)
    Statistics
        Read error                           : 0
        Jitter error (maybe fixed)           : 0
        Retry sector count                   : 0
        Damaged sector count                 : 0
Track 05
    Filename : /Volumes/Hollywood and Vine/Rips/Ella Fitzgerald - Ella Abraça Jobim (1981) [FLAC]/05 Photograph (Fotografia).flac
    Pre-gap length : 00:02:00
    Track gain               : -0.83 dB
    Peak                     : 0.710266
    CRC32 hash (test run)    : 010EFE4B
    CRC32 hash               : 010EFE4B
    CRC32 hash (skip zero)   : A3D3EF0B
    AccurateRip v1 signature : 3CCDB0A1
    AccurateRip v2 signature : E9DA18F6
        ->Accurately ripped (v1+v2, confidence 5+12/22)
    Statistics
        Read error                           : 0
        Jitter error (maybe fixed)           : 0
        Retry sector count                   : 0
        Damaged sector count                 : 0
Track 06
    Filename : /Volumes/Hollywood and Vine/Rips/Ella Fitzgerald - Ella Abraça Jobim (1981) [FLAC]/06 Wave.flac
    Pre-gap length : 00:01:60
    Track gain               : -0.23 dB
    Peak                     : 0.810242
    CRC32 hash (test run)    : ED09DBC4
    CRC32 hash               : ED09DBC4
    CRC32 hash (skip zero)   : 743F2655
    AccurateRip v1 signature : 7B8C6ABD
    AccurateRip v2 signature : 21AC667C
        ->Accurately ripped (v1+v2, confidence 4+12/21)
    Statistics
        Read error                           : 0
        Jitter error (maybe fixed)           : 0
        Retry sector count                   : 0
        Damaged sector count                 : 0
Track 07
    Filename : /Volumes/Hollywood and Vine/Rips/Ella Fitzgerald - Ella Abraça Jobim (1981) [FLAC]/07 Triste.flac
    Pre-gap length : 00:01:58
    Track gain               : -1.45 dB
    Peak                     : 0.901794
    CRC32 hash (test run)    : BD0FF8BA
    CRC32 hash               : BD0FF8BA
    CRC32 hash (skip zero)   : B8B1BCE2
    AccurateRip v1 signature : DA7F0018
    AccurateRip v2 signature : E9A1F0C1
        ->Accurately ripped (v1+v2, confidence 4+12/21)
    Statistics
        Read error                           : 0
        Jitter error (maybe fixed)           : 0
        Retry sector count                   : 0
        Damaged sector count                 : 0
Track 08
    Filename : /Volumes/Hollywood and Vine/Rips/Ella Fitzgerald - Ella Abraça Jobim (1981) [FLAC]/08 Quiet Nights of Quiet Stars (Corcovado).flac
    Pre-gap length : 00:02:00
    Track gain               : -0.00 dB
    Peak                     : 0.689545
    CRC32 hash (test run)    : 2522ECAA
    CRC32 hash               : 2522ECAA
    CRC32 hash (skip zero)   : 9421FCBB
    AccurateRip v1 signature : F5835ED8
    AccurateRip v2 signature : 1A0F3D8F
        ->Accurately ripped (v1+v2, confidence 4+12/21)
    Statistics
        Read error                           : 0
        Jitter error (maybe fixed)           : 0
        Retry sector count                   : 0
        Damaged sector count                 : 0
Track 09
    Filename : /Volumes/Hollywood and Vine/Rips/Ella Fitzgerald - Ella Abraça Jobim (1981) [FLAC]/09 Water to Drink (Agua De Beber).flac
    Pre-gap length : 00:01:60
    Track gain               : -2.27 dB
    Peak                     : 0.894592
    CRC32 hash (test run)    : 41B03793
    CRC32 hash               : 41B03793
    CRC32 hash (skip zero)   : 2008740A
    AccurateRip v1 signature : B1C5F52A
    AccurateRip v2 signature : 397A842C
        ->Accurately ripped (v1+v2, confidence 4+12/21)
    Statistics
        Read error                           : 0
        Jitter error (maybe fixed)           : 0
        Retry sector count                   : 0
        Damaged sector count                 : 0
Track 10
    Filename : /Volumes/Hollywood and Vine/Rips/Ella Fitzgerald - Ella Abraça Jobim (1981) [FLAC]/10 Bonita.flac
    Pre-gap length : 00:02:25
    Track gain               : -0.65 dB
    Peak                     : 0.765839
    CRC32 hash (test run)    : 52682EB0
    CRC32 hash               : 52682EB0
    CRC32 hash (skip zero)   : 50B2E946
    AccurateRip v1 signature : 32BC0B2B
    AccurateRip v2 signature : C7CCA686
        ->Accurately ripped (v1+v2, confidence 4+12/21)
    Statistics
        Read error                           : 0
        Jitter error (maybe fixed)           : 0
        Retry sector count                   : 0
        Damaged sector count                 : 0
Track 11
    Filename : /Volumes/Hollywood and Vine/Rips/Ella Fitzgerald - Ella Abraça Jobim (1981) [FLAC]/11 Off Key (Desafinado).flac
    Pre-gap length : 00:01:70
    Track gain               : -0.69 dB
    Peak                     : 0.759644
    CRC32 hash (test run)    : DA1F29A1
    CRC32 hash               : DA1F29A1
    CRC32 hash (skip zero)   : 9D7E1CAE
    AccurateRip v1 signature : CBD114E0
    AccurateRip v2 signature : C3354F05
        ->Accurately ripped (v1+v2, confidence 4+12/21)
    Statistics
        Read error                           : 0
        Jitter error (maybe fixed)           : 0
        Retry sector count                   : 0
        Damaged sector count                 : 0
Track 12
    Filename : /Volumes/Hollywood and Vine/Rips/Ella Fitzgerald - Ella Abraça Jobim (1981) [FLAC]/12 He's a Carioca (Ele E Carioca).flac
    Pre-gap length : 00:02:27
    Track gain               : -1.85 dB
    Peak                     : 0.997803
    CRC32 hash (test run)    : 4F6F9445
    CRC32 hash               : 4F6F9445
    CRC32 hash (skip zero)   : 885A995A
    AccurateRip v1 signature : 45B2A1EF
    AccurateRip v2 signature : 320866C0
        ->Accurately ripped (v1+v2, confidence 4+11/20)
    Statistics
        Read error                           : 0
        Jitter error (maybe fixed)           : 0
        Retry sector count                   : 0
        Damaged sector count                 : 0
Track 13
    Filename : /Volumes/Hollywood and Vine/Rips/Ella Fitzgerald - Ella Abraça Jobim (1981) [FLAC]/13 Dindi.flac
    Pre-gap length : 00:01:62
    Track gain               : -1.53 dB
    Peak                     : 0.996796
    CRC32 hash (test run)    : DEB312D2
    CRC32 hash               : DEB312D2
    CRC32 hash (skip zero)   : 9D54B61E
    AccurateRip v1 signature : B0D27E30
    AccurateRip v2 signature : 3AAE1253
        ->Accurately ripped (v1+v2, confidence 4+12/21)
    Statistics
        Read error                           : 0
        Jitter error (maybe fixed)           : 0
        Retry sector count                   : 0
        Damaged sector count                 : 0
Track 14
    Filename : /Volumes/Hollywood and Vine/Rips/Ella Fitzgerald - Ella Abraça Jobim (1981) [FLAC]/14 How Insensitive (Insensatez).flac
    Pre-gap length : 00:01:35
    Track gain               : -1.68 dB
    Peak                     : 0.847443
    CRC32 hash (test run)    : 903EFA0F
    CRC32 hash               : 903EFA0F
    CRC32 hash (skip zero)   : E05B99A7
    AccurateRip v1 signature : 954FD947
    AccurateRip v2 signature : 15D02A74
        ->Accurately ripped (v1+v2, confidence 4+12/21)
    Statistics
        Read error                           : 0
        Jitter error (maybe fixed)           : 0
        Retry sector count                   : 0
        Damaged sector count                 : 0
Track 15
    Filename : /Volumes/Hollywood and Vine/Rips/Ella Fitzgerald - Ella Abraça Jobim (1981) [FLAC]/15 One Note Samba (Samba De Uma Nota).flac
    Pre-gap length : 00:01:57
    Track gain               : -1.10 dB
    Peak                     : 0.779602
    CRC32 hash (test run)    : F02D0803
    CRC32 hash               : F02D0803
    CRC32 hash (skip zero)   : 3F8B7BB4
    AccurateRip v1 signature : 0AF6C040
    AccurateRip v2 signature : 42428EF9
        ->Accurately ripped (v1+v2, confidence 4+12/21)
    Statistics
        Read error                           : 0
        Jitter error (maybe fixed)           : 0
        Retry sector count                   : 0
        Damaged sector count                 : 0
Track 16
    Filename : /Volumes/Hollywood and Vine/Rips/Ella Fitzgerald - Ella Abraça Jobim (1981) [FLAC]/16 Felicidade.flac
    Pre-gap length : 00:02:43
    Track gain               : -2.20 dB
    Peak                     : 0.867096
    CRC32 hash (test run)    : E02F9CEE
    CRC32 hash               : E02F9CEE
    CRC32 hash (skip zero)   : FECDE732
    AccurateRip v1 signature : 92EC70FB
    AccurateRip v2 signature : C829CCCF
        ->Accurately ripped (v1+v2, confidence 4+12/21)
    Statistics
        Read error                           : 0
        Jitter error (maybe fixed)           : 0
        Retry sector count                   : 0
        Damaged sector count                 : 0
Track 17
    Filename : /Volumes/Hollywood and Vine/Rips/Ella Fitzgerald - Ella Abraça Jobim (1981) [FLAC]/17 Useless Landscape (Inutil Paisagem).flac
    Pre-gap length : 00:01:73
    Track gain               : 0.97 dB
    Peak                     : 0.887177
    CRC32 hash (test run)    : 98A904F4
    CRC32 hash               : 98A904F4
    CRC32 hash (skip zero)   : D7EBBCA9
    AccurateRip v1 signature : 56D2B066
    AccurateRip v2 signature : EBB02474
        ->Accurately ripped (v1+v2, confidence 4+12/21)
    Statistics
        Read error                           : 0
        Jitter error (maybe fixed)           : 0
        Retry sector count                   : 0
        Damaged sector count                 : 0
No errors occurred
End of status report
-----BEGIN XLD SIGNATURE-----
4BUZ.L7h2ZUoqddjaQOV0YGTzLlSheGJw3Oi2z4o8tMm62jkfUQcv6u_t6.21vhQ3gRzZ4ntxbTMQBe5f9wHkkP4kv09Rey_8zCbhv0
-----END XLD SIGNATURE-----
Код:
TITLE "Ella Abraca Jobim"
PERFORMER "Ella Fitzgerald"
REM GENRE "Jazz"
REM DATE "1981"
REM DISCID F4119D11
REM REPLAYGAIN_ALBUM_GAIN -1.15 dB
REM REPLAYGAIN_ALBUM_PEAK 0.998352
FILE "01 - Dreamer (Vivo Sonhando).flac" WAVE
  TRACK 01 AUDIO
    TITLE "Dreamer (Vivo Sonhando)"
    REM REPLAYGAIN_TRACK_GAIN -1.75 dB
    REM REPLAYGAIN_TRACK_PEAK 0.934998
    INDEX 01 00:00:00
  TRACK 02 AUDIO
    TITLE "This Love That I've Found (So Tinha de Ser com Voce)"
    REM REPLAYGAIN_TRACK_GAIN -1.63 dB
    REM REPLAYGAIN_TRACK_PEAK 0.865509
    INDEX 00 04:52:02
FILE "02 - This Love That I've Found (So Tinha de Ser com Voce).flac" WAVE
    INDEX 01 00:00:00
  TRACK 03 AUDIO
    TITLE "The Girl from Ipanema (Garota de Ipanema)"
    REM REPLAYGAIN_TRACK_GAIN -2.35 dB
    REM REPLAYGAIN_TRACK_PEAK 0.868439
    INDEX 00 05:14:37
FILE "03 - The Girl from Ipanema (Garota de Ipanema).flac" WAVE
    INDEX 01 00:00:00
  TRACK 04 AUDIO
    TITLE "Somewhere in the Hills (Favela)"
    REM REPLAYGAIN_TRACK_GAIN -1.22 dB
    REM REPLAYGAIN_TRACK_PEAK 0.998352
    INDEX 00 03:48:15
FILE "04 - Somewhere in the Hills (Favela).flac" WAVE
    INDEX 01 00:00:00
  TRACK 05 AUDIO
    TITLE "Photograph (Fotografia)"
    REM REPLAYGAIN_TRACK_GAIN -0.83 dB
    REM REPLAYGAIN_TRACK_PEAK 0.710266
    INDEX 00 03:54:17
FILE "05 - Photograph (Fotografia).flac" WAVE
    INDEX 01 00:00:00
  TRACK 06 AUDIO
    TITLE "Wave"
    REM REPLAYGAIN_TRACK_GAIN -0.23 dB
    REM REPLAYGAIN_TRACK_PEAK 0.810242
    INDEX 00 03:46:70
FILE "06 - Wave.flac" WAVE
    INDEX 01 00:00:00
  TRACK 07 AUDIO
    TITLE "Triste"
    REM REPLAYGAIN_TRACK_GAIN -1.45 dB
    REM REPLAYGAIN_TRACK_PEAK 0.901794
    INDEX 00 05:19:40
FILE "07 - Triste.flac" WAVE
    INDEX 01 00:00:00
  TRACK 08 AUDIO
    TITLE "Quiet Nights of Quiet Stars (Corcovado)"
    REM REPLAYGAIN_TRACK_GAIN -0.00 dB
    REM REPLAYGAIN_TRACK_PEAK 0.689545
    INDEX 00 04:04:35
FILE "08 - Quiet Nights of Quiet Stars (Corcovado).flac" WAVE
    INDEX 01 00:00:00
  TRACK 09 AUDIO
    TITLE "Water to Drink (Agua de Beber)"
    REM REPLAYGAIN_TRACK_GAIN -2.27 dB
    REM REPLAYGAIN_TRACK_PEAK 0.894592
    INDEX 00 05:37:42
FILE "09 - Water to Drink (Agua de Beber).flac" WAVE
    INDEX 01 00:00:00
  TRACK 10 AUDIO
    TITLE "Bonita"
    REM REPLAYGAIN_TRACK_GAIN -0.65 dB
    REM REPLAYGAIN_TRACK_PEAK 0.765839
    INDEX 00 02:42:35
FILE "10 - Bonita.flac" WAVE
    INDEX 01 00:00:00
  TRACK 11 AUDIO
    TITLE "Off Key (Desafinado)"
    REM REPLAYGAIN_TRACK_GAIN -0.69 dB
    REM REPLAYGAIN_TRACK_PEAK 0.759644
    INDEX 00 02:48:65
FILE "11 - Off Key (Desafinado).flac" WAVE
    INDEX 01 00:00:00
  TRACK 12 AUDIO
    TITLE "He's a Carioca (Ele e Carioca)"
    REM REPLAYGAIN_TRACK_GAIN -1.85 dB
    REM REPLAYGAIN_TRACK_PEAK 0.997803
    INDEX 00 03:39:43
FILE "12 - He's a Carioca (Ele e Carioca).flac" WAVE
    INDEX 01 00:00:00
  TRACK 13 AUDIO
    TITLE "Dindi"
    REM REPLAYGAIN_TRACK_GAIN -1.53 dB
    REM REPLAYGAIN_TRACK_PEAK 0.996796
    INDEX 00 05:10:63
FILE "13 - Dindi.flac" WAVE
    INDEX 01 00:00:00
  TRACK 14 AUDIO
    TITLE "How Insensitive (Insensatez)"
    REM REPLAYGAIN_TRACK_GAIN -1.68 dB
    REM REPLAYGAIN_TRACK_PEAK 0.847443
    INDEX 00 06:35:10
FILE "14 - How Insensitive (Insensatez).flac" WAVE
    INDEX 01 00:00:00
  TRACK 15 AUDIO
    TITLE "One Note Samba (Samba de Uma Nota So)"
    REM REPLAYGAIN_TRACK_GAIN -1.10 dB
    REM REPLAYGAIN_TRACK_PEAK 0.779602
    INDEX 00 02:57:58
FILE "15 - One Note Samba (Samba de Uma Nota So).flac" WAVE
    INDEX 01 00:00:00
  TRACK 16 AUDIO
    TITLE "A Felicidade"
    REM REPLAYGAIN_TRACK_GAIN -2.20 dB
    REM REPLAYGAIN_TRACK_PEAK 0.867096
    INDEX 00 03:50:15
FILE "16 - A Felicidade.flac" WAVE
    INDEX 01 00:00:00
  TRACK 17 AUDIO
    TITLE "Useless Landscape (Inutil Paisagem)"
    REM REPLAYGAIN_TRACK_GAIN 0.97 dB
    REM REPLAYGAIN_TRACK_PEAK 0.887177
    INDEX 00 02:15:22
FILE "17 - Useless Landscape (Inutil Paisagem).flac" WAVE
    INDEX 01 00:00:00
Код:
[CUETools log; Date: 02.03.2020 0:19:06; Version: 2.1.6]
[CTDB TOCID: MnG9D7TcydovxQ4TmbDpeGb_m3k-] found.
Track | CTDB Status
  1   | (20/20) Accurately ripped
  2   | (20/20) Accurately ripped
  3   | (20/20) Accurately ripped
  4   | (20/20) Accurately ripped
  5   | (20/20) Accurately ripped
  6   | (20/20) Accurately ripped
  7   | (20/20) Accurately ripped
  8   | (19/20) Accurately ripped
  9   | (20/20) Accurately ripped
 10   | (19/20) Accurately ripped
 11   | (20/20) Accurately ripped
 12   | (20/20) Accurately ripped
 13   | (19/20) Accurately ripped
 14   | (19/20) Accurately ripped
 15   | (20/20) Accurately ripped
 16   | (20/20) Accurately ripped
 17   | (18/20) Accurately ripped
[AccurateRip ID: 002e02d9-0243349c-f4119d11] found.
Track   [  CRC   |   V2   ] Status
 01     [a10a3331|a27b2bed] (05+12/22) Accurately ripped
 02     [9c182501|741d75bf] (05+11/21) Accurately ripped
 03     [4e713d41|554e61fa] (04+11/20) Accurately ripped
 04     [bab53445|d1b1b2d9] (04+12/21) Accurately ripped
 05     [3ccdb0a1|e9da18f6] (05+12/22) Accurately ripped
 06     [7b8c6abd|21ac667c] (04+12/21) Accurately ripped
 07     [da7f0018|e9a1f0c1] (04+12/21) Accurately ripped
 08     [f5835ed8|1a0f3d8f] (04+12/21) Accurately ripped
 09     [b1c5f52a|397a842c] (04+12/21) Accurately ripped
 10     [32bc0b2b|c7cca686] (04+12/21) Accurately ripped
 11     [cbd114e0|c3354f05] (04+12/21) Accurately ripped
 12     [45b2a1ef|320866c0] (04+11/20) Accurately ripped
 13     [b0d27e30|3aae1253] (04+12/21) Accurately ripped
 14     [954fd947|15d02a74] (04+12/21) Accurately ripped
 15     [0af6c040|42428ef9] (04+12/21) Accurately ripped
 16     [92ec70fb|c829cccf] (04+12/21) Accurately ripped
 17     [56d2b066|ebb02474] (04+12/21) Accurately ripped
Offsetted by -502:
 01     [05999d0b] (00/22) No match (V2 was not tested)
 02     [d68fedd5] (00/21) No match (V2 was not tested)
 03     [48624ad5] (00/20) No match (V2 was not tested)
 04     [2a5dfb7f] (00/21) No match (V2 was not tested)
 05     [0407b8f3] (00/22) No match (V2 was not tested)
 06     [c8465ecb] (00/21) No match (V2 was not tested)
 07     [8494422a] (00/21) No match (V2 was not tested)
 08     [2dc04bea] (00/21) No match (V2 was not tested)
 09     [a1119f4e] (00/21) No match (V2 was not tested)
 10     [ec80bf5f] (00/21) No match (V2 was not tested)
 11     [cf19ac06] (00/21) No match (V2 was not tested)
 12     [2f820543] (00/20) No match (V2 was not tested)
 13     [0c4839aa] (00/21) No match (V2 was not tested)
 14     [02a5c9fd] (00/21) No match (V2 was not tested)
 15     [de68aea4] (00/21) No match (V2 was not tested)
 16     [adcdf38b] (00/21) No match (V2 was not tested)
 17     [a12cdac2] (00/21) No match (V2 was not tested)
Offsetted by -29:
 01     [dff6f26c] (00/22) No match (V2 was not tested)
 02     [cde0d967] (00/21) No match (V2 was not tested)
 03     [d4b8ca47] (00/20) No match (V2 was not tested)
 04     [db2a8e50] (00/21) No match (V2 was not tested)
 05     [cef12b80] (00/22) No match (V2 was not tested)
 06     [3586d72e] (00/21) No match (V2 was not tested)
 07     [b35d8d17] (00/21) No match (V2 was not tested)
 08     [48d36257] (00/21) No match (V2 was not tested)
 09     [964a5428] (00/21) No match (V2 was not tested)
 10     [ba680b61] (00/21) No match (V2 was not tested)
 11     [7aec3925] (00/21) No match (V2 was not tested)
 12     [980ca315] (00/20) No match (V2 was not tested)
 13     [f96ba71b] (00/21) No match (V2 was not tested)
 14     [e305c504] (00/21) No match (V2 was not tested)
 15     [a3ed861e] (00/21) No match (V2 was not tested)
 16     [ce9ca7f3] (00/21) No match (V2 was not tested)
 17     [78b22928] (00/21) No match (V2 was not tested)
Track Peak [ CRC32  ] [W/O NULL]
 --  100,0 [6DEA63FC] [CEE8137A]
 01   93,5 [61313969] [E3658FFC]
 02   86,5 [894F6D1F] [0E240472]
 03   86,8 [442573D8] [E8BBC57C]
 04  100,0 [DD197509] [EE8CA8C8]
 05   71,0 [010EFE4B] [A3D3EF0B]
 06   81,0 [ED09DBC4] [743F2655]
 07   90,1 [BD0FF8BA] [B8B1BCE2]
 08   68,9 [2522ECAA] [9421FCBB]
 09   89,4 [41B03793] [2008740A]
 10   76,5 [52682EB0] [50B2E946]
 11   75,9 [DA1F29A1] [9D7E1CAE]
 12   99,7 [4F6F9445] [885A995A]
 13  100,0 [DEB312D2] [9D54B61E]
 14   84,7 [903EFA0F] [E05B99A7]
 15   77,9 [F02D0803] [3F8B7BB4]
 16   86,7 [E02F9CEE] [FECDE732]
 17   88,7 [98A904F4] [D7EBBCA9]
For years, "The Girl fom Ipanema" was a staple in Ella Fitzgerald's songbook, so it's something of a wonder that it was not until 1981 that Ella Abraça Jobim, Fitzgerald's double-album immersion in Antonio Carlos Jobim's back catalog, appeared. Ella's first single-composer release since 1964's tribute to Jerome Kern, Ella Abraça Jobim is, more than anything, final proof of the unassuming Brazilian's place in jazz history alongside the great composers. Sadly Jobim's mellow bossa nova, drenched in the Brazilian concept of saudade, or agreeable melancholy, doesn't necessarily gel with Fitzgerald's swing-based and energetic vocal style. Fitzgerald and her small group take songs like "Agua de Beber (Water to Drink)" at just slightly too speedy a tempo, rushing a bit where they should be gamboling. Fitzgerald is in very good voice compared to some other recordings from her later years, though, sadly, she's clearly not at her peak. Norman Granz's production is typically excellent, however, and the arrangements are refreshingly free of the typical late-'70s/early-'80s post-fusion clichés. Neither Fitzgerald nor Jobim's finest, then, but not without merit.
Ella Fitzgerald - vocals
Clark Terry - trumpet
Zoot Sims - tenor saxophone
Paul Jackson, Mitch Holder, Roland Bautista - rhythm guitar
Joe Pass - solo electric guitar
Oscar Castro-Neves - solo acoustic guitar
Terry Trotter, Mike Lang, Clarence McDonald - keyboards
Toots Thielemans - harmonica
Abraham Laboriel - bass
Alex Acuna - drums
Paulinho da Costa - percussion
Arranged and orchestra conducted by Erich Bulling.
Recorded at Group IV Studios, Hollywood, CA on September 17, 1980 - March 20, 1981.
Правила, инструкции, FAQ!!!
Торрент  Добавлен [02 мар 2020, 16:53] Скачать торрент Магнет ссылка
Скачать торрент
[ Размер 19.24 КБ / Просмотров 2 ]

Статус
Проверен 
 
Размер  442.4 МБ
Приватный: Нет (DHT включён)
.torrent скачан  0
 


     Отправить личное сообщение
   
Страница 1 из 1
Показать сообщения за:  Поле сортировки  
Начать новую тему Ответить на тему


Сейчас этот форум просматривают: нет зарегистрированных пользователей и гости: 0


Вы не можете начинать темы
Вы не можете отвечать на сообщения
Вы не можете редактировать свои сообщения
Вы не можете удалять свои сообщения
Вы не можете добавлять вложения

Перейти:  
cron