Начать новую тему Ответить на тему
Статистика раздачи
Размер: 287.22 МБ | Добавлен: 22 июн 2020, 15:38 | Скачали: 0
Сидеров: 0  [0 байт/сек]    Личеров: 0  [0 байт/сек]
Пред. тема | След. тема 

Автор
Сообщение

СообщениеДобавлено: 22 июн 2020, 15:38 

Ответить с цитатой 

Ella Fitzgerald - Clap Hands, Here Comes Charlie!
Жанр: Vocal Jazz
Носитель: CD
Страна-производитель диска (релиза): США
Год издания: 2012
Издатель (лейбл): Analogue Productions
Номер по каталогу: CVRJ 4053 SA
Аудиокодек: FLAC (*.flac)
Тип рипа: tracks+.cue
Продолжительность: 00:50:29
Источник: Faunts
Наличие сканов в содержимом раздачи: сетевые
Треклист:
01. A Night in Tunisia (4:10)
02. You're My Thrill (3:39)
03. My Reverie (3:20)
04. Stella by Starlight (3:19)
05. 'Round Midnite (3:29)
06. Jersey Bounce (3:35)
07. Signing Off (3:49)
08. Cry Me a River (4:16)
09. This Year's Kisses (2:20)
10. Good Morning Heartache (4:20)
11. (I Was) Born to Be Blue (2:44)
12. Clap Hands, Here Comes Charlie! (2:46)
13. Spring Can Really Hang You Up the Most (6:15)
14. Music Goes 'Round and 'Round (2:27)
Код:
Exact Audio Copy V1.5 from 20. February 2020
EAC extraction logfile from 27. May 2020, 16:34
Ella Fitzgerald / Clap Hands, Here Comes Charlie!
Used drive  : HL-DT-STBD-RE  BH16NS55   Adapter: 1  ID: 0
Read mode               : Secure
Utilize accurate stream : Yes
Defeat audio cache      : Yes
Make use of C2 pointers : No
Read offset correction                      : 6
Overread into Lead-In and Lead-Out          : No
Fill up missing offset samples with silence : Yes
Delete leading and trailing silent blocks   : No
Null samples used in CRC calculations       : Yes
Used interface                              : Native Win32 interface for Win NT & 2000
Gap handling                                : Appended to previous track
Used output format              : User Defined Encoder
Selected bitrate                : 1024 kBit/s
Quality                         : High
Add ID3 tag                     : No
Command line compressor         : C:\Program Files (x86)\Exact Audio Copy\Flac\flac.exe
Additional command line options : -8 -V -T "ARTIST=%artist%" -T "TITLE=%title%" -T "ALBUM=%albumtitle%" -T "DATE=%year%" -T "TRACKNUMBER=%tracknr%" -T "GENRE=%genre%" -T "PERFORMER=%albuminterpret%" -T "COMPOSER=%composer%" %haslyrics%--tag-fromfile=LYRICS="%lyricsfile%"%haslyrics% -T "ALBUMARTIST=%albumartist%" -T "DISCNUMBER=%cdnumber%" -T "TOTALDISCS=%totalcds%" -T "TOTALTRACKS=%numtracks%" -T "COMMENT=%comment%" %source% -o %dest%
TOC of the extracted CD
     Track |   Start  |  Length  | Start sector | End sector
    ---------------------------------------------------------
        1  |  0:00.00 |  4:10.10 |         0    |    18759
        2  |  4:10.10 |  3:38.60 |     18760    |    35169
        3  |  7:48.70 |  3:19.44 |     35170    |    50138
        4  | 11:08.39 |  3:18.74 |     50139    |    65062
        5  | 14:27.38 |  3:28.61 |     65063    |    80723
        6  | 17:56.24 |  3:35.36 |     80724    |    96884
        7  | 21:31.60 |  3:48.48 |     96885    |   114032
        8  | 25:20.33 |  4:15.39 |    114033    |   133196
        9  | 29:35.72 |  2:19.38 |    133197    |   143659
       10  | 31:55.35 |  4:20.10 |    143660    |   163169
       11  | 36:15.45 |  2:44.10 |    163170    |   175479
       12  | 38:59.55 |  2:45.71 |    175480    |   187925
       13  | 41:45.51 |  6:15.35 |    187926    |   216085
       14  | 48:01.11 |  2:27.34 |    216086    |   227144
Track  1
     Filename C:\Exact Audio Copy\Clap Hands, Here Comes Charlie!\01 - A Night in Tunisia.wav
     Pre-gap length  0:00:02.00
     Peak level 86.0 %
     Extraction speed 4.9 X
     Track quality 100.0 %
     Test CRC 9AA21515
     Copy CRC 9AA21515
     Accurately ripped (confidence 10)  [CC4C1982]  (AR v2)
     Copy OK
Track  2
     Filename C:\Exact Audio Copy\Clap Hands, Here Comes Charlie!\02 - You’re My Thrill.wav
     Pre-gap length  0:00:03.48
     Peak level 61.1 %
     Extraction speed 4.3 X
     Track quality 99.9 %
     Test CRC 3B89F90F
     Copy CRC 3B89F90F
     Accurately ripped (confidence 10)  [3FDB0A0B]  (AR v2)
     Copy OK
Track  3
     Filename C:\Exact Audio Copy\Clap Hands, Here Comes Charlie!\03 - My Reverie.wav
     Pre-gap length  0:00:02.47
     Peak level 86.3 %
     Extraction speed 5.6 X
     Track quality 100.0 %
     Test CRC 7144BAF2
     Copy CRC 7144BAF2
     Accurately ripped (confidence 10)  [C55D0650]  (AR v2)
     Copy OK
Track  4
     Filename C:\Exact Audio Copy\Clap Hands, Here Comes Charlie!\04 - Stella by Starlight.wav
     Pre-gap length  0:00:03.03
     Peak level 98.1 %
     Extraction speed 6.0 X
     Track quality 100.0 %
     Test CRC 5B35C348
     Copy CRC 5B35C348
     Accurately ripped (confidence 10)  [31924019]  (AR v2)
     Copy OK
Track  5
     Filename C:\Exact Audio Copy\Clap Hands, Here Comes Charlie!\05 - 'Round Midnight.wav
     Pre-gap length  0:00:02.13
     Peak level 56.1 %
     Extraction speed 5.1 X
     Track quality 99.9 %
     Test CRC 6EB18D57
     Copy CRC 6EB18D57
     Accurately ripped (confidence 10)  [50F81EDA]  (AR v2)
     Copy OK
Track  6
     Filename C:\Exact Audio Copy\Clap Hands, Here Comes Charlie!\06 - Jersey Bounce.wav
     Pre-gap length  0:00:02.09
     Peak level 89.5 %
     Extraction speed 5.4 X
     Track quality 99.9 %
     Test CRC A21B5C8E
     Copy CRC A21B5C8E
     Accurately ripped (confidence 10)  [1A38977C]  (AR v2)
     Copy OK
Track  7
     Filename C:\Exact Audio Copy\Clap Hands, Here Comes Charlie!\07 - Signing Off.wav
     Pre-gap length  0:00:02.11
     Peak level 61.4 %
     Extraction speed 6.9 X
     Track quality 100.0 %
     Test CRC FF09C5AB
     Copy CRC FF09C5AB
     Accurately ripped (confidence 10)  [3AA91673]  (AR v2)
     Copy OK
Track  8
     Filename C:\Exact Audio Copy\Clap Hands, Here Comes Charlie!\08 - Cry Me a River.wav
     Pre-gap length  0:00:02.71
     Peak level 83.3 %
     Extraction speed 7.3 X
     Track quality 100.0 %
     Test CRC AD12F32B
     Copy CRC AD12F32B
     Accurately ripped (confidence 10)  [0A64818F]  (AR v2)
     Copy OK
Track  9
     Filename C:\Exact Audio Copy\Clap Hands, Here Comes Charlie!\09 - This Year's Kisses.wav
     Pre-gap length  0:00:02.57
     Peak level 81.4 %
     Extraction speed 6.9 X
     Track quality 100.0 %
     Test CRC 51CF65EB
     Copy CRC 51CF65EB
     Accurately ripped (confidence 10)  [50F1D116]  (AR v2)
     Copy OK
Track 10
     Filename C:\Exact Audio Copy\Clap Hands, Here Comes Charlie!\10 - Good Morning Heartache.wav
     Pre-gap length  0:00:03.50
     Peak level 71.4 %
     Extraction speed 7.8 X
     Track quality 100.0 %
     Test CRC 2A975782
     Copy CRC 2A975782
     Accurately ripped (confidence 10)  [5477F72B]  (AR v2)
     Copy OK
Track 11
     Filename C:\Exact Audio Copy\Clap Hands, Here Comes Charlie!\11 - (I Was) Born to Be Blue.wav
     Pre-gap length  0:00:02.04
     Peak level 79.9 %
     Extraction speed 7.5 X
     Track quality 100.0 %
     Test CRC D86FF21A
     Copy CRC D86FF21A
     Accurately ripped (confidence 10)  [C3EDE774]  (AR v2)
     Copy OK
Track 12
     Filename C:\Exact Audio Copy\Clap Hands, Here Comes Charlie!\12 - Clap Hands, Here Comes Charlie!.wav
     Pre-gap length  0:00:03.07
     Peak level 93.5 %
     Extraction speed 7.7 X
     Track quality 100.0 %
     Test CRC BD070F07
     Copy CRC BD070F07
     Accurately ripped (confidence 11)  [C7EE0D87]  (AR v2)
     Copy OK
Track 13
     Filename C:\Exact Audio Copy\Clap Hands, Here Comes Charlie!\13 - Spring Can Really Hang You Up the Most.wav
     Pre-gap length  0:00:04.15
     Peak level 71.0 %
     Extraction speed 7.7 X
     Track quality 99.9 %
     Test CRC D60439AA
     Copy CRC D60439AA
     Accurately ripped (confidence 11)  [846C0DB1]  (AR v2)
     Copy OK
Track 14
     Filename C:\Exact Audio Copy\Clap Hands, Here Comes Charlie!\14 - The Music Goes 'Round and Around.wav
     Pre-gap length  0:00:02.36
     Peak level 78.7 %
     Extraction speed 7.9 X
     Track quality 100.0 %
     Test CRC 8ED579F9
     Copy CRC 8ED579F9
     Accurately ripped (confidence 11)  [C36083D6]  (AR v2)
     Copy OK
All tracks accurately ripped
No errors occurred
End of status report
---- CUETools DB Plugin V2.1.6
[CTDB TOCID: TwduiCVJ9dRIbwuesKBJQT6l8IQ-] found
Submit result: TwduiCVJ9dRIbwuesKBJQT6l8IQ- has been confirmed
Track | CTDB Status
  1   | (15/15) Accurately ripped
  2   | (15/15) Accurately ripped
  3   | (15/15) Accurately ripped
  4   | (15/15) Accurately ripped
  5   | (15/15) Accurately ripped
  6   | (15/15) Accurately ripped
  7   | (15/15) Accurately ripped
  8   | (15/15) Accurately ripped
  9   | (15/15) Accurately ripped
 10   | (15/15) Accurately ripped
 11   | (15/15) Accurately ripped
 12   | (15/15) Accurately ripped
 13   | (15/15) Accurately ripped
 14   | (15/15) Accurately ripped
==== Log checksum 66F5E72080F727355439CAEB70C15A24B00731DC59159555FADB023495FAC5F0 ====
Код:
REM GENRE Jazz
REM DATE 1961
REM DISCID C90BD40E
REM COMMENT "ExactAudioCopy v1.5"
PERFORMER "Ella Fitzgerald"
TITLE "Clap Hands, Here Comes Charlie!"
FILE "01 - A Night in Tunisia.wav" WAVE
  TRACK 01 AUDIO
    TITLE "A Night in Tunisia"
    PERFORMER "Ella Fitzgerald"
    INDEX 01 00:00:00
  TRACK 02 AUDIO
    TITLE "You’re My Thrill"
    PERFORMER "Ella Fitzgerald"
    INDEX 00 04:06:37
FILE "02 - You’re My Thrill.wav" WAVE
    INDEX 01 00:00:00
  TRACK 03 AUDIO
    TITLE "My Reverie"
    PERFORMER "Ella Fitzgerald"
    INDEX 00 03:36:13
FILE "03 - My Reverie.wav" WAVE
    INDEX 01 00:00:00
  TRACK 04 AUDIO
    TITLE "Stella by Starlight"
    PERFORMER "Ella Fitzgerald"
    INDEX 00 03:16:41
FILE "04 - Stella by Starlight.wav" WAVE
    INDEX 01 00:00:00
  TRACK 05 AUDIO
    TITLE "'Round Midnite"
    PERFORMER "Ella Fitzgerald"
    INDEX 00 03:16:61
FILE "05 - 'Round Midnite.wav" WAVE
    INDEX 01 00:00:00
  TRACK 06 AUDIO
    TITLE "Jersey Bounce"
    PERFORMER "Ella Fitzgerald"
    INDEX 00 03:26:52
FILE "06 - Jersey Bounce.wav" WAVE
    INDEX 01 00:00:00
  TRACK 07 AUDIO
    TITLE "Signing Off"
    PERFORMER "Ella Fitzgerald"
    INDEX 00 03:33:25
FILE "07 - Signing Off.wav" WAVE
    INDEX 01 00:00:00
  TRACK 08 AUDIO
    TITLE "Cry Me a River"
    PERFORMER "Ella Fitzgerald"
    INDEX 00 03:45:52
FILE "08 - Cry Me a River.wav" WAVE
    INDEX 01 00:00:00
  TRACK 09 AUDIO
    TITLE "This Year's Kisses"
    PERFORMER "Ella Fitzgerald"
    INDEX 00 04:12:57
FILE "09 - This Year's Kisses.wav" WAVE
    INDEX 01 00:00:00
  TRACK 10 AUDIO
    TITLE "Good Morning Heartache"
    PERFORMER "Ella Fitzgerald"
    INDEX 00 02:15:63
FILE "10 - Good Morning Heartache.wav" WAVE
    INDEX 01 00:00:00
  TRACK 11 AUDIO
    TITLE "(I Was) Born to Be Blue"
    PERFORMER "Ella Fitzgerald"
    INDEX 00 04:18:06
FILE "11 - (I Was) Born to Be Blue.wav" WAVE
    INDEX 01 00:00:00
  TRACK 12 AUDIO
    TITLE "Clap Hands, Here Comes Charlie!"
    PERFORMER "Ella Fitzgerald"
    INDEX 00 02:41:03
FILE "12 - Clap Hands, Here Comes Charlie!.wav" WAVE
    INDEX 01 00:00:00
  TRACK 13 AUDIO
    TITLE "Spring Can Really Hang You Up the Most"
    PERFORMER "Ella Fitzgerald"
    INDEX 00 02:41:56
FILE "13 - Spring Can Really Hang You Up the Most.wav" WAVE
    INDEX 01 00:00:00
  TRACK 14 AUDIO
    TITLE "The Music Goes 'Round and Around"
    PERFORMER "Ella Fitzgerald"
    INDEX 00 06:12:74
FILE "14 - The Music Goes 'Round and Around.wav" WAVE
    INDEX 01 00:00:00
Код:
[CUETools log; Date: 03.06.2020 19:07:30; Version: 2.1.6]
[CTDB TOCID: TwduiCVJ9dRIbwuesKBJQT6l8IQ-] found.
Track | CTDB Status
  1   | (16/16) Accurately ripped
  2   | (16/16) Accurately ripped
  3   | (16/16) Accurately ripped
  4   | (16/16) Accurately ripped
  5   | (16/16) Accurately ripped
  6   | (16/16) Accurately ripped
  7   | (16/16) Accurately ripped
  8   | (16/16) Accurately ripped
  9   | (16/16) Accurately ripped
 10   | (16/16) Accurately ripped
 11   | (16/16) Accurately ripped
 12   | (16/16) Accurately ripped
 13   | (16/16) Accurately ripped
 14   | (16/16) Accurately ripped
[AccurateRip ID: 001a0dae-01150675-c90bd40e] found.
Track   [  CRC   |   V2   ] Status
 01     [d0f1b873|cc4c1982] (00+10/10) Accurately ripped
 02     [fbe3ae49|3fdb0a0b] (00+10/10) Accurately ripped
 03     [46dfae70|c55d0650] (00+10/10) Accurately ripped
 04     [3fd16c0a|31924019] (00+10/10) Accurately ripped
 05     [e229bcd7|50f81eda] (00+10/10) Accurately ripped
 06     [33f841da|1a38977c] (00+10/10) Accurately ripped
 07     [cb094916|3aa91673] (00+10/10) Accurately ripped
 08     [1324bb25|0a64818f] (00+10/10) Accurately ripped
 09     [757a856f|50f1d116] (00+10/10) Accurately ripped
 10     [7db5051c|5477f72b] (00+10/10) Accurately ripped
 11     [342a4e53|c3ede774] (00+10/10) Accurately ripped
 12     [f442b48a|c7ee0d87] (00+11/11) Accurately ripped
 13     [7c98f1b0|846c0db1] (00+11/11) Accurately ripped
 14     [84f49cee|c36083d6] (00+11/11) Accurately ripped
Track Peak [ CRC32  ] [W/O NULL] [  LOG   ]
 --   98,1 [2BF32AA6] [21C88CA8]
 01   86,0 [9AA21515] [D851FE42]   CRC32
 02   61,1 [3B89F90F] [E52D9D01]   CRC32
 03   86,3 [7144BAF2] [41A028C0]   CRC32
 04   98,1 [5B35C348] [DA233487]   CRC32
 05   56,1 [6EB18D57] [27021DFA]   CRC32
 06   89,5 [A21B5C8E] [6AAB5C54]   CRC32
 07   61,4 [FF09C5AB] [ACEB9598]   CRC32
 08   83,3 [AD12F32B] [A587A68B]   CRC32
 09   81,4 [51CF65EB] [DD4C20D7]   CRC32
 10   71,4 [2A975782] [7AAF805A]   CRC32
 11   79,9 [D86FF21A] [2D0992F5]   CRC32
 12   93,5 [BD070F07] [5AF185E4]   CRC32
 13   71,0 [D60439AA] [F184E3E8]   CRC32
 14   78,7 [8ED579F9] [C5E34F20]   CRC32
Ella's lushly orchestrated songbook albums were popular when first issued in the '50s and '60s and again more recently as reissues. They were not just popular. They were transformational, whether she was re-interpreting Cole Porter, the Gershwins, Ellington, Irving Berlin or Jerome Kern.
Before Ella's renderings, many of these tunes had faded from public consciousness and had lost their luster. These songbook albums restored these classics to their rightful place as part of America's vast cultural treasure, thanks in part to the rise of the LP format and the understanding of its organizational possibilities by visionaries like Norman Granz.
A generation brought up in the 1950s that saw the integration of American society, heard it on these songbook albums with an African-American woman re-inventing for all "the Great American Songbook." This album originally issued in 1961 has Ella in a small jazz combo setting backed by Lou Levy on piano, Herb Ellis on guitar, Gus Johnson on drums and Joe Mondragon on bass. Swinging Ella is at least as compelling as songbooking Ella, whether covering jazz titles or pop ballads from the 1940s.
Ella covers some naturally swinging tunes like the opener "Night in Tunisia" and "Jersey Bounce" and she adds swing to some tunes better known as ballads but she also covers beautifully some ballads as ballads, like the melancholic "Signing Off", "My Reverie" and "Spring Can Really Hang You up the Most."
Ella's not going to out-sultry Julie London on "Cry Me a River," but her jazzier version puts a "kiss off" edge to it that works equally well. The title tune is a fast paced swinger and the set ends with the pop ditty "Round And 'Round" with the "Spring...." ballad sandwiched in between.
Certainly pop tunes resonate more strongly if you grew up hearing the originals but for those of us too young to have done so, this set of mostly pop tunes from a bygone era can still manage to instill nostalgia for an era long gone that most of us know only from the movies.
Back in the 1990s original Verve pressings of this record were hot items pushed into prominence in great part by write-ups in The Absolute Sound, particularly by my friend Frank Doris. I found a few, and even a few in pretty good condition but none of them begin to compare to this double 45 rpm set that offers more of everything, particularly transparency and instrumental separation.
Ella lives again centered between the speakers with the backing group pushed hard left and right. Pianist Levy and guitarist Ellis share the left channel and the drums and bass the right channel. On the pleasingly warm/murky original, as my system improved, distinguishing and separating out the guitar and piano got easier. Here the two instruments occupying similar timbal territory are much easier to distinguish though again, the better your system, particularly your analog front end, the more easily the guitar and piano will be heard as separate instruments.
Ella's on a microphone with a slightly rising high end but if it sounds icy, don't blame the recording or the mastering. It's your system. If it's well-balanced and your cartridge is a good tracker, the vocal transparency and clarity are spooky and the sibilant articulation is precise.
These double 45s cut at Sterling Sound use the original tapes, not copies of the original tapes and the clarity and transparency coupled with QRP's drop dead silent pressings are remarkable. The original pre-MGM buyout LP has a pleasingly nostalgic quality and the added warmth produces a bit more room sound, but in my opinion it can't compare to this reissue unless you like hear things through rose-tinted loudspeakers.
Elegantly produced, arranged and recorded and easy to recommend, though these mostly pop confections lack the weight and gravitas of some of the "songbook" collections. Sometimes you have to live lightly.
Ella Fitzgerald - vocals
Herb Ellis - guitar
Lou Levy - piano
Joe Mondragon, Wilfred Middlebrooks - bass
Gus Johnson, Stan Levey - drums
Remastered by George Marino
Recorded in Los Angeles, CA on June 22-23, 1961.
Правила, инструкции, FAQ!!!
Торрент  Добавлен [22 июн 2020, 15:38] Скачать торрент Магнет ссылка
Скачать торрент
[ Размер 12.99 КБ / Просмотров 1 ]

Статус
Проверен 
 
Размер  287.22 МБ
Приватный: Нет (DHT включён)
.torrent скачан  0
 


     Отправить личное сообщение
   
Страница 1 из 1
Показать сообщения за:  Поле сортировки  
Начать новую тему Ответить на тему


Сейчас этот форум просматривают: нет зарегистрированных пользователей и гости: 0


Вы не можете начинать темы
Вы не можете отвечать на сообщения
Вы не можете редактировать свои сообщения
Вы не можете удалять свои сообщения
Вы не можете добавлять вложения

Перейти:  
cron