Начать новую тему Ответить на тему
Статистика раздачи
Размер: 194.13 МБ | Добавлен: 02 мар 2020, 16:53 | Скачали: 0
Сидеров: 13  [0 байт/сек]    Личеров: 4  [0 байт/сек]
Пред. тема | След. тема 

Автор
Сообщение

СообщениеДобавлено: 02 мар 2020, 16:53 

Ответить с цитатой 

Ella Fitzgerald - Brighten the Corner
Жанр: Vocal Jazz
Носитель: CD
Страна-производитель диска (релиза): США
Год издания: 1967 (1990)
Издатель (лейбл): Capitol Records
Номер по каталогу: CDP 7 95151 2
Аудиокодек: FLAC (*.flac)
Тип рипа: tracks+.cue
Продолжительность: 00:44:40
Источник: felix1429
Наличие сканов в содержимом раздачи: нет
Треклист:
01. Abide with Me (Monk) - 3:16
02. Just a Closer Walk with Thee (Trad.) - 5:05
03. The Old Rugged Cross (Bennard) - 3:54
04. Brighten the Corner Where You Are (Gabriel-Ogdon) - 2:36
05. I Need Thee Every Hour (Lowry-Hawks) - 3:40
06. In the Garden (Miles) - 3:18
07. God Be with You Till We Meet Again (Tomer-Rankin) - 1:21
08. God Will Take Care of You (Martin-Martin) - 3:32
09. The Church in the Wildwood (Pitts) - 3:03
10. Throw Out the Lifeline (Ufford) - 3:15
11. I Shall Not Be Moved (Trad.) - 2:47
12. Let the Lower Lights Be Burning (Bliss) - 2:49
13. What a Friend We Have in Jesus (Converse-Scriven) - 4:05
14. Rock of Ages, Cleft for Me (Toplady-Hastings) - 1:59
Код:
Exact Audio Copy V1.3 from 2. September 2016
EAC extraction logfile from 19. February 2020, 16:45
Ella Fitzgerald / Brighten the Corner
Used drive  : ASUS    DRW-24F1ST   d   Adapter: 1  ID: 0
Read mode               : Secure
Utilize accurate stream : Yes
Defeat audio cache      : Yes
Make use of C2 pointers : No
Read offset correction                      : 6
Overread into Lead-In and Lead-Out          : No
Fill up missing offset samples with silence : Yes
Delete leading and trailing silent blocks   : No
Null samples used in CRC calculations       : Yes
Used interface                              : Native Win32 interface for Win NT & 2000
Gap handling                                : Appended to previous track
Used output format              : User Defined Encoder
Selected bitrate                : 1024 kBit/s
Quality                         : High
Add ID3 tag                     : No
Command line compressor         : C:\Program Files (x86)\Exact Audio Copy\Flac\flac.exe
Additional command line options : -8 -e -p -V -T "ARTIST=%artist%" -T "TITLE=%title%" -T "ALBUM=%albumtitle%" -T "DATE=%year%" -T "TRACKNUMBER=%tracknr%" -T "GENRE=%genre%" -T "PERFORMER=%albuminterpret%" -T "COMPOSER=%composer%" %haslyrics%--tag-from-file=LYRICS="%lyricsfile%"%haslyrics% -T "ALBUMARTIST=%albumartist%" -T "DISCNUMBER=%cdnumber%" -T "TOTALDISCS=%totalcds%" -T "TOTALTRACKS=%numtracks%" -T "COMMENT=%comment%" %source% -o %dest%
TOC of the extracted CD
     Track |   Start  |  Length  | Start sector | End sector
    ---------------------------------------------------------
        1  |  0:00.32 |  3:15.63 |        32    |    14719
        2  |  3:16.20 |  5:04.45 |     14720    |    37564
        3  |  8:20.65 |  3:53.60 |     37565    |    55099
        4  | 12:14.50 |  2:35.65 |     55100    |    66789
        5  | 14:50.40 |  3:40.15 |     66790    |    83304
        6  | 18:30.55 |  3:17.67 |     83305    |    98146
        7  | 21:48.47 |  1:20.45 |     98147    |   104191
        8  | 23:09.17 |  3:32.23 |    104192    |   120114
        9  | 26:41.40 |  3:03.32 |    120115    |   133871
       10  | 29:44.72 |  3:14.50 |    133872    |   148471
       11  | 32:59.47 |  2:46.53 |    148472    |   160974
       12  | 35:46.25 |  2:49.02 |    160975    |   173651
       13  | 38:35.27 |  4:04.43 |    173652    |   191994
       14  | 42:39.70 |  1:58.72 |    191995    |   200916
Track  1
     Filename H:\Torrents\Media\Ella Fitzgerald - Brigten the Corner [Capitol CDP 7 95151 2] (FLAC)\01 - Abide With Me.wav
     Pre-gap length  0:00:02.42
     Peak level 45.5 %
     Extraction speed 0.8 X
     Track quality 99.9 %
     Test CRC C6320FEB
     Copy CRC C6320FEB
     Accurately ripped (confidence 2)  [AD857C83]  (AR v1)
     Copy OK
Track  2
     Filename H:\Torrents\Media\Ella Fitzgerald - Brigten the Corner [Capitol CDP 7 95151 2] (FLAC)\02 - Just a Closer Walk With Thee.wav
     Pre-gap length  0:00:02.00
     Peak level 47.8 %
     Extraction speed 1.2 X
     Track quality 100.0 %
     Test CRC 9B0CB868
     Copy CRC 9B0CB868
     Accurately ripped (confidence 2)  [DAC78E71]  (AR v1)
     Copy OK
Track  3
     Filename H:\Torrents\Media\Ella Fitzgerald - Brigten the Corner [Capitol CDP 7 95151 2] (FLAC)\03 - The Old Rugged Cross.wav
     Pre-gap length  0:00:01.60
     Peak level 42.7 %
     Extraction speed 1.3 X
     Track quality 100.0 %
     Test CRC 9FFF9AFF
     Copy CRC 9FFF9AFF
     Accurately ripped (confidence 2)  [BE830AA8]  (AR v1)
     Copy OK
Track  4
     Filename H:\Torrents\Media\Ella Fitzgerald - Brigten the Corner [Capitol CDP 7 95151 2] (FLAC)\04 - Brighten the Corner Where You Are.wav
     Pre-gap length  0:00:01.88
     Peak level 58.6 %
     Extraction speed 1.3 X
     Track quality 100.0 %
     Test CRC E9951B4E
     Copy CRC E9951B4E
     Accurately ripped (confidence 2)  [B8ADDC11]  (AR v1)
     Copy OK
Track  5
     Filename H:\Torrents\Media\Ella Fitzgerald - Brigten the Corner [Capitol CDP 7 95151 2] (FLAC)\05 - I Need Thee Every Hour.wav
     Pre-gap length  0:00:01.77
     Peak level 47.8 %
     Extraction speed 1.4 X
     Track quality 100.0 %
     Test CRC 50F62D53
     Copy CRC 50F62D53
     Accurately ripped (confidence 2)  [F514B379]  (AR v1)
     Copy OK
Track  6
     Filename H:\Torrents\Media\Ella Fitzgerald - Brigten the Corner [Capitol CDP 7 95151 2] (FLAC)\06 - In the Garden.wav
     Pre-gap length  0:00:01.84
     Peak level 46.0 %
     Extraction speed 1.3 X
     Track quality 99.9 %
     Test CRC D7CD9547
     Copy CRC D7CD9547
     Accurately ripped (confidence 2)  [BCAAE315]  (AR v1)
     Copy OK
Track  7
     Filename H:\Torrents\Media\Ella Fitzgerald - Brigten the Corner [Capitol CDP 7 95151 2] (FLAC)\07 - God Be With You Till We Meet Again.wav
     Pre-gap length  0:00:01.69
     Peak level 47.6 %
     Extraction speed 1.2 X
     Track quality 100.0 %
     Test CRC 9FD0FA40
     Copy CRC 9FD0FA40
     Accurately ripped (confidence 2)  [EDD19AA1]  (AR v1)
     Copy OK
Track  8
     Filename H:\Torrents\Media\Ella Fitzgerald - Brigten the Corner [Capitol CDP 7 95151 2] (FLAC)\08 - God Will Take Care of You.wav
     Pre-gap length  0:00:01.13
     Peak level 41.2 %
     Extraction speed 1.6 X
     Track quality 100.0 %
     Test CRC 907B9E3A
     Copy CRC 907B9E3A
     Accurately ripped (confidence 2)  [2FA0BA4E]  (AR v1)
     Copy OK
Track  9
     Filename H:\Torrents\Media\Ella Fitzgerald - Brigten the Corner [Capitol CDP 7 95151 2] (FLAC)\09 - The Church in the Wildwood.wav
     Pre-gap length  0:00:01.57
     Peak level 46.2 %
     Extraction speed 1.6 X
     Track quality 100.0 %
     Test CRC 9E0E75EC
     Copy CRC 9E0E75EC
     Accurately ripped (confidence 2)  [D938C91B]  (AR v1)
     Copy OK
Track 10
     Filename H:\Torrents\Media\Ella Fitzgerald - Brigten the Corner [Capitol CDP 7 95151 2] (FLAC)\10 - Throw Out the Lifeline.wav
     Pre-gap length  0:00:01.56
     Peak level 43.7 %
     Extraction speed 1.7 X
     Track quality 100.0 %
     Test CRC D6FC6C2E
     Copy CRC D6FC6C2E
     Accurately ripped (confidence 2)  [0F0C7EBF]  (AR v1)
     Copy OK
Track 11
     Filename H:\Torrents\Media\Ella Fitzgerald - Brigten the Corner [Capitol CDP 7 95151 2] (FLAC)\11 - I Shall Not Be Moved.wav
     Pre-gap length  0:00:01.73
     Peak level 57.3 %
     Extraction speed 1.7 X
     Track quality 100.0 %
     Test CRC 6CF6E94B
     Copy CRC 6CF6E94B
     Accurately ripped (confidence 2)  [B26A8D43]  (AR v1)
     Copy OK
Track 12
     Filename H:\Torrents\Media\Ella Fitzgerald - Brigten the Corner [Capitol CDP 7 95151 2] (FLAC)\12 - Let the Lower Lights Be Burning.wav
     Pre-gap length  0:00:01.60
     Peak level 53.5 %
     Extraction speed 1.7 X
     Track quality 100.0 %
     Test CRC 2CAC1929
     Copy CRC 2CAC1929
     Accurately ripped (confidence 2)  [C85C8A74]  (AR v1)
     Copy OK
Track 13
     Filename H:\Torrents\Media\Ella Fitzgerald - Brigten the Corner [Capitol CDP 7 95151 2] (FLAC)\13 - What a Friend We Have in Jesus.wav
     Pre-gap length  0:00:01.33
     Peak level 45.2 %
     Extraction speed 1.9 X
     Track quality 100.0 %
     Test CRC 822A0F11
     Copy CRC 822A0F11
     Accurately ripped (confidence 2)  [389B07F9]  (AR v1)
     Copy OK
Track 14
     Filename H:\Torrents\Media\Ella Fitzgerald - Brigten the Corner [Capitol CDP 7 95151 2] (FLAC)\14 - Rock of Ages, Cleft for Me.wav
     Pre-gap length  0:00:01.57
     Peak level 45.4 %
     Extraction speed 1.7 X
     Track quality 100.0 %
     Test CRC 64B85D85
     Copy CRC 64B85D85
     Accurately ripped (confidence 2)  [EDEB1488]  (AR v1)
     Copy OK
All tracks accurately ripped
No errors occurred
End of status report
---- CUETools DB Plugin V2.1.6
[CTDB TOCID: yyr3t866E41W6WNs.JWVxtO2Z0c-] found
Submit result: yyr3t866E41W6WNs.JWVxtO2Z0c- has been confirmed
Track | CTDB Status
  1   | (4/4) Accurately ripped
  2   | (4/4) Accurately ripped
  3   | (4/4) Accurately ripped
  4   | (4/4) Accurately ripped
  5   | (4/4) Accurately ripped
  6   | (4/4) Accurately ripped
  7   | (4/4) Accurately ripped
  8   | (4/4) Accurately ripped
  9   | (4/4) Accurately ripped
 10   | (4/4) Accurately ripped
 11   | (3/4) Accurately ripped, or (1/4) differs in 8496 samples @02:24:54-02:24:55,02:24:70-02:24:71,02:25:58-02:25:59,02:25:74-02:26:00,02:26:15-02:26:16,02:33:61-02:33:62,02:34:02-02:34:03,02:34:18-02:34:19,02:35:06-02:35:07,02:35:22-02:35:23,02:35:38-02:35:39,02:35:54-02:35:55,02:36:43,02:36:58-02:36:59,02:36:74-02:37:00,02:37:15-02:37:16,02:37:31-02:37:32,02:37:47-02:37:48,02:37:63-02:37:64,02:38:04-02:38:05,02:38:20-02:38:21,02:38:35-02:38:36,02:38:51-02:38:52,02:38:67-02:38:68,02:39:08-02:39:09,02:39:24-02:39:25,02:39:40-02:39:41,02:39:56-02:39:57,02:39:72-02:39:73,02:40:13-02:40:14,02:40:28-02:40:29,02:40:44-02:40:45,02:40:60-02:40:61,02:41:01-02:41:02,02:42:06-02:42:07
 12   | (4/4) Accurately ripped
 13   | (4/4) Accurately ripped
 14   | (4/4) Accurately ripped
==== Log checksum F7391A5ACE62524638EB5B417A0396A2B3A7FCB742C0F24DA0FEB4294FC71AB8 ====
Код:
REM GENRE Jazz
REM DATE 1967
REM DISCID B30A760E
REM COMMENT "ExactAudioCopy v1.3"
PERFORMER "Ella Fitzgerald"
TITLE "Brighten the Corner"
FILE "01 - Abide with Me.wav" WAVE
  TRACK 01 AUDIO
    TITLE "Abide with Me"
    PERFORMER "Ella Fitzgerald"
    PREGAP 00:00:32
    INDEX 01 00:00:00
  TRACK 02 AUDIO
    TITLE "Just a Closer Walk with Thee"
    PERFORMER "Ella Fitzgerald"
    INDEX 00 03:13:63
FILE "02 - Just a Closer Walk with Thee.wav" WAVE
    INDEX 01 00:00:00
  TRACK 03 AUDIO
    TITLE "The Old Rugged Cross"
    PERFORMER "Ella Fitzgerald"
    INDEX 00 05:03:00
FILE "03 - The Old Rugged Cross.wav" WAVE
    INDEX 01 00:00:00
  TRACK 04 AUDIO
    TITLE "Brighten the Corner Where You Are"
    PERFORMER "Ella Fitzgerald"
    INDEX 00 03:51:69
FILE "04 - Brighten the Corner Where You Are.wav" WAVE
    INDEX 01 00:00:00
  TRACK 05 AUDIO
    TITLE "I Need Thee Every Hour"
    PERFORMER "Ella Fitzgerald"
    INDEX 00 02:34:07
FILE "05 - I Need Thee Every Hour.wav" WAVE
    INDEX 01 00:00:00
  TRACK 06 AUDIO
    TITLE "In the Garden"
    PERFORMER "Ella Fitzgerald"
    INDEX 00 03:38:27
FILE "06 - In the Garden.wav" WAVE
    INDEX 01 00:00:00
  TRACK 07 AUDIO
    TITLE "God Be with You Till We Meet Again"
    PERFORMER "Ella Fitzgerald"
    INDEX 00 03:16:15
FILE "07 - God Be with You Till We Meet Again.wav" WAVE
    INDEX 01 00:00:00
  TRACK 08 AUDIO
    TITLE "God Will Take Care of You"
    PERFORMER "Ella Fitzgerald"
    INDEX 00 01:19:35
FILE "08 - God Will Take Care of You.wav" WAVE
    INDEX 01 00:00:00
  TRACK 09 AUDIO
    TITLE "The Church in the Wildwood"
    PERFORMER "Ella Fitzgerald"
    INDEX 00 03:30:55
FILE "09 - The Church in the Wildwood.wav" WAVE
    INDEX 01 00:00:00
  TRACK 10 AUDIO
    TITLE "Throw Out the Lifeline"
    PERFORMER "Ella Fitzgerald"
    INDEX 00 03:01:65
FILE "10 - Throw Out the Lifeline.wav" WAVE
    INDEX 01 00:00:00
  TRACK 11 AUDIO
    TITLE "I Shall Not Be Moved"
    PERFORMER "Ella Fitzgerald"
    INDEX 00 03:12:70
FILE "11 - I Shall Not Be Moved.wav" WAVE
    INDEX 01 00:00:00
  TRACK 12 AUDIO
    TITLE "Let the Lower Lights Be Burning"
    PERFORMER "Ella Fitzgerald"
    INDEX 00 02:45:08
FILE "12 - Let the Lower Lights Be Burning.wav" WAVE
    INDEX 01 00:00:00
  TRACK 13 AUDIO
    TITLE "What a Friend We Have in Jesus"
    PERFORMER "Ella Fitzgerald"
    INDEX 00 02:47:52
FILE "13 - What a Friend We Have in Jesus.wav" WAVE
    INDEX 01 00:00:00
  TRACK 14 AUDIO
    TITLE "Rock of Ages, Cleft for Me"
    PERFORMER "Ella Fitzgerald"
    INDEX 00 04:03:00
FILE "14 - Rock of Ages, Cleft for Me.wav" WAVE
    INDEX 01 00:00:00
Код:
[CUETools log; Date: 02.03.2020 1:08:08; Version: 2.1.6]
Pregap length 00:00:32.
[CTDB TOCID: yyr3t866E41W6WNs.JWVxtO2Z0c-] found.
Track | CTDB Status
  1   | (5/5) Accurately ripped
  2   | (5/5) Accurately ripped
  3   | (5/5) Accurately ripped
  4   | (5/5) Accurately ripped
  5   | (5/5) Accurately ripped
  6   | (5/5) Accurately ripped
  7   | (5/5) Accurately ripped
  8   | (5/5) Accurately ripped
  9   | (5/5) Accurately ripped
 10   | (5/5) Accurately ripped
 11   | (4/5) Accurately ripped, or (1/5) differs in 8496 samples @02:24:54-02:24:55,02:24:70-02:24:71,02:25:58-02:25:59,02:25:74-02:26:00,02:26:15-02:26:16,02:33:61-02:33:62,02:34:02-02:34:03,02:34:18-02:34:19,02:35:06-02:35:07,02:35:22-02:35:23,02:35:38-02:35:39,02:35:54-02:35:55,02:36:43,02:36:58-02:36:59,02:36:74-02:37:00,02:37:15-02:37:16,02:37:31-02:37:32,02:37:47-02:37:48,02:37:63-02:37:64,02:38:04-02:38:05,02:38:20-02:38:21,02:38:35-02:38:36,02:38:51-02:38:52,02:38:67-02:38:68,02:39:08-02:39:09,02:39:24-02:39:25,02:39:40-02:39:41,02:39:56-02:39:57,02:39:72-02:39:73,02:40:13-02:40:14,02:40:28-02:40:29,02:40:44-02:40:45,02:40:60-02:40:61,02:41:01-02:41:02,02:42:06-02:42:07
 12   | (5/5) Accurately ripped
 13   | (5/5) Accurately ripped
 14   | (5/5) Accurately ripped
[AccurateRip ID: 00184259-00fe38f0-b30a760e] found.
Track   [  CRC   |   V2   ] Status
 01     [ad857c83|51902b72] (2+0/2) Accurately ripped
 02     [dac78e71|2819be77] (2+0/4) Accurately ripped
 03     [be830aa8|eea78fd3] (2+0/2) Accurately ripped
 04     [b8addc11|391aee54] (2+0/4) Accurately ripped
 05     [f514b379|a6bbc3d9] (2+0/2) Accurately ripped
 06     [bcaae315|cec579bb] (2+0/2) Accurately ripped
 07     [edd19aa1|eaee4a8b] (2+0/2) Accurately ripped
 08     [2fa0ba4e|357c00bc] (2+0/2) Accurately ripped
 09     [d938c91b|f43a0245] (2+0/2) Accurately ripped
 10     [0f0c7ebf|d7acd8c2] (2+0/2) Accurately ripped
 11     [b26a8d43|6eabc708] (2+0/2) Accurately ripped
 12     [c85c8a74|515045bc] (2+0/2) Accurately ripped
 13     [389b07f9|d98d7496] (2+0/2) Accurately ripped
 14     [edeb1488|3ca25ea8] (2+0/2) Accurately ripped
Offsetted by -210:
 01     [b2e6c78f] (0/2) No match
 02     [3208b23f] (0/4) No match (V2 was not tested)
 03     [00889e82] (0/2) No match
 04     [9aee8be3] (0/4) No match (V2 was not tested)
 05     [21d8162b] (0/2) No match
 06     [fe696307] (0/2) No match
 07     [382cbfb9] (0/2) No match
 08     [4e03a450] (0/2) No match
 09     [59e0ae25] (0/2) No match
 10     [ef60f4fb] (0/2) No match
 11     [6b4f9d87] (0/2) No match (V2 was not tested)
 12     [b3434e22] (0/2) No match
 13     [0730b047] (0/2) No match
 14     [97d80948] (0/2) No match
Track Peak [ CRC32  ] [W/O NULL] [  LOG   ]
 --   58,6 [FA9B1E9E] [5A3C137A]
 01   45,5 [C6320FEB] [19C6C8F4]   CRC32
 02   47,8 [9B0CB868] [CF0BA3C1]   CRC32
 03   42,7 [9FFF9AFF] [FB0F44D1]   CRC32
 04   58,6 [E9951B4E] [6BF9FA94]   CRC32
 05   47,8 [50F62D53] [A2AE48B3]   CRC32
 06   46,0 [D7CD9547] [9333A96F]   CRC32
 07   47,6 [9FD0FA40] [94373288]   CRC32
 08   41,2 [907B9E3A] [E2941AD5]   CRC32
 09   46,2 [9E0E75EC] [E10E8AE6]   CRC32
 10   43,7 [D6FC6C2E] [BDFD7F2B]   CRC32
 11   57,3 [6CF6E94B] [153EA1B5]   CRC32
 12   53,5 [2CAC1929] [B75C70F0]   CRC32
 13   45,2 [822A0F11] [F30DFE24]   CRC32
 14   45,4 [64B85D85] [84CDFE62]   CRC32
Правила, инструкции, FAQ!!!
Торрент  Добавлен [02 мар 2020, 16:53] Скачать торрент Магнет ссылка
Скачать торрент
[ Размер 16.89 КБ / Просмотров 10 ]

Статус
Проверен 
 
Размер  194.13 МБ
Приватный: Нет (DHT включён)
.torrent скачан  0
 


     Отправить личное сообщение
   
Страница 1 из 1
Показать сообщения за:  Поле сортировки  
Начать новую тему Ответить на тему


Сейчас этот форум просматривают: нет зарегистрированных пользователей и гости: 0


Вы не можете начинать темы
Вы не можете отвечать на сообщения
Вы не можете редактировать свои сообщения
Вы не можете удалять свои сообщения
Вы не можете добавлять вложения

Перейти:  
cron