Начать новую тему Ответить на тему
Статистика раздачи
Размер: 783.29 МБ | Добавлен: 22 июн 2020, 15:38 | Скачали: 0
Сидеров: 0  [0 байт/сек]    Личеров: 0  [0 байт/сек]
Пред. тема | След. тема 

Автор
Сообщение

СообщениеДобавлено: 22 июн 2020, 15:38 

Ответить с цитатой 

Della Reese - Four Classic Albums
Жанр: Vocal Jazz
Носитель: CD
Страна-производитель диска (релиза): Великобритания
Год издания: 2018
Издатель (лейбл): Avid Jazz
Номер по каталогу: EMSC1295
Аудиокодек: FLAC (*.flac)
Тип рипа: image+.cue
Продолжительность: 02:34:03
Источник: ssagwebster
Наличие сканов в содержимом раздачи: да
The Story of the Blues (1958)
01. The Story of the Blues (1:30)
02. Good Morning Blues (3:51)
03. Empty Bed Blues (3:38)
04. Squeeze Me (3:14)
05. You've Been a Good Old Wagon (3:35)
06. Sent for You Yesterday (And Here You Come Today) (2:30)
07. St. James Infirmary (4:01)
08. Lover Man (Oh Where Can You Be) (3:45)
09. Things Ain't What They Used to Be (2:47)
10. Stormy Weather (4:11)
11. There'll Always Be the Blues (3:21)
The Classic Della (1961)
12. The Story of a Starry Night (2:50)
13. These Are the Things I Love (3:35)
14. If You Are But a Dream (3:07)
15. My Reverie (3:39)
16. Take My Heart (2:42)
17. Stranger in Paradise (3:03)
18. Gone (2:39)
19. Serenade (3:23)
20. Moon Love (2:59)
21. Softly My Love (2:42)
22. Till the End of Time (3:20)
23. Don't You Know (2:34)
Код:
Exact Audio Copy V1.3 from 2. September 2016
EAC extraction logfile from 25. March 2020, 14:09
Della Reese / Four Classic Albums - CD1
Used drive  : TSSTcorpCDDVDW SH-224FB   Adapter: 1  ID: 0
Read mode               : Secure
Utilize accurate stream : Yes
Defeat audio cache      : Yes
Make use of C2 pointers : No
Read offset correction                      : 6
Overread into Lead-In and Lead-Out          : No
Fill up missing offset samples with silence : Yes
Delete leading and trailing silent blocks   : No
Null samples used in CRC calculations       : Yes
Used interface                              : Native Win32 interface for Win NT & 2000
Used output format              : User Defined Encoder
Selected bitrate                : 128 kBit/s
Quality                         : High
Add ID3 tag                     : No
Command line compressor         : C:\Program Files (x86)\Exact Audio Copy\Flac\flac.exe
Additional command line options : -V -8 -T "Genre=%genre%" -T "Artist=%artist%" -T "Title=%title%" -T "Album=%albumtitle%" -T "Date=%year%" -T "Tracknumber=%tracknr%" -T "Comment=%comment%" %source%
TOC of the extracted CD
     Track |   Start  |  Length  | Start sector | End sector
    ---------------------------------------------------------
        1  |  0:00.00 |  1:30.14 |         0    |     6763
        2  |  1:30.14 |  3:50.65 |      6764    |    24078
        3  |  5:21.04 |  3:37.65 |     24079    |    40418
        4  |  8:58.69 |  3:14.30 |     40419    |    54998
        5  | 12:13.24 |  3:35.32 |     54999    |    71155
        6  | 15:48.56 |  2:29.50 |     71156    |    82380
        7  | 18:18.31 |  4:01.28 |     82381    |   100483
        8  | 22:19.59 |  3:45.10 |    100484    |   117368
        9  | 26:04.69 |  2:46.51 |    117369    |   129869
       10  | 28:51.45 |  4:10.55 |    129870    |   148674
       11  | 33:02.25 |  3:20.70 |    148675    |   163744
       12  | 36:23.20 |  2:50.28 |    163745    |   176522
       13  | 39:13.48 |  3:35.09 |    176523    |   192656
       14  | 42:48.57 |  3:06.67 |    192657    |   206673
       15  | 45:55.49 |  3:39.19 |    206674    |   223117
       16  | 49:34.68 |  2:41.39 |    223118    |   235231
       17  | 52:16.32 |  3:02.37 |    235232    |   248918
       18  | 55:18.69 |  2:38.52 |    248919    |   260820
       19  | 57:57.46 |  3:22.70 |    260821    |   276040
       20  | 61:20.41 |  2:58.54 |    276041    |   289444
       21  | 64:19.20 |  2:41.70 |    289445    |   301589
       22  | 67:01.15 |  3:19.46 |    301590    |   316560
       23  | 70:20.61 |  2:33.36 |    316561    |   328071
Range status and errors
Selected range
     Filename D:\ssagwebster\Della Reese - Four Classic Albums (2CD, 2018)\CD1\Della Reese - Four Classic Albums - CD1.wav
     Peak level 100.0 %
     Extraction speed 3.2 X
     Range quality 100.0 %
     Test CRC 92F3E04A
     Copy CRC 92F3E04A
     Copy OK
No errors occurred
AccurateRip summary
Track  1  not present in database
Track  2  not present in database
Track  3  not present in database
Track  4  not present in database
Track  5  not present in database
Track  6  not present in database
Track  7  not present in database
Track  8  not present in database
Track  9  not present in database
Track 10  not present in database
Track 11  not present in database
Track 12  not present in database
Track 13  not present in database
Track 14  not present in database
Track 15  not present in database
Track 16  not present in database
Track 17  not present in database
Track 18  not present in database
Track 19  not present in database
Track 20  not present in database
Track 21  not present in database
Track 22  not present in database
Track 23  not present in database
None of the tracks are present in the AccurateRip database
End of status report
==== Log checksum DC852FAFC52753C79DEC962AB742423CC9F15B65E68C448FE71D06F33693F5CF ====
Код:
REM GENRE Jazz
REM DATE 2018
REM DISCID 3D111617
REM COMMENT "ExactAudioCopy v1.3"
PERFORMER "Della Reese"
TITLE "Four Classic Albums CD1"
FILE "Della Reese - Four Classic Albums CD1.wav" WAVE
  TRACK 01 AUDIO
    TITLE "The Story of the Blues"
    PERFORMER "Della Reese"
    ISRC GBBMH1829501
    INDEX 01 00:00:00
  TRACK 02 AUDIO
    TITLE "Good Morning Blues"
    PERFORMER "Della Reese"
    ISRC GBBMH1829502
    INDEX 00 01:28:14
    INDEX 01 01:30:14
  TRACK 03 AUDIO
    TITLE "Empty Bed Blues"
    PERFORMER "Della Reese"
    ISRC GBBMH1829503
    INDEX 00 05:19:04
    INDEX 01 05:21:04
  TRACK 04 AUDIO
    TITLE "Squeeze Me"
    PERFORMER "Della Reese"
    ISRC GBBMH1829504
    INDEX 00 08:56:69
    INDEX 01 08:58:69
  TRACK 05 AUDIO
    TITLE "You've Been a Good Old Wagon"
    PERFORMER "Della Reese"
    ISRC GBBMH1829505
    INDEX 00 12:11:24
    INDEX 01 12:13:24
  TRACK 06 AUDIO
    TITLE "Sent for You Yesterday (And Here You Come Today)"
    PERFORMER "Della Reese"
    ISRC GBBMH1829506
    INDEX 00 15:46:56
    INDEX 01 15:48:56
  TRACK 07 AUDIO
    TITLE "St. James Infirmary"
    PERFORMER "Della Reese"
    ISRC GBBMH1829507
    INDEX 00 18:16:31
    INDEX 01 18:18:31
  TRACK 08 AUDIO
    TITLE "Lover Man (Oh Where Can You Be)"
    PERFORMER "Della Reese"
    ISRC GBBMH1829508
    INDEX 00 22:17:59
    INDEX 01 22:19:59
  TRACK 09 AUDIO
    TITLE "Things Ain't What They Used to Be"
    PERFORMER "Della Reese"
    ISRC GBBMH1829509
    INDEX 00 26:02:69
    INDEX 01 26:04:69
  TRACK 10 AUDIO
    TITLE "Stormy Weather"
    PERFORMER "Della Reese"
    ISRC GBBMH1829510
    INDEX 00 28:49:45
    INDEX 01 28:51:45
  TRACK 11 AUDIO
    TITLE "There'll Always Be the Blues"
    PERFORMER "Della Reese"
    ISRC GBBMH1829511
    INDEX 00 33:00:25
    INDEX 01 33:02:25
  TRACK 12 AUDIO
    TITLE "The Story of a Starry Night"
    PERFORMER "Della Reese"
    ISRC GBBMH1829512
    INDEX 00 36:21:20
    INDEX 01 36:23:20
  TRACK 13 AUDIO
    TITLE "These Are the Things I Love"
    PERFORMER "Della Reese"
    ISRC GBBMH1829513
    INDEX 00 39:11:48
    INDEX 01 39:13:48
  TRACK 14 AUDIO
    TITLE "If You Are But a Dream"
    PERFORMER "Della Reese"
    ISRC GBBMH1829514
    INDEX 00 42:46:57
    INDEX 01 42:48:57
  TRACK 15 AUDIO
    TITLE "My Reverie"
    PERFORMER "Della Reese"
    ISRC GBBMH1829515
    INDEX 00 45:53:49
    INDEX 01 45:55:49
  TRACK 16 AUDIO
    TITLE "Take My Heart"
    PERFORMER "Della Reese"
    ISRC GBBMH1829516
    INDEX 00 49:32:68
    INDEX 01 49:34:68
  TRACK 17 AUDIO
    TITLE "Stranger in Paradise"
    PERFORMER "Della Reese"
    ISRC GBBMH1829517
    INDEX 00 52:14:32
    INDEX 01 52:16:32
  TRACK 18 AUDIO
    TITLE "Gone"
    PERFORMER "Della Reese"
    ISRC GBBMH1829518
    INDEX 00 55:16:69
    INDEX 01 55:18:69
  TRACK 19 AUDIO
    TITLE "Serenade"
    PERFORMER "Della Reese"
    ISRC GBBMH1829519
    INDEX 00 57:55:46
    INDEX 01 57:57:46
  TRACK 20 AUDIO
    TITLE "Moon Love"
    PERFORMER "Della Reese"
    ISRC GBBMH1829520
    INDEX 00 61:18:41
    INDEX 01 61:20:41
  TRACK 21 AUDIO
    TITLE "Softly My Love"
    PERFORMER "Della Reese"
    ISRC GBBMH1829521
    INDEX 00 64:17:20
    INDEX 01 64:19:20
  TRACK 22 AUDIO
    TITLE "Till the End of Time"
    PERFORMER "Della Reese"
    ISRC GBBMH1829522
    INDEX 00 66:59:15
    INDEX 01 67:01:15
  TRACK 23 AUDIO
    TITLE "Don't You Know"
    PERFORMER "Della Reese"
    ISRC GBBMH1829523
    INDEX 00 70:18:61
    INDEX 01 70:20:61
Код:
[CUETools log; Date: 08.06.2020 19:27:01; Version: 2.1.6]
[CTDB TOCID: GLfRhlQ5Hn2_ZBDkKOLCNta4FGw-] found.
Track | CTDB Status
  1   | (1/1) Accurately ripped
  2   | (1/1) Accurately ripped
  3   | (1/1) Accurately ripped
  4   | (1/1) Accurately ripped
  5   | (1/1) Accurately ripped
  6   | (1/1) Accurately ripped
  7   | (1/1) Accurately ripped
  8   | (1/1) Accurately ripped
  9   | (1/1) Accurately ripped
 10   | (1/1) Accurately ripped
 11   | (1/1) Accurately ripped
 12   | (1/1) Accurately ripped
 13   | (1/1) Accurately ripped
 14   | (1/1) Accurately ripped
 15   | (1/1) Accurately ripped
 16   | (1/1) Accurately ripped
 17   | (1/1) Accurately ripped
 18   | (1/1) Accurately ripped
 19   | (1/1) Accurately ripped
 20   | (1/1) Accurately ripped
 21   | (1/1) Accurately ripped
 22   | (1/1) Accurately ripped
 23   | (1/1) Accurately ripped
[AccurateRip ID: 003cf7ca-03fad8d2-3d111617] disk not present in database.
Track Peak [ CRC32  ] [W/O NULL] [  LOG   ]
 --  100,0 [92F3E04A] [40242230]   CRC32
 01   92,5 [375893FD] [B8C12F6B]
 02   95,8 [4023CE98] [7676E67D]
 03   92,0 [E190E99E] [EE40CCEE]
 04   92,5 [95534F1B] [EC860CC2]
 05   92,1 [048106C0] [7F06FDEE]
 06   94,4 [34E375B2] [0495B762]
 07   96,8 [4AB31AE5] [DED7CD15]
 08   94,6 [078BE759] [2A356A7F]
 09   98,5 [A361F431] [3DD18C83]
 10   94,4 [0F7B9E1A] [43CB2E50]
 11   95,2 [35E20A6C] [16014B30]
 12   96,3 [5F7EA010] [036BCBDC]
 13   95,9 [97C31DB4] [E9623F5B]
 14  100,0 [199A9EC0] [4B90979D]
 15   92,0 [54E8BD23] [B0AF5AA5]
 16   91,5 [E82B2085] [C6250B1F]
 17   94,1 [D1410980] [6D5EA7AD]
 18   92,6 [A0192681] [90A56D77]
 19   99,1 [4EC77C7A] [A0B7E18F]
 20   96,2 [D1895BE7] [90B421B7]
 21   86,0 [1EE89E24] [4F5FB9C7]
 22  100,0 [DA6CF09F] [91DD9A7D]
 23  100,0 [8F2B4722] [183D09E2]
Della by Starlight (1960)
01. The Touch of Your Lips (3:19)
02. He Was Too Good for Me (3:23)
03. That Old Feeling (3:31)
04. I Had the Craziest Dream (3:57)
05. I Wish I Knew (3:26)
06. Lamplight (3:41)
07. How Did He Look? (4:22)
08. More Than You Know (4:32)
09. These Foolish Things (4:25)
10. Deep in a Dream (3:43)
11. Embraceable You (3:48)
12. Two Sleepy People (3:45)
What Do You Know About Love (1958)
13. What Do You Know About Love (3:11)
14. When I Fall in Love (3:13)
15. Something I Dreamed Last Night (3:37)
16. I Got It Bad (3:21)
17. I'll Never Be the Same (2:14)
18. You Better Go Now (2:47)
19. I'm Nobody's Baby (3:11)
20. I Never Knew (3:09)
21. I Thought of You Last Night (2:11)
22. You Don't Know What Love Is (2:42)
23. I'm Thru with Love (3:21)
24. That's All There Is (2:21)
Код:
Exact Audio Copy V1.3 from 2. September 2016
EAC extraction logfile from 25. March 2020, 15:55
Della Reese / Four Classic Albums - CD2
Used drive  : TSSTcorpCDDVDW SH-224FB   Adapter: 1  ID: 0
Read mode               : Secure
Utilize accurate stream : Yes
Defeat audio cache      : Yes
Make use of C2 pointers : No
Read offset correction                      : 6
Overread into Lead-In and Lead-Out          : No
Fill up missing offset samples with silence : Yes
Delete leading and trailing silent blocks   : No
Null samples used in CRC calculations       : Yes
Used interface                              : Native Win32 interface for Win NT & 2000
Used output format              : User Defined Encoder
Selected bitrate                : 128 kBit/s
Quality                         : High
Add ID3 tag                     : No
Command line compressor         : C:\Program Files (x86)\Exact Audio Copy\Flac\flac.exe
Additional command line options : -V -8 -T "Genre=%genre%" -T "Artist=%artist%" -T "Title=%title%" -T "Album=%albumtitle%" -T "Date=%year%" -T "Tracknumber=%tracknr%" -T "Comment=%comment%" %source%
TOC of the extracted CD
     Track |   Start  |  Length  | Start sector | End sector
    ---------------------------------------------------------
        1  |  0:00.00 |  3:18.56 |         0    |    14905
        2  |  3:18.56 |  3:23.27 |     14906    |    30157
        3  |  6:42.08 |  3:31.31 |     30158    |    46013
        4  | 10:13.39 |  3:57.17 |     46014    |    63805
        5  | 14:10.56 |  3:25.37 |     63806    |    79217
        6  | 17:36.18 |  3:41.04 |     79218    |    95796
        7  | 21:17.22 |  4:22.20 |     95797    |   115466
        8  | 25:39.42 |  4:31.55 |    115467    |   135846
        9  | 30:11.22 |  4:24.52 |    135847    |   155698
       10  | 34:35.74 |  3:43.20 |    155699    |   172443
       11  | 38:19.19 |  3:47.67 |    172444    |   189535
       12  | 42:07.11 |  3:45.19 |    189536    |   206429
       13  | 45:52.30 |  3:10.64 |    206430    |   220743
       14  | 49:03.19 |  3:12.72 |    220744    |   235215
       15  | 52:16.16 |  3:37.16 |    235216    |   251506
       16  | 55:53.32 |  3:21.13 |    251507    |   266594
       17  | 59:14.45 |  2:13.43 |    266595    |   276612
       18  | 61:28.13 |  2:47.14 |    276613    |   289151
       19  | 64:15.27 |  3:11.16 |    289152    |   303492
       20  | 67:26.43 |  3:08.58 |    303493    |   317650
       21  | 70:35.26 |  2:10.44 |    317651    |   327444
       22  | 72:45.70 |  2:41.38 |    327445    |   339557
       23  | 75:27.33 |  3:20.52 |    339558    |   354609
       24  | 78:48.10 |  2:20.65 |    354610    |   365174
Range status and errors
Selected range
     Filename D:\ssagwebster\Della Reese - Four Classic Albums (2CD, 2018)\CD2\Della Reese - Four Classic Albums - CD2.wav
     Peak level 100.0 %
     Extraction speed 8.2 X
     Range quality 100.0 %
     Test CRC 50C54716
     Copy CRC 50C54716
     Copy OK
No errors occurred
AccurateRip summary
Track  1  not present in database
Track  2  not present in database
Track  3  not present in database
Track  4  not present in database
Track  5  not present in database
Track  6  not present in database
Track  7  not present in database
Track  8  not present in database
Track  9  not present in database
Track 10  not present in database
Track 11  not present in database
Track 12  not present in database
Track 13  not present in database
Track 14  not present in database
Track 15  not present in database
Track 16  not present in database
Track 17  not present in database
Track 18  not present in database
Track 19  not present in database
Track 20  not present in database
Track 21  not present in database
Track 22  not present in database
Track 23  not present in database
Track 24  not present in database
None of the tracks are present in the AccurateRip database
End of status report
==== Log checksum F69DBF936E8C596D7A96A2EC077D4C3B3320E6F5837653485F8E035201C21AA7 ====
Код:
REM GENRE Jazz
REM DATE 2018
REM DISCID 60130518
REM COMMENT "ExactAudioCopy v1.3"
PERFORMER "Della Reese"
TITLE "Four Classic Albums CD2"
FILE "Della Reese - Four Classic Albums CD2.wav" WAVE
  TRACK 01 AUDIO
    TITLE "The Touch of Your Lips"
    PERFORMER "Della Reese"
    ISRC GBBMH1829524
    INDEX 01 00:00:00
  TRACK 02 AUDIO
    TITLE "He Was Too Good for Me"
    PERFORMER "Della Reese"
    ISRC GBBMH1829525
    INDEX 00 03:16:56
    INDEX 01 03:18:56
  TRACK 03 AUDIO
    TITLE "That Old Feeling"
    PERFORMER "Della Reese"
    ISRC GBBMH1829526
    INDEX 00 06:40:08
    INDEX 01 06:42:08
  TRACK 04 AUDIO
    TITLE "I Had the Craziest Dream"
    PERFORMER "Della Reese"
    ISRC GBBMH1829527
    INDEX 00 10:11:39
    INDEX 01 10:13:39
  TRACK 05 AUDIO
    TITLE "I Wish I Knew"
    PERFORMER "Della Reese"
    ISRC GBBMH1829528
    INDEX 00 14:08:56
    INDEX 01 14:10:56
  TRACK 06 AUDIO
    TITLE "Lamplight"
    PERFORMER "Della Reese"
    ISRC GBBMH1829529
    INDEX 00 17:34:18
    INDEX 01 17:36:18
  TRACK 07 AUDIO
    TITLE "How Did He Look?"
    PERFORMER "Della Reese"
    ISRC GBBMH1829530
    INDEX 00 21:15:22
    INDEX 01 21:17:22
  TRACK 08 AUDIO
    TITLE "More Than You Know"
    PERFORMER "Della Reese"
    ISRC GBBMH1829531
    INDEX 00 25:37:42
    INDEX 01 25:39:42
  TRACK 09 AUDIO
    TITLE "These Foolish Things"
    PERFORMER "Della Reese"
    ISRC GBBMH1829532
    INDEX 00 30:09:22
    INDEX 01 30:11:22
  TRACK 10 AUDIO
    TITLE "Deep in a Dream"
    PERFORMER "Della Reese"
    ISRC GBBMH1829533
    INDEX 00 34:33:74
    INDEX 01 34:35:74
  TRACK 11 AUDIO
    TITLE "Embraceable You"
    PERFORMER "Della Reese"
    ISRC GBBMH1829534
    INDEX 00 38:17:19
    INDEX 01 38:19:19
  TRACK 12 AUDIO
    TITLE "Two Sleepy People"
    PERFORMER "Della Reese"
    ISRC GBBMH1829535
    INDEX 00 42:05:11
    INDEX 01 42:07:11
  TRACK 13 AUDIO
    TITLE "What Do You Know About Love"
    PERFORMER "Della Reese"
    ISRC GBBMH1829536
    INDEX 00 45:50:30
    INDEX 01 45:52:30
  TRACK 14 AUDIO
    TITLE "When I Fall in Love"
    PERFORMER "Della Reese"
    ISRC GBBMH1829537
    INDEX 00 49:01:19
    INDEX 01 49:03:19
  TRACK 15 AUDIO
    TITLE "Something I Dreamed Last Night"
    PERFORMER "Della Reese"
    ISRC GBBMH1829538
    INDEX 00 52:14:16
    INDEX 01 52:16:16
  TRACK 16 AUDIO
    TITLE "I Got It Bad"
    PERFORMER "Della Reese"
    ISRC GBBMH1829539
    INDEX 00 55:51:32
    INDEX 01 55:53:32
  TRACK 17 AUDIO
    TITLE "I'll Never Be the Same"
    PERFORMER "Della Reese"
    ISRC GBBMH1829540
    INDEX 00 59:12:45
    INDEX 01 59:14:45
  TRACK 18 AUDIO
    TITLE "You Better Go Now"
    PERFORMER "Della Reese"
    ISRC GBBMH1829541
    INDEX 00 61:26:13
    INDEX 01 61:28:13
  TRACK 19 AUDIO
    TITLE "I'm Nobody's Baby"
    PERFORMER "Della Reese"
    ISRC GBBMH1829542
    INDEX 00 64:13:27
    INDEX 01 64:15:27
  TRACK 20 AUDIO
    TITLE "I Never Knew"
    PERFORMER "Della Reese"
    ISRC GBBMH1829543
    INDEX 00 67:24:43
    INDEX 01 67:26:43
  TRACK 21 AUDIO
    TITLE "I Thought of You Last Night"
    PERFORMER "Della Reese"
    ISRC GBBMH1829544
    INDEX 00 70:33:26
    INDEX 01 70:35:26
  TRACK 22 AUDIO
    TITLE "You Don't Know What Love Is"
    PERFORMER "Della Reese"
    ISRC GBBMH1829545
    INDEX 00 72:43:70
    INDEX 01 72:45:70
  TRACK 23 AUDIO
    TITLE "I'm Thru with Love"
    PERFORMER "Della Reese"
    ISRC GBBMH1829546
    INDEX 00 75:25:33
    INDEX 01 75:27:33
  TRACK 24 AUDIO
    TITLE "That's All There Is"
    PERFORMER "Della Reese"
    ISRC GBBMH1829547
    INDEX 00 78:46:10
    INDEX 01 78:48:10
Код:
[CUETools log; Date: 08.06.2020 19:27:08; Version: 2.1.6]
[CTDB TOCID: gR_3BuxjXgCpgONsiDohDBhpIIQ-] found.
Track | CTDB Status
  1   | (1/1) Accurately ripped
  2   | (1/1) Accurately ripped
  3   | (1/1) Accurately ripped
  4   | (1/1) Accurately ripped
  5   | (1/1) Accurately ripped
  6   | (1/1) Accurately ripped
  7   | (1/1) Accurately ripped
  8   | (1/1) Accurately ripped
  9   | (1/1) Accurately ripped
 10   | (1/1) Accurately ripped
 11   | (1/1) Accurately ripped
 12   | (1/1) Accurately ripped
 13   | (1/1) Accurately ripped
 14   | (1/1) Accurately ripped
 15   | (1/1) Accurately ripped
 16   | (1/1) Accurately ripped
 17   | (1/1) Accurately ripped
 18   | (1/1) Accurately ripped
 19   | (1/1) Accurately ripped
 20   | (1/1) Accurately ripped
 21   | (1/1) Accurately ripped
 22   | (1/1) Accurately ripped
 23   | (1/1) Accurately ripped
 24   | (1/1) Accurately ripped
[AccurateRip ID: 004a0d59-04f81e12-60130518] disk not present in database.
Track Peak [ CRC32  ] [W/O NULL] [  LOG   ]
 --  100,0 [50C54716] [F86DBF91]   CRC32
 01   92,2 [C7941B8D] [DB637655]
 02   89,0 [17BA6271] [55C9CE97]
 03   90,7 [FAED5394] [EA458536]
 04   83,5 [9C3711CB] [DF49A719]
 05   88,2 [716ABFA3] [1EB2DCEC]
 06   85,1 [2E0C35EE] [C46BA977]
 07   89,9 [BD99088B] [3348D713]
 08   93,0 [0C330E72] [7C858BEE]
 09   88,4 [E781C70E] [B9ED30CC]
 10   92,8 [58405D4C] [4B0BDC6F]
 11   89,1 [982C86B1] [14756ADD]
 12   92,2 [BAD81D09] [9D925310]
 13   89,3 [FAECDB82] [1CAD3050]
 14   97,1 [8095B7AA] [1E64E06B]
 15   98,3 [6C7EEDED] [8679881E]
 16   96,0 [F7C69792] [578DF7A0]
 17   99,2 [6A836CA2] [1E3353AB]
 18  100,0 [0571D4FB] [4BABEBBA]
 19   87,6 [4E6FAD51] [07A9F629]
 20  100,0 [2F0F5B60] [3966CC86]
 21   91,8 [3A0DB615] [5B417279]
 22   92,7 [509F52F6] [D0478FEF]
 23  100,0 [8B4A353C] [1C20E92C]
 24   91,4 [948CA6E0] [E97F870A]
Born in 1931, Delloreese Patricia Early, began singing gospel music at an early age and was hired to sing in Mahalia Jackson’s gospel group at age, only 11! Changing her name to Della Reese she began performing in nightclubs and fell under the influence of the great female jazz singers of the age, Ella Fitzgerald, Sarah Vaughan and Billie Holiday. Her singing career was defined by two long spells with major record companies, in 1953 she signed to Jubilee and later in 1959 to RCA. Our four fine selections show off the best of Della from both these periods. From Jubilee we have the wonderfully sultry, “What Do You Know About Love” and the themed concept album “The Story of the Blues” in which Della provides the introduction to each song. From RCA we present the sublimely lush albums “Della By Starlight” and “The Classic Della”. A fitting tribute to a great lady of music who passed away only last year (2017) at the age of 86.
Правила, инструкции, FAQ!!!
Торрент  Добавлен [22 июн 2020, 15:38] Скачать торрент Магнет ссылка
Скачать торрент
[ Размер 16.96 КБ / Просмотров 1 ]

Статус
Проверен 
 
Размер  783.29 МБ
Приватный: Нет (DHT включён)
.torrent скачан  0
 


     Отправить личное сообщение
   
Страница 1 из 1
Показать сообщения за:  Поле сортировки  
Начать новую тему Ответить на тему


Сейчас этот форум просматривают: нет зарегистрированных пользователей и гости: 0


Вы не можете начинать темы
Вы не можете отвечать на сообщения
Вы не можете редактировать свои сообщения
Вы не можете удалять свои сообщения
Вы не можете добавлять вложения

Перейти:  
cron
cron