Начать новую тему Ответить на тему
Статистика раздачи
Размер: 1003.89 МБ | Добавлен: 22 июн 2020, 15:38 | Скачали: 0
Сидеров: 0  [0 байт/сек]    Личеров: 0  [0 байт/сек]
Пред. тема | След. тема 

Автор
Сообщение

СообщениеДобавлено: 22 июн 2020, 15:38 

Ответить с цитатой 

Dee Dee Bridgewater - Dee Dee Bridgewater, Just Family, Bad for Me, Dee Dee Bridgewater (4 Classic Albums on 2CD's)
Жанр: Vocal Jazz
Носитель: CD
Страна-производитель диска (релиза): Великобритания
Год издания: 2020
Издатель (лейбл): Robinsongs
Номер по каталогу: QROBIN42CDD
Аудиокодек: FLAC (*.flac)
Тип рипа: tracks+.cue
Продолжительность: 02:34:36
Источник: redacted
Наличие сканов в содержимом раздачи: да
Dee Dee Bridgewater (1976)
01. My Prayer (Fast Version) (3:35)
02. My Lonely Room (4:53)
03. It Ain't Easy (3:32)
04. He's Gone (5:56)
05. Goin' Through the Motions (3:54)
06. You Saved Me (4:29)
07. Every Man Wants Another Man's Woman (4:09)
08. My Prayer (Ballad Version) (5:43)
Just Family (1978)
09. Just Family (5:06)
10. Maybe Today (6:56)
11. Children Are the Spirit of the World (3:08)
12. Sorry Seems to Be the Hardest Word (4:57)
13. Sweet Rain (3:08)
14. Open Up Your Eyes (5:34)
15. Night Movies (3:15)
16. Thank the Day (5:20)
17. Melody Maker (2:24)
Код:
Exact Audio Copy V1.3 from 2. September 2016
EAC extraction logfile from 3. February 2020, 19:31
Dee Dee Bridgewater / Dee Dee Bridgewater - Just Family
Used drive  : PLEXTOR PX-891SAF   Adapter: 1  ID: 0
Read mode               : Secure
Utilize accurate stream : Yes
Defeat audio cache      : Yes
Make use of C2 pointers : No
Read offset correction                      : 6
Overread into Lead-In and Lead-Out          : No
Fill up missing offset samples with silence : Yes
Delete leading and trailing silent blocks   : No
Null samples used in CRC calculations       : Yes
Used interface                              : Native Win32 interface for Win NT & 2000
Gap handling                                : Appended to previous track
Used output format              : User Defined Encoder
Selected bitrate                : 1024 kBit/s
Quality                         : High
Add ID3 tag                     : No
Command line compressor         : C:\Program Files (x86)\Exact Audio Copy\Flac\flac.exe
Additional command line options : -8 -V -T "ARTIST=%artist%" -T "TITLE=%title%" -T "ALBUM=%albumtitle%" -T "DATE=%year%" -T "TRACKNUMBER=%tracknr%" -T "GENRE=%genre%" -T "PERFORMER=%albuminterpret%" -T "COMPOSER=%composer%" %haslyrics%--tag-from-file=LYRICS="%lyricsfile%"%haslyrics% -T "ALBUMARTIST=%albumartist%" -T "DISCNUMBER=%cdnumber%" -T "TOTALDISCS=%totalcds%" -T "TOTALTRACKS=%numtracks%" -T "COMMENT=%comment%" %source% -o %dest%
TOC of the extracted CD
     Track |   Start  |  Length  | Start sector | End sector
    ---------------------------------------------------------
        1  |  0:00.00 |  3:34.54 |         0    |    16103
        2  |  3:34.54 |  4:52.59 |     16104    |    38062
        3  |  8:27.38 |  3:32.12 |     38063    |    53974
        4  | 11:59.50 |  5:55.46 |     53975    |    80645
        5  | 17:55.21 |  3:53.39 |     80646    |    98159
        6  | 21:48.60 |  4:29.30 |     98160    |   118364
        7  | 26:18.15 |  4:09.26 |    118365    |   137065
        8  | 30:27.41 |  5:43.01 |    137066    |   162791
        9  | 36:10.42 |  5:05.54 |    162792    |   185720
       10  | 41:16.21 |  6:55.56 |    185721    |   216901
       11  | 48:12.02 |  3:07.38 |    216902    |   230964
       12  | 51:19.40 |  4:57.28 |    230965    |   253267
       13  | 56:16.68 |  3:07.39 |    253268    |   267331
       14  | 59:24.32 |  5:33.44 |    267332    |   292350
       15  | 64:58.01 |  3:14.72 |    292351    |   306972
       16  | 68:12.73 |  5:19.41 |    306973    |   330938
       17  | 73:32.39 |  2:24.04 |    330939    |   341742
Track  1
     Filename D:\#cdr\#wav+flac\Dee Dee Bridgewater - Dee Dee Bridgewater - Just Family - Bad For Me\cd 1\01. Dee Dee Bridgewater - My Prayer (Fast Version).wav
     Pre-gap length  0:00:02.00
     Peak level 79.4 %
     Extraction speed 5.4 X
     Track quality 100.0 %
     Test CRC B1C1E09A
     Copy CRC B1C1E09A
     Track not present in AccurateRip database
     Copy OK
Track  2
     Filename D:\#cdr\#wav+flac\Dee Dee Bridgewater - Dee Dee Bridgewater - Just Family - Bad For Me\cd 1\02. Dee Dee Bridgewater - My Lonely Room.wav
     Pre-gap length  0:00:02.82
     Peak level 86.8 %
     Extraction speed 5.2 X
     Track quality 99.9 %
     Test CRC C097A88E
     Copy CRC C097A88E
     Track not present in AccurateRip database
     Copy OK
Track  3
     Filename D:\#cdr\#wav+flac\Dee Dee Bridgewater - Dee Dee Bridgewater - Just Family - Bad For Me\cd 1\03. Dee Dee Bridgewater - It Ain't Easy.wav
     Pre-gap length  0:00:03.01
     Peak level 89.1 %
     Extraction speed 5.2 X
     Track quality 99.9 %
     Test CRC 9317BD7E
     Copy CRC 9317BD7E
     Track not present in AccurateRip database
     Copy OK
Track  4
     Filename D:\#cdr\#wav+flac\Dee Dee Bridgewater - Dee Dee Bridgewater - Just Family - Bad For Me\cd 1\04. Dee Dee Bridgewater - He's Gone.wav
     Pre-gap length  0:00:03.02
     Peak level 90.2 %
     Extraction speed 7.1 X
     Track quality 100.0 %
     Test CRC 5C200133
     Copy CRC 5C200133
     Track not present in AccurateRip database
     Copy OK
Track  5
     Filename D:\#cdr\#wav+flac\Dee Dee Bridgewater - Dee Dee Bridgewater - Just Family - Bad For Me\cd 1\05. Dee Dee Bridgewater - Goin' Through the Motions.wav
     Pre-gap length  0:00:02.61
     Peak level 87.0 %
     Extraction speed 7.3 X
     Track quality 100.0 %
     Test CRC ED246681
     Copy CRC ED246681
     Track not present in AccurateRip database
     Copy OK
Track  6
     Filename D:\#cdr\#wav+flac\Dee Dee Bridgewater - Dee Dee Bridgewater - Just Family - Bad For Me\cd 1\06. Dee Dee Bridgewater - You Saved Me.wav
     Pre-gap length  0:00:03.92
     Peak level 81.7 %
     Extraction speed 7.8 X
     Track quality 100.0 %
     Test CRC 44934BDB
     Copy CRC 44934BDB
     Track not present in AccurateRip database
     Copy OK
Track  7
     Filename D:\#cdr\#wav+flac\Dee Dee Bridgewater - Dee Dee Bridgewater - Just Family - Bad For Me\cd 1\07. Dee Dee Bridgewater - Every Man Wants Another Man's Woman.wav
     Pre-gap length  0:00:03.68
     Peak level 75.7 %
     Extraction speed 6.8 X
     Track quality 99.9 %
     Test CRC 2E10F9C0
     Copy CRC 2E10F9C0
     Track not present in AccurateRip database
     Copy OK
Track  8
     Filename D:\#cdr\#wav+flac\Dee Dee Bridgewater - Dee Dee Bridgewater - Just Family - Bad For Me\cd 1\08. Dee Dee Bridgewater - My Prayer (Ballad Version).wav
     Pre-gap length  0:00:03.88
     Peak level 90.3 %
     Extraction speed 8.8 X
     Track quality 100.0 %
     Test CRC F10243F0
     Copy CRC F10243F0
     Track not present in AccurateRip database
     Copy OK
Track  9
     Filename D:\#cdr\#wav+flac\Dee Dee Bridgewater - Dee Dee Bridgewater - Just Family - Bad For Me\cd 1\09. Dee Dee Bridgewater - Just Family.wav
     Pre-gap length  0:00:05.30
     Peak level 95.2 %
     Extraction speed 9.1 X
     Track quality 100.0 %
     Test CRC 83749745
     Copy CRC 83749745
     Track not present in AccurateRip database
     Copy OK
Track 10
     Filename D:\#cdr\#wav+flac\Dee Dee Bridgewater - Dee Dee Bridgewater - Just Family - Bad For Me\cd 1\10. Dee Dee Bridgewater - Maybe Today.wav
     Pre-gap length  0:00:01.16
     Peak level 88.4 %
     Extraction speed 9.7 X
     Track quality 100.0 %
     Test CRC 3A70C015
     Copy CRC 3A70C015
     Track not present in AccurateRip database
     Copy OK
Track 11
     Filename D:\#cdr\#wav+flac\Dee Dee Bridgewater - Dee Dee Bridgewater - Just Family - Bad For Me\cd 1\11. Dee Dee Bridgewater - Children Are the Spirit of the World.wav
     Pre-gap length  0:00:02.82
     Peak level 90.6 %
     Extraction speed 9.1 X
     Track quality 100.0 %
     Test CRC A9ED6C85
     Copy CRC A9ED6C85
     Track not present in AccurateRip database
     Copy OK
Track 12
     Filename D:\#cdr\#wav+flac\Dee Dee Bridgewater - Dee Dee Bridgewater - Just Family - Bad For Me\cd 1\12. Dee Dee Bridgewater - Sorry Seems to Be the Hardest Word.wav
     Pre-gap length  0:00:02.82
     Peak level 90.6 %
     Extraction speed 10.1 X
     Track quality 100.0 %
     Test CRC 76AF65D9
     Copy CRC 76AF65D9
     Track not present in AccurateRip database
     Copy OK
Track 13
     Filename D:\#cdr\#wav+flac\Dee Dee Bridgewater - Dee Dee Bridgewater - Just Family - Bad For Me\cd 1\13. Dee Dee Bridgewater - Sweet Rain.wav
     Pre-gap length  0:00:02.05
     Peak level 97.7 %
     Extraction speed 9.7 X
     Track quality 100.0 %
     Test CRC 6B88C2A3
     Copy CRC 6B88C2A3
     Track not present in AccurateRip database
     Copy OK
Track 14
     Filename D:\#cdr\#wav+flac\Dee Dee Bridgewater - Dee Dee Bridgewater - Just Family - Bad For Me\cd 1\14. Dee Dee Bridgewater - Open up Your Eyes.wav
     Pre-gap length  0:00:04.01
     Peak level 90.6 %
     Extraction speed 10.9 X
     Track quality 100.0 %
     Test CRC F99B4F50
     Copy CRC F99B4F50
     Track not present in AccurateRip database
     Copy OK
Track 15
     Filename D:\#cdr\#wav+flac\Dee Dee Bridgewater - Dee Dee Bridgewater - Just Family - Bad For Me\cd 1\15. Dee Dee Bridgewater - Night Movies.wav
     Pre-gap length  0:00:02.18
     Peak level 90.6 %
     Extraction speed 10.2 X
     Track quality 100.0 %
     Test CRC D23FFDD1
     Copy CRC D23FFDD1
     Track not present in AccurateRip database
     Copy OK
Track 16
     Filename D:\#cdr\#wav+flac\Dee Dee Bridgewater - Dee Dee Bridgewater - Just Family - Bad For Me\cd 1\16. Dee Dee Bridgewater - Thank the Day.wav
     Pre-gap length  0:00:03.12
     Peak level 90.6 %
     Extraction speed 11.0 X
     Track quality 100.0 %
     Test CRC 57BD4A98
     Copy CRC 57BD4A98
     Track not present in AccurateRip database
     Copy OK
Track 17
     Filename D:\#cdr\#wav+flac\Dee Dee Bridgewater - Dee Dee Bridgewater - Just Family - Bad For Me\cd 1\17. Dee Dee Bridgewater - Melody Maker.wav
     Pre-gap length  0:00:03.33
     Peak level 67.5 %
     Extraction speed 9.9 X
     Track quality 100.0 %
     Test CRC 8CA53BC8
     Copy CRC 8CA53BC8
     Track not present in AccurateRip database
     Copy OK
None of the tracks are present in the AccurateRip database
No errors occurred
End of status report
---- CUETools DB Plugin V2.1.6
[CTDB TOCID: MN6D.7g.p853x9BUgQrtkqR6K3E-] disk not present in database
Submit result: MN6D.7g.p853x9BUgQrtkqR6K3E- has been uploaded
==== Log checksum 413CFB8132AAEBD0A9DAC77DAC2B614F05B0DC379B4B39723EC24020EC6A74D5 ====
Код:
REM GENRE Jazz
REM DATE 2020
REM DISCID F011CC11
REM COMMENT "ExactAudioCopy v1.3"
PERFORMER "Dee Dee Bridgewater"
TITLE "Dee Dee Bridgewater, Just Family"
FILE "01 - My Prayer (Fast Version).wav" WAVE
  TRACK 01 AUDIO
    TITLE "My Prayer (Fast Version)"
    PERFORMER "Dee Dee Bridgewater"
    ISRC USAT20200126
    INDEX 01 00:00:00
  TRACK 02 AUDIO
    TITLE "My Lonely Room"
    PERFORMER "Dee Dee Bridgewater"
    ISRC USAT20200128
    INDEX 00 03:31:67
FILE "02 - My Lonely Room.wav" WAVE
    INDEX 01 00:00:00
  TRACK 03 AUDIO
    TITLE "It Ain't Easy"
    PERFORMER "Dee Dee Bridgewater"
    ISRC USAT20200129
    INDEX 00 04:49:58
FILE "03 - It Ain't Easy.wav" WAVE
    INDEX 01 00:00:00
  TRACK 04 AUDIO
    TITLE "He's Gone"
    PERFORMER "Dee Dee Bridgewater"
    ISRC USAT20200130
    INDEX 00 03:29:10
FILE "04 - He's Gone.wav" WAVE
    INDEX 01 00:00:00
  TRACK 05 AUDIO
    TITLE "Goin' Through the Motions"
    PERFORMER "Dee Dee Bridgewater"
    ISRC USAT20200131
    INDEX 00 05:53:00
FILE "05 - Goin' Through the Motions.wav" WAVE
    INDEX 01 00:00:00
  TRACK 06 AUDIO
    TITLE "You Saved Me"
    PERFORMER "Dee Dee Bridgewater"
    ISRC USAT20200132
    INDEX 00 03:49:45
FILE "06 - You Saved Me.wav" WAVE
    INDEX 01 00:00:00
  TRACK 07 AUDIO
    TITLE "Every Man Wants Another Man's Woman"
    PERFORMER "Dee Dee Bridgewater"
    ISRC USAT20200133
    INDEX 00 04:25:54
FILE "07 - Every Man Wants Another Man's Woman.wav" WAVE
    INDEX 01 00:00:00
  TRACK 08 AUDIO
    TITLE "My Prayer (Ballad Version)"
    PERFORMER "Dee Dee Bridgewater"
    ISRC USAT20200127
    INDEX 00 04:05:35
FILE "08 - My Prayer (Ballad Version).wav" WAVE
    INDEX 01 00:00:00
  TRACK 09 AUDIO
    TITLE "Just Family"
    PERFORMER "Dee Dee Bridgewater"
    ISRC USEE10183543
    INDEX 00 05:37:53
FILE "09 - Just Family.wav" WAVE
    INDEX 01 00:00:00
  TRACK 10 AUDIO
    TITLE "Maybe Today"
    PERFORMER "Dee Dee Bridgewater"
    ISRC USEE10183544
    INDEX 00 05:04:42
FILE "10 - Maybe Today.wav" WAVE
    INDEX 01 00:00:00
  TRACK 11 AUDIO
    TITLE "Children Are the Spirit of the World"
    PERFORMER "Dee Dee Bridgewater"
    ISRC USEE10183545
    INDEX 00 06:52:69
FILE "11 - Children Are the Spirit of the World.wav" WAVE
    INDEX 01 00:00:00
  TRACK 12 AUDIO
    TITLE "Sorry Seems to Be the Hardest Word"
    PERFORMER "Dee Dee Bridgewater"
    ISRC USEE10183546
    INDEX 00 03:04:51
FILE "12 - Sorry Seems to Be the Hardest Word.wav" WAVE
    INDEX 01 00:00:00
  TRACK 13 AUDIO
    TITLE "Sweet Rain"
    PERFORMER "Dee Dee Bridgewater"
    ISRC USEE10183547
    INDEX 00 04:55:24
FILE "13 - Sweet Rain.wav" WAVE
    INDEX 01 00:00:00
  TRACK 14 AUDIO
    TITLE "Open Up Your Eyes"
    PERFORMER "Dee Dee Bridgewater"
    ISRC USEE10183548
    INDEX 00 03:03:38
FILE "14 - Open Up Your Eyes.wav" WAVE
    INDEX 01 00:00:00
  TRACK 15 AUDIO
    TITLE "Night Movies"
    PERFORMER "Dee Dee Bridgewater"
    ISRC USEE10183549
    INDEX 00 05:31:30
FILE "15 - Night Movies.wav" WAVE
    INDEX 01 00:00:00
  TRACK 16 AUDIO
    TITLE "Thank the Day"
    PERFORMER "Dee Dee Bridgewater"
    ISRC USEE10183550
    INDEX 00 03:11:63
FILE "16 - Thank the Day.wav" WAVE
    INDEX 01 00:00:00
  TRACK 17 AUDIO
    TITLE "Melody Maker"
    PERFORMER "Dee Dee Bridgewater"
    ISRC USEE10183551
    INDEX 00 05:16:16
FILE "17 - Melody Maker.wav" WAVE
    INDEX 01 00:00:00
Код:
[CUETools log; Date: 08.06.2020 15:39:26; Version: 2.1.6]
[CTDB TOCID: MN6D.7g.p853x9BUgQrtkqR6K3E-] found.
Track | CTDB Status
  1   | (4/4) Accurately ripped
  2   | (4/4) Accurately ripped
  3   | (4/4) Accurately ripped
  4   | (4/4) Accurately ripped
  5   | (4/4) Accurately ripped
  6   | (4/4) Accurately ripped
  7   | (4/4) Accurately ripped
  8   | (4/4) Accurately ripped
  9   | (4/4) Accurately ripped
 10   | (4/4) Accurately ripped
 11   | (4/4) Accurately ripped
 12   | (4/4) Accurately ripped
 13   | (4/4) Accurately ripped
 14   | (4/4) Accurately ripped
 15   | (4/4) Accurately ripped
 16   | (4/4) Accurately ripped
 17   | (4/4) Accurately ripped
[AccurateRip ID: 002fc7e5-02605929-f011cc11] found.
Track   [  CRC   |   V2   ] Status
 01     [5b92c8a9|a06b5ec3] (0+1/1) Accurately ripped
 02     [46a160c7|7cecb049] (0+1/1) Accurately ripped
 03     [9fad3670|c34c2c41] (0+1/1) Accurately ripped
 04     [0e1dec67|3d9100fc] (0+1/1) Accurately ripped
 05     [f1948b7b|046d3429] (0+1/1) Accurately ripped
 06     [c513258f|b4c404e1] (0+1/1) Accurately ripped
 07     [29b0cfd2|daa9fe09] (0+1/1) Accurately ripped
 08     [580ceeab|5c84757c] (0+1/1) Accurately ripped
 09     [36496710|bf8e4418] (0+1/1) Accurately ripped
 10     [001e0b73|4e0b46b7] (0+1/1) Accurately ripped
 11     [13202c2b|01256fd8] (0+1/1) Accurately ripped
 12     [6bd82a85|0699e326] (0+1/1) Accurately ripped
 13     [00adfd9f|420f39d6] (0+1/1) Accurately ripped
 14     [1e1ad981|b2b5058a] (0+1/1) Accurately ripped
 15     [c2b87036|4f59b944] (0+1/1) Accurately ripped
 16     [1c6d4983|89b7e940] (0+1/1) Accurately ripped
 17     [a72c1247|cc0e7050] (0+1/1) Accurately ripped
Track Peak [ CRC32  ] [W/O NULL] [  LOG   ]
 --   97,7 [5D5AAF90] [461F135A]
 01   79,4 [B1C1E09A] [CB2081DE]   CRC32
 02   86,8 [C097A88E] [176E9FD5]   CRC32
 03   89,1 [9317BD7E] [CBBE4B9C]   CRC32
 04   90,2 [5C200133] [6F524028]   CRC32
 05   87,0 [ED246681] [DC30ABD0]   CRC32
 06   81,6 [44934BDB] [EC7D8F88]   CRC32
 07   75,7 [2E10F9C0] [89D2BC44]   CRC32
 08   90,3 [F10243F0] [BB17EF73]   CRC32
 09   95,2 [83749745] [615829DF]   CRC32
 10   88,4 [3A70C015] [FBC98C11]   CRC32
 11   90,6 [A9ED6C85] [DDAF1563]   CRC32
 12   90,6 [76AF65D9] [1E3660EE]   CRC32
 13   97,7 [6B88C2A3] [73C837B4]   CRC32
 14   90,6 [F99B4F50] [AC43E316]   CRC32
 15   90,6 [D23FFDD1] [0263B224]   CRC32
 16   90,6 [57BD4A98] [CBCCB2C2]   CRC32
 17   67,5 [8CA53BC8] [71CAA3BD]   CRC32
Bad for Me (1979)
01. Bad for Me (5:40)
02. Back of Your Mind (3:21)
03. For the Girls (4:51)
04. Love Won't Let Me Go (4:04)
05. Streetsinger (3:38)
06. It's the Falling in Love (3:39)
07. Tequila Mockingbird (4:06)
08. Don't Say It (If You Don't Mean It) (4:16)
09. Is This What Feeling Gets? (4:00)
Dee Dee Bridgewater (1980)
10. Lonely Disco Dancer (4:59)
11. When Love Comes Knockin' (4:23)
12. One in a Million (Guy) (4:44)
13. Gunshots in the Night (6:30)
14. When You're in Love (6:30)
15. That's the Way Love Should Feel (4:27)
16. Give In to Love (5:13)
17. Jody (Whoever You Are) (4:16)
Код:
Exact Audio Copy V1.3 from 2. September 2016
EAC extraction logfile from 3. February 2020, 19:53
Dee Dee Bridgewater / Bad For Me - Dee Dee Bridgewater (1980) (Disc 2)
Used drive  : PLEXTOR PX-891SAF   Adapter: 1  ID: 0
Read mode               : Secure
Utilize accurate stream : Yes
Defeat audio cache      : Yes
Make use of C2 pointers : No
Read offset correction                      : 6
Overread into Lead-In and Lead-Out          : No
Fill up missing offset samples with silence : Yes
Delete leading and trailing silent blocks   : No
Null samples used in CRC calculations       : Yes
Used interface                              : Native Win32 interface for Win NT & 2000
Gap handling                                : Appended to previous track
Used output format              : User Defined Encoder
Selected bitrate                : 1024 kBit/s
Quality                         : High
Add ID3 tag                     : No
Command line compressor         : C:\Program Files (x86)\Exact Audio Copy\Flac\flac.exe
Additional command line options : -8 -V -T "ARTIST=%artist%" -T "TITLE=%title%" -T "ALBUM=%albumtitle%" -T "DATE=%year%" -T "TRACKNUMBER=%tracknr%" -T "GENRE=%genre%" -T "PERFORMER=%albuminterpret%" -T "COMPOSER=%composer%" %haslyrics%--tag-from-file=LYRICS="%lyricsfile%"%haslyrics% -T "ALBUMARTIST=%albumartist%" -T "DISCNUMBER=%cdnumber%" -T "TOTALDISCS=%totalcds%" -T "TOTALTRACKS=%numtracks%" -T "COMMENT=%comment%" %source% -o %dest%
TOC of the extracted CD
     Track |   Start  |  Length  | Start sector | End sector
    ---------------------------------------------------------
        1  |  0:00.00 |  5:39.51 |         0    |    25475
        2  |  5:39.51 |  3:21.18 |     25476    |    40568
        3  |  9:00.69 |  4:50.44 |     40569    |    62362
        4  | 13:51.38 |  4:03.53 |     62363    |    80640
        5  | 17:55.16 |  3:38.10 |     80641    |    97000
        6  | 21:33.26 |  3:39.14 |     97001    |   113439
        7  | 25:12.40 |  4:06.36 |    113440    |   131925
        8  | 29:19.01 |  4:16.37 |    131926    |   151162
        9  | 33:35.38 |  4:00.15 |    151163    |   169177
       10  | 37:35.53 |  4:58.71 |    169178    |   191598
       11  | 42:34.49 |  4:22.44 |    191599    |   211292
       12  | 46:57.18 |  4:44.26 |    211293    |   232618
       13  | 51:41.44 |  6:30.09 |    232619    |   261877
       14  | 58:11.53 |  6:30.14 |    261878    |   291141
       15  | 64:41.67 |  4:26.48 |    291142    |   311139
       16  | 69:08.40 |  5:12.49 |    311140    |   334588
       17  | 74:21.14 |  4:15.73 |    334589    |   353786
Track  1
     Filename D:\#cdr\#wav+flac\Dee Dee Bridgewater - Dee Dee Bridgewater - Just Family - Bad For Me\cd 2\01. Dee Dee Bridgewater - Bad for Me.wav
     Pre-gap length  0:00:02.00
     Peak level 97.7 %
     Extraction speed 5.9 X
     Track quality 100.0 %
     Test CRC 627C5BB1
     Copy CRC 627C5BB1
     Track not present in AccurateRip database
     Copy OK
Track  2
     Filename D:\#cdr\#wav+flac\Dee Dee Bridgewater - Dee Dee Bridgewater - Just Family - Bad For Me\cd 2\02. Dee Dee Bridgewater - Back of Your Mind.wav
     Pre-gap length  0:00:02.81
     Peak level 97.7 %
     Extraction speed 6.1 X
     Track quality 100.0 %
     Test CRC 09B4B336
     Copy CRC 09B4B336
     Track not present in AccurateRip database
     Copy OK
Track  3
     Filename D:\#cdr\#wav+flac\Dee Dee Bridgewater - Dee Dee Bridgewater - Just Family - Bad For Me\cd 2\03. Dee Dee Bridgewater - For the Girls.wav
     Pre-gap length  0:00:02.44
     Peak level 97.7 %
     Extraction speed 6.9 X
     Track quality 100.0 %
     Test CRC B57C35E1
     Copy CRC B57C35E1
     Track not present in AccurateRip database
     Copy OK
Track  4
     Filename D:\#cdr\#wav+flac\Dee Dee Bridgewater - Dee Dee Bridgewater - Just Family - Bad For Me\cd 2\04. Dee Dee Bridgewater - Love Won't Let Me Go.wav
     Pre-gap length  0:00:03.00
     Peak level 97.7 %
     Extraction speed 5.9 X
     Track quality 99.9 %
     Test CRC FE04167C
     Copy CRC FE04167C
     Track not present in AccurateRip database
     Copy OK
Track  5
     Filename D:\#cdr\#wav+flac\Dee Dee Bridgewater - Dee Dee Bridgewater - Just Family - Bad For Me\cd 2\05. Dee Dee Bridgewater - Streetsingers.wav
     Pre-gap length  0:00:01.82
     Peak level 97.7 %
     Extraction speed 6.1 X
     Track quality 99.9 %
     Test CRC BEE7F403
     Copy CRC BEE7F403
     Track not present in AccurateRip database
     Copy OK
Track  6
     Filename D:\#cdr\#wav+flac\Dee Dee Bridgewater - Dee Dee Bridgewater - Just Family - Bad For Me\cd 2\06. Dee Dee Bridgewater - It's the Falling in Love.wav
     Pre-gap length  0:00:02.57
     Peak level 97.7 %
     Extraction speed 7.7 X
     Track quality 100.0 %
     Test CRC CBC9F473
     Copy CRC CBC9F473
     Track not present in AccurateRip database
     Copy OK
Track  7
     Filename D:\#cdr\#wav+flac\Dee Dee Bridgewater - Dee Dee Bridgewater - Just Family - Bad For Me\cd 2\07. Dee Dee Bridgewater - Tequila Mockingbird.wav
     Pre-gap length  0:00:02.68
     Peak level 97.7 %
     Extraction speed 8.1 X
     Track quality 100.0 %
     Test CRC F81417F4
     Copy CRC F81417F4
     Track not present in AccurateRip database
     Copy OK
Track  8
     Filename D:\#cdr\#wav+flac\Dee Dee Bridgewater - Dee Dee Bridgewater - Just Family - Bad For Me\cd 2\08. Dee Dee Bridgewater - Don't Say It (If You Don't Mean It).wav
     Pre-gap length  0:00:02.58
     Peak level 97.7 %
     Extraction speed 8.5 X
     Track quality 100.0 %
     Test CRC D4D43F89
     Copy CRC D4D43F89
     Track not present in AccurateRip database
     Copy OK
Track  9
     Filename D:\#cdr\#wav+flac\Dee Dee Bridgewater - Dee Dee Bridgewater - Just Family - Bad For Me\cd 2\09. Dee Dee Bridgewater - Is This What Feeling Gets.wav
     Pre-gap length  0:00:02.58
     Peak level 97.7 %
     Extraction speed 8.7 X
     Track quality 100.0 %
     Test CRC DE314384
     Copy CRC DE314384
     Track not present in AccurateRip database
     Copy OK
Track 10
     Filename D:\#cdr\#wav+flac\Dee Dee Bridgewater - Dee Dee Bridgewater - Just Family - Bad For Me\cd 2\10. Dee Dee Bridgewater - Lonely Disco Dancer.wav
     Pre-gap length  0:00:03.26
     Peak level 97.7 %
     Extraction speed 9.3 X
     Track quality 100.0 %
     Test CRC 5D78DA68
     Copy CRC 5D78DA68
     Track not present in AccurateRip database
     Copy OK
Track 11
     Filename D:\#cdr\#wav+flac\Dee Dee Bridgewater - Dee Dee Bridgewater - Just Family - Bad For Me\cd 2\11. Dee Dee Bridgewater - When Love Comes (Knockin').wav
     Pre-gap length  0:00:02.81
     Peak level 97.7 %
     Extraction speed 8.0 X
     Track quality 99.9 %
     Test CRC 9E43F608
     Copy CRC 9E43F608
     Track not present in AccurateRip database
     Copy OK
Track 12
     Filename D:\#cdr\#wav+flac\Dee Dee Bridgewater - Dee Dee Bridgewater - Just Family - Bad For Me\cd 2\12. Dee Dee Bridgewater - One in a Million (Guy).wav
     Pre-gap length  0:00:02.02
     Peak level 97.7 %
     Extraction speed 9.9 X
     Track quality 100.0 %
     Test CRC AFBE7136
     Copy CRC AFBE7136
     Track not present in AccurateRip database
     Copy OK
Track 13
     Filename D:\#cdr\#wav+flac\Dee Dee Bridgewater - Dee Dee Bridgewater - Just Family - Bad For Me\cd 2\13. Dee Dee Bridgewater - Gunshots in the Night.wav
     Pre-gap length  0:00:01.69
     Peak level 97.7 %
     Extraction speed 9.3 X
     Track quality 99.9 %
     Test CRC 1DC35D0A
     Copy CRC 1DC35D0A
     Track not present in AccurateRip database
     Copy OK
Track 14
     Filename D:\#cdr\#wav+flac\Dee Dee Bridgewater - Dee Dee Bridgewater - Just Family - Bad For Me\cd 2\14. Dee Dee Bridgewater - When You're in Love.wav
     Pre-gap length  0:00:02.21
     Peak level 97.7 %
     Extraction speed 11.0 X
     Track quality 100.0 %
     Test CRC 6231F4D2
     Copy CRC 6231F4D2
     Track not present in AccurateRip database
     Copy OK
Track 15
     Filename D:\#cdr\#wav+flac\Dee Dee Bridgewater - Dee Dee Bridgewater - Just Family - Bad For Me\cd 2\15. Dee Dee Bridgewater - That's the Way Love Should Feel.wav
     Pre-gap length  0:00:02.32
     Peak level 97.6 %
     Extraction speed 10.8 X
     Track quality 100.0 %
     Test CRC CFE69EE7
     Copy CRC CFE69EE7
     Track not present in AccurateRip database
     Copy OK
Track 16
     Filename D:\#cdr\#wav+flac\Dee Dee Bridgewater - Dee Dee Bridgewater - Just Family - Bad For Me\cd 2\16. Dee Dee Bridgewater - Give in to Love.wav
     Pre-gap length  0:00:02.61
     Peak level 97.7 %
     Extraction speed 11.2 X
     Track quality 100.0 %
     Test CRC 4F18D5FD
     Copy CRC 4F18D5FD
     Track not present in AccurateRip database
     Copy OK
Track 17
     Filename D:\#cdr\#wav+flac\Dee Dee Bridgewater - Dee Dee Bridgewater - Just Family - Bad For Me\cd 2\17. Dee Dee Bridgewater - Jody (Whoever You Are).wav
     Pre-gap length  0:00:01.44
     Peak level 97.7 %
     Extraction speed 9.3 X
     Track quality 99.9 %
     Test CRC F8908BF6
     Copy CRC F8908BF6
     Track not present in AccurateRip database
     Copy OK
None of the tracks are present in the AccurateRip database
No errors occurred
End of status report
---- CUETools DB Plugin V2.1.6
[CTDB TOCID: t9i5au6sYlqdd4mQ1CbC6pw5le4-] disk not present in database
Submit result: t9i5au6sYlqdd4mQ1CbC6pw5le4- has been uploaded
==== Log checksum 327E7CB842A167CE148055CFF2B2B4C651A824D388835916E5031F70F109C941 ====
Код:
REM GENRE Jazz
REM DATE 2020
REM DISCID E8126D11
REM COMMENT "ExactAudioCopy v1.3"
PERFORMER "Dee Dee Bridgewater"
TITLE "Bad for Me, Dee Dee Bridgewater"
FILE "01 - Bad for Me.wav" WAVE
  TRACK 01 AUDIO
    TITLE "Bad for Me"
    PERFORMER "Dee Dee Bridgewater"
    ISRC USEE10183962
    INDEX 01 00:00:00
  TRACK 02 AUDIO
    TITLE "Back of Your Mind"
    PERFORMER "Dee Dee Bridgewater"
    ISRC USEE10183963
    INDEX 00 05:36:65
FILE "02 - Back of Your Mind.wav" WAVE
    INDEX 01 00:00:00
  TRACK 03 AUDIO
    TITLE "For the Girls"
    PERFORMER "Dee Dee Bridgewater"
    ISRC USEE10183964
    INDEX 00 03:18:60
FILE "03 - For the Girls.wav" WAVE
    INDEX 01 00:00:00
  TRACK 04 AUDIO
    TITLE "Love Won't Let Me Go"
    PERFORMER "Dee Dee Bridgewater"
    ISRC USEE10184020
    INDEX 00 04:47:44
FILE "04 - Love Won't Let Me Go.wav" WAVE
    INDEX 01 00:00:00
  TRACK 05 AUDIO
    TITLE "Streetsinger"
    PERFORMER "Dee Dee Bridgewater"
    ISRC USEE10184021
    INDEX 00 04:01:66
FILE "05 - Streetsinger.wav" WAVE
    INDEX 01 00:00:00
  TRACK 06 AUDIO
    TITLE "It's the Falling in Love"
    PERFORMER "Dee Dee Bridgewater"
    ISRC USEE10701626
    INDEX 00 03:35:42
FILE "06 - It's the Falling in Love.wav" WAVE
    INDEX 01 00:00:00
  TRACK 07 AUDIO
    TITLE "Tequila Mockingbird"
    PERFORMER "Dee Dee Bridgewater"
    ISRC USEE10184023
    INDEX 00 03:36:38
FILE "07 - Tequila Mockingbird.wav" WAVE
    INDEX 01 00:00:00
  TRACK 08 AUDIO
    TITLE "Don't Say It (If You Don't Mean It)"
    PERFORMER "Dee Dee Bridgewater"
    ISRC USEE10184024
    INDEX 00 04:03:67
FILE "08 - Don't Say It (If You Don't Mean It).wav" WAVE
    INDEX 01 00:00:00
  TRACK 09 AUDIO
    TITLE "Is This What Feeling Gets?"
    PERFORMER "Dee Dee Bridgewater"
    ISRC USEE10184025
    INDEX 00 04:13:68
FILE "09 - Is This What Feeling Gets.wav" WAVE
    INDEX 01 00:00:00
  TRACK 10 AUDIO
    TITLE "Lonely Disco Dancer"
    PERFORMER "Dee Dee Bridgewater"
    ISRC USEE10502122
    INDEX 00 03:56:70
FILE "10 - Lonely Disco Dancer.wav" WAVE
    INDEX 01 00:00:00
  TRACK 11 AUDIO
    TITLE "When Love Comes Knockin'"
    PERFORMER "Dee Dee Bridgewater"
    ISRC USEE10502125
    INDEX 00 04:56:10
FILE "11 - When Love Comes Knockin'.wav" WAVE
    INDEX 01 00:00:00
  TRACK 12 AUDIO
    TITLE "One in a Million (Guy)"
    PERFORMER "Dee Dee Bridgewater"
    ISRC USEE10502123
    INDEX 00 04:20:42
FILE "12 - One in a Million (Guy).wav" WAVE
    INDEX 01 00:00:00
  TRACK 13 AUDIO
    TITLE "Gunshots in the Night"
    PERFORMER "Dee Dee Bridgewater"
    ISRC USEE10502120
    INDEX 00 04:42:49
FILE "13 - Gunshots in the Night.wav" WAVE
    INDEX 01 00:00:00
  TRACK 14 AUDIO
    TITLE "When You're in Love"
    PERFORMER "Dee Dee Bridgewater"
    ISRC USEE10502126
    INDEX 00 06:27:68
FILE "14 - When You're in Love.wav" WAVE
    INDEX 01 00:00:00
  TRACK 15 AUDIO
    TITLE "That's the Way Love Should Feel"
    PERFORMER "Dee Dee Bridgewater"
    ISRC USAT20506527
    INDEX 00 06:27:65
FILE "15 - That's the Way Love Should Feel.wav" WAVE
    INDEX 01 00:00:00
  TRACK 16 AUDIO
    TITLE "Give In to Love"
    PERFORMER "Dee Dee Bridgewater"
    ISRC USEE10502119
    INDEX 00 04:24:02
FILE "16 - Give In to Love.wav" WAVE
    INDEX 01 00:00:00
  TRACK 17 AUDIO
    TITLE "Jody (Whoever You Are)"
    PERFORMER "Dee Dee Bridgewater"
    ISRC USEE10502121
    INDEX 00 05:11:16
FILE "17 - Jody (Whoever You Are).wav" WAVE
    INDEX 01 00:00:00
Код:
[CUETools log; Date: 08.06.2020 15:39:32; Version: 2.1.6]
[CTDB TOCID: t9i5au6sYlqdd4mQ1CbC6pw5le4-] found.
Track | CTDB Status
  1   | (4/4) Accurately ripped
  2   | (4/4) Accurately ripped
  3   | (4/4) Accurately ripped
  4   | (4/4) Accurately ripped
  5   | (4/4) Accurately ripped
  6   | (4/4) Accurately ripped
  7   | (4/4) Accurately ripped
  8   | (4/4) Accurately ripped
  9   | (4/4) Accurately ripped
 10   | (4/4) Accurately ripped
 11   | (4/4) Accurately ripped
 12   | (4/4) Accurately ripped
 13   | (4/4) Accurately ripped
 14   | (4/4) Accurately ripped
 15   | (4/4) Accurately ripped
 16   | (4/4) Accurately ripped
 17   | (4/4) Accurately ripped
[AccurateRip ID: 002eb05c-0253c3d3-e8126d11] found.
Track   [  CRC   |   V2   ] Status
 01     [d27cb23c|1bf3c78a] (0+1/1) Accurately ripped
 02     [4aad94f8|6581b8c3] (0+1/1) Accurately ripped
 03     [505db061|77e1c874] (0+1/1) Accurately ripped
 04     [b6266221|90625b77] (0+1/1) Accurately ripped
 05     [ebede7f8|5db00ea2] (0+1/1) Accurately ripped
 06     [80c67510|27fb58c7] (0+1/1) Accurately ripped
 07     [d8110120|5cf4e874] (0+1/1) Accurately ripped
 08     [b13cb921|631d805c] (0+1/1) Accurately ripped
 09     [98ed2355|decb7246] (0+1/1) Accurately ripped
 10     [48207cea|f9b09406] (0+1/1) Accurately ripped
 11     [41102c2f|672a171b] (0+1/1) Accurately ripped
 12     [067b7f06|c0bd5096] (0+1/1) Accurately ripped
 13     [8855f5cc|f2f435c0] (0+1/1) Accurately ripped
 14     [94ee9912|0044aefc] (0+1/1) Accurately ripped
 15     [b346c46a|1b58b4d5] (0+1/1) Accurately ripped
 16     [865f213c|8b7e61cd] (0+1/1) Accurately ripped
 17     [96153fb3|17edb25f] (0+1/1) Accurately ripped
Track Peak [ CRC32  ] [W/O NULL] [  LOG   ]
 --   97,7 [ABAE24A8] [111DEBEF]
 01   97,7 [627C5BB1] [D0FA18C4]   CRC32
 02   97,7 [09B4B336] [339E738C]   CRC32
 03   97,7 [B57C35E1] [1D8E4FE3]   CRC32
 04   97,7 [FE04167C] [2D02B116]   CRC32
 05   97,7 [BEE7F403] [9D782809]   CRC32
 06   97,7 [CBC9F473] [A129FE81]   CRC32
 07   97,7 [F81417F4] [19985768]   CRC32
 08   97,7 [D4D43F89] [E24CC48F]   CRC32
 09   97,7 [DE314384] [0ECA69FC]   CRC32
 10   97,7 [5D78DA68] [344A66A3]   CRC32
 11   97,7 [9E43F608] [4572B81F]   CRC32
 12   97,7 [AFBE7136] [99A11947]   CRC32
 13   97,7 [1DC35D0A] [2079111F]   CRC32
 14   97,7 [6231F4D2] [8DDBE627]   CRC32
 15   97,6 [CFE69EE7] [43C3DD25]   CRC32
 16   97,7 [4F18D5FD] [64D93A69]   CRC32
 17   97,7 [F8908BF6] [6F1B490C]   CRC32
Singer & actress Dee Dee Bridgewater recorded four albums for the Warner Brothers group of labels between 1976 and 1980, one for Atlantic and three for Elektra; for the very first time Robinsongs have combined these Albums on a 4 on 2 CD collection.
• “Dee Dee Bridgewater” the Atlantic album kicks the package off and features ‘Going Through The Motions’ and both the fast & ballad versions of ‘My Prayer’, which were released as singles. The album “Just Family” completes the first disc and this Stanley Clarke produced album featured a who’s who in the Jazz Funk world, including George Duke, Harvey Mason, Ronnie Foster and Chick Corea to name but a few. Stanley Clarke also played bass on selected tracks. The “Just Family” album includes ‘Sweet Rain’ and ‘Just Family’, both released as singles and a fantastic version of Elton John’s ‘Sorry Seems To Be The Hardest Word’.
• Disc Two kicks off with the George Duke produced “Bad For Me” album, and the title track was also a Billboard Top 40 R&B hit. As per previous albums, it also featured some amazing players such as Sheila E on percussion, Greg Phillinganes on keyboards, Alphonso Johnson on bass and Roland Bautista of Earth Wind & Fire fame on guitar.
• Completing Disc Two is the self-titled Elektra album which was produced by Bell & James and Thom Bell. This 1980 album features the single ‘One In A Million (Guy)’ and the club classic ‘Lonely Disco Dancer’.
• Dee Dee Bridgewater, three-time Grammy winner, would also be known as playing The God Witch in the Broadway version of The Wiz.
• With sleeve notes from Lois Wilson, this package really delivers to lovers of great soul music.
Правила, инструкции, FAQ!!!
Торрент  Добавлен [22 июн 2020, 15:38] Скачать торрент Магнет ссылка
Скачать торрент
[ Размер 23.53 КБ / Просмотров 1 ]

Статус
Проверен 
 
Размер  1003.89 МБ
Приватный: Нет (DHT включён)
.torrent скачан  0
 


     Отправить личное сообщение
   
Страница 1 из 1
Показать сообщения за:  Поле сортировки  
Начать новую тему Ответить на тему


Сейчас этот форум просматривают: нет зарегистрированных пользователей и гости: 0


Вы не можете начинать темы
Вы не можете отвечать на сообщения
Вы не можете редактировать свои сообщения
Вы не можете удалять свои сообщения
Вы не можете добавлять вложения

Перейти:  
cron
cron