Начать новую тему Ответить на тему
Статистика раздачи
Размер: 222.94 МБ | Добавлен: 22 июн 2020, 15:37 | Скачали: 0
Сидеров: 0  [0 байт/сек]    Личеров: 0  [0 байт/сек]
Пред. тема | След. тема 

Автор
Сообщение

СообщениеДобавлено: 22 июн 2020, 15:37 

Ответить с цитатой 

Cleo Laine - Portrait of a Song Stylist
Жанр: Vocal Jazz
Носитель: CD
Страна-производитель диска (релиза): Великобритания
Год издания: 1989
Издатель (лейбл): The Harmony Collection
Номер по каталогу: HARCD 107
Аудиокодек: FLAC (*.flac)
Тип рипа: tracks+.cue
Продолжительность: 00:44:39
Источник: Jaylad73
Наличие сканов в содержимом раздачи: нет
Треклист:
01. On a Clear Day (3:10)
02. I Could Write a Book (2:29)
03. The Look of Love (3:00)
04. Come Rain or Come Shine (1:58)
05. Fascinating Rhythm (3:30)
06. I Can Dream Can't I (3:03)
07. I Cover the Waterfront (2:56)
08. I'm a Dreamer, Aren't We All? (2:40)
09. I've Got It Bad and That Ain't Good (4:32)
10. Please Don't Talk About Me When I'm Gone (4:02)
11. They Say It's Wonderful (2:51)
12. St. Louis Blues (3:39)
13. The Lady Sings the Blues (3:33)
14. Stormy Weather (3:16)
Код:
Exact Audio Copy V1.0 beta 6 from 9. April 2015
EAC extraction logfile from 29. February 2020, 17:13
Cleo Laine / Portrait Of A Song Stylist
Used drive  : TSSTcorpCDDVDW SN-S083F   Adapter: 1  ID: 0
Read mode               : Secure
Utilize accurate stream : Yes
Defeat audio cache      : Yes
Make use of C2 pointers : No
Read offset correction                      : 6
Overread into Lead-In and Lead-Out          : No
Fill up missing offset samples with silence : Yes
Delete leading and trailing silent blocks   : No
Null samples used in CRC calculations       : Yes
Used interface                              : Native Win32 interface for Win NT & 2000
Gap handling                                : Appended to previous track
Used output format              : User Defined Encoder
Selected bitrate                : 1024 kBit/s
Quality                         : High
Add ID3 tag                     : No
Command line compressor         : C:\Program Files (x86)\Exact Audio Copy\Flac\flac.exe
Additional command line options : -8 -e -V -T "ARTIST=%artist%" -T "TITLE=%title%" -T "ALBUM=%albumtitle%" -T "DATE=%year%" -T "TRACKNUMBER=%tracknr1%" -T "GENRE=%genre%" -T "PERFORMER=%albuminterpret%" -T "COMPOSER=%composer%" %haslyrics%--tag-from-file=LYRICS="%lyricsfile%"%haslyrics% -T "ALBUMARTIST=%albumartist%" -T "DISCNUMBER=%cdnumber%" -T "TOTALDISCS=%totalcds%" -T "TOTALTRACKS=%numtracks%" -T "COMMENT=%comment%" %source% -o %dest%
TOC of the extracted CD
     Track |   Start  |  Length  | Start sector | End sector
    ---------------------------------------------------------
        1  |  0:00.32 |  3:09.68 |        32    |    14274
        2  |  3:10.25 |  2:28.67 |     14275    |    25441
        3  |  5:39.17 |  3:00.00 |     25442    |    38941
        4  |  8:39.17 |  1:57.50 |     38942    |    47766
        5  | 10:36.67 |  3:30.00 |     47767    |    63516
        6  | 14:06.67 |  3:02.50 |     63517    |    77216
        7  | 17:09.42 |  2:56.25 |     77217    |    90441
        8  | 20:05.67 |  2:39.45 |     90442    |   102411
        9  | 22:45.37 |  4:31.70 |    102412    |   122806
       10  | 27:17.32 |  4:02.23 |    122807    |   140979
       11  | 31:19.55 |  2:51.30 |    140980    |   153834
       12  | 34:11.10 |  3:38.52 |    153835    |   170236
       13  | 37:49.62 |  3:32.68 |    170237    |   186204
       14  | 41:22.55 |  3:15.52 |    186205    |   200881
Track  1
     Filename E:\EAC rips\1 ups\To Do\1 Not Ripped yet\1qc\Cleo Laine - Portrait of a Song Stylist (1989) [FLAC]\01 On A Clear Day.wav
     Pre-gap length  0:00:02.42
     Peak level 77.0 %
     Extraction speed 1.2 X
     Track quality 99.9 %
     Test CRC 7CAE59BF
     Copy CRC 7CAE59BF
     Accurately ripped (confidence 1)  [6EA6CB29]  (AR v2)
     Copy OK
Track  2
     Filename E:\EAC rips\1 ups\To Do\1 Not Ripped yet\1qc\Cleo Laine - Portrait of a Song Stylist (1989) [FLAC]\02 I Could Write A Book.wav
     Pre-gap length  0:00:02.76
     Peak level 85.3 %
     Extraction speed 1.6 X
     Track quality 100.0 %
     Test CRC FA274AF2
     Copy CRC FA274AF2
     Accurately ripped (confidence 1)  [83FCED82]  (AR v2)
     Copy OK
Track  3
     Filename E:\EAC rips\1 ups\To Do\1 Not Ripped yet\1qc\Cleo Laine - Portrait of a Song Stylist (1989) [FLAC]\03 The Look Of Love.wav
     Pre-gap length  0:00:03.57
     Peak level 78.1 %
     Extraction speed 1.8 X
     Track quality 100.0 %
     Test CRC E37DFB59
     Copy CRC E37DFB59
     Accurately ripped (confidence 1)  [A8CFCB14]  (AR v2)
     Copy OK
Track  4
     Filename E:\EAC rips\1 ups\To Do\1 Not Ripped yet\1qc\Cleo Laine - Portrait of a Song Stylist (1989) [FLAC]\04 Come Rain Or Come Shine.wav
     Pre-gap length  0:00:02.42
     Peak level 62.4 %
     Extraction speed 1.7 X
     Track quality 100.0 %
     Test CRC C80A98FE
     Copy CRC C80A98FE
     Accurately ripped (confidence 1)  [3836ED56]  (AR v2)
     Copy OK
Track  5
     Filename E:\EAC rips\1 ups\To Do\1 Not Ripped yet\1qc\Cleo Laine - Portrait of a Song Stylist (1989) [FLAC]\05 Fascinating Rhythm.wav
     Pre-gap length  0:00:02.42
     Peak level 59.2 %
     Extraction speed 2.1 X
     Track quality 100.0 %
     Test CRC EA03FBFE
     Copy CRC EA03FBFE
     Accurately ripped (confidence 1)  [0CD8919C]  (AR v2)
     Copy OK
Track  6
     Filename E:\EAC rips\1 ups\To Do\1 Not Ripped yet\1qc\Cleo Laine - Portrait of a Song Stylist (1989) [FLAC]\06 I Can Dream Can't I.wav
     Pre-gap length  0:00:02.72
     Peak level 59.3 %
     Extraction speed 2.1 X
     Track quality 100.0 %
     Test CRC A04716B9
     Copy CRC A04716B9
     Accurately ripped (confidence 1)  [38B39B18]  (AR v2)
     Copy OK
Track  7
     Filename E:\EAC rips\1 ups\To Do\1 Not Ripped yet\1qc\Cleo Laine - Portrait of a Song Stylist (1989) [FLAC]\07 I Cover The Waterfront.wav
     Pre-gap length  0:00:02.96
     Peak level 70.6 %
     Extraction speed 2.2 X
     Track quality 100.0 %
     Test CRC E46863E1
     Copy CRC E46863E1
     Accurately ripped (confidence 1)  [B9ED0F22]  (AR v2)
     Copy OK
Track  8
     Filename E:\EAC rips\1 ups\To Do\1 Not Ripped yet\1qc\Cleo Laine - Portrait of a Song Stylist (1989) [FLAC]\08 I'm A Dreamer, Aren't We All.wav
     Pre-gap length  0:00:03.42
     Peak level 58.3 %
     Extraction speed 2.3 X
     Track quality 100.0 %
     Test CRC 409D91C4
     Copy CRC 409D91C4
     Accurately ripped (confidence 1)  [AC92C9AE]  (AR v2)
     Copy OK
Track  9
     Filename E:\EAC rips\1 ups\To Do\1 Not Ripped yet\1qc\Cleo Laine - Portrait of a Song Stylist (1989) [FLAC]\09 I've Got It Bad And That Ain't Good.wav
     Pre-gap length  0:00:02.32
     Peak level 45.9 %
     Extraction speed 2.0 X
     Track quality 99.9 %
     Test CRC 39453198
     Copy CRC 39453198
     Accurately ripped (confidence 1)  [7048DF1F]  (AR v2)
     Copy OK
Track 10
     Filename E:\EAC rips\1 ups\To Do\1 Not Ripped yet\1qc\Cleo Laine - Portrait of a Song Stylist (1989) [FLAC]\10 Please Don't Talk About Me When I'm Gone.wav
     Pre-gap length  0:00:03.29
     Peak level 75.7 %
     Extraction speed 2.7 X
     Track quality 100.0 %
     Test CRC 5B5ACCB0
     Copy CRC 5B5ACCB0
     Accurately ripped (confidence 1)  [0B5C5B05]  (AR v2)
     Copy OK
Track 11
     Filename E:\EAC rips\1 ups\To Do\1 Not Ripped yet\1qc\Cleo Laine - Portrait of a Song Stylist (1989) [FLAC]\11 They Say It's Wonderful.wav
     Pre-gap length  0:00:03.89
     Peak level 47.0 %
     Extraction speed 2.6 X
     Track quality 100.0 %
     Test CRC B6B45221
     Copy CRC B6B45221
     Accurately ripped (confidence 1)  [5AB17865]  (AR v2)
     Copy OK
Track 12
     Filename E:\EAC rips\1 ups\To Do\1 Not Ripped yet\1qc\Cleo Laine - Portrait of a Song Stylist (1989) [FLAC]\12 St. Louis Blues.wav
     Pre-gap length  0:00:02.89
     Peak level 92.5 %
     Extraction speed 2.8 X
     Track quality 100.0 %
     Test CRC D0F20E53
     Copy CRC D0F20E53
     Accurately ripped (confidence 1)  [0B1B84BA]  (AR v2)
     Copy OK
Track 13
     Filename E:\EAC rips\1 ups\To Do\1 Not Ripped yet\1qc\Cleo Laine - Portrait of a Song Stylist (1989) [FLAC]\13 The Lady Sings The Blues.wav
     Pre-gap length  0:00:03.56
     Peak level 85.0 %
     Extraction speed 2.9 X
     Track quality 100.0 %
     Test CRC 28FBFB65
     Copy CRC 28FBFB65
     Accurately ripped (confidence 1)  [E174A482]  (AR v2)
     Copy OK
Track 14
     Filename E:\EAC rips\1 ups\To Do\1 Not Ripped yet\1qc\Cleo Laine - Portrait of a Song Stylist (1989) [FLAC]\14 Stormy Weather.wav
     Pre-gap length  0:00:02.93
     Peak level 97.0 %
     Extraction speed 2.9 X
     Track quality 100.0 %
     Test CRC AFA4256C
     Copy CRC AFA4256C
     Accurately ripped (confidence 1)  [67C52C53]  (AR v2)
     Copy OK
All tracks accurately ripped
No errors occurred
End of status report
---- CUETools DB Plugin V2.1.6
[CTDB TOCID: jrqf61_PGIDcqtRTUnS2S_DrlDM-] found
Submit result: jrqf61_PGIDcqtRTUnS2S_DrlDM- has been confirmed
Track | CTDB Status
  1   | (1/2) Accurately ripped
  2   | (1/2) Accurately ripped
  3   | (1/2) Accurately ripped
  4   | (1/2) Accurately ripped
  5   | (1/2) Accurately ripped
  6   | (1/2) Accurately ripped
  7   | (1/2) Accurately ripped
  8   | (1/2) Accurately ripped
  9   | (1/2) Accurately ripped
 10   | (1/2) Accurately ripped
 11   | (1/2) Accurately ripped
 12   | (1/2) Accurately ripped
 13   | (1/2) Accurately ripped
 14   | (2/2) Accurately ripped
==== Log checksum 0622901E498DA75FF7972D477177F6368B857925CD1E559D7F629A67674F2E64 ====
Код:
REM GENRE Jazz
REM DATE 1989
REM DISCID B00A760E
REM COMMENT "ExactAudioCopy v1.0b6"
PERFORMER "Cleo Laine"
TITLE "Portrait of a Song Stylist"
FILE "01 - On a Clear Day.wav" WAVE
  TRACK 01 AUDIO
    TITLE "On a Clear Day"
    PERFORMER "Cleo Laine"
    PREGAP 00:00:32
    INDEX 01 00:00:00
  TRACK 02 AUDIO
    TITLE "I Could Write a Book"
    PERFORMER "Cleo Laine"
    INDEX 00 03:07:11
FILE "02 - I Could Write a Book.wav" WAVE
    INDEX 01 00:00:00
  TRACK 03 AUDIO
    TITLE "The Look of Love"
    PERFORMER "Cleo Laine"
    INDEX 00 02:25:24
FILE "03 - The Look of Love.wav" WAVE
    INDEX 01 00:00:00
  TRACK 04 AUDIO
    TITLE "Come Rain or Come Shine"
    PERFORMER "Cleo Laine"
    INDEX 00 02:57:43
FILE "04 - Come Rain or Come Shine.wav" WAVE
    INDEX 01 00:00:00
  TRACK 05 AUDIO
    TITLE "Fascinating Rhythm"
    PERFORMER "Cleo Laine"
    INDEX 00 01:55:18
FILE "05 - Fascinating Rhythm.wav" WAVE
    INDEX 01 00:00:00
  TRACK 06 AUDIO
    TITLE "I Can Dream Can't I"
    PERFORMER "Cleo Laine"
    INDEX 00 03:27:21
FILE "06 - I Can Dream Can't I.wav" WAVE
    INDEX 01 00:00:00
  TRACK 07 AUDIO
    TITLE "I Cover the Waterfront"
    PERFORMER "Cleo Laine"
    INDEX 00 02:59:53
FILE "07 - I Cover the Waterfront.wav" WAVE
    INDEX 01 00:00:00
  TRACK 08 AUDIO
    TITLE "I'm a Dreamer, Aren't We All?"
    PERFORMER "Cleo Laine"
    INDEX 00 02:52:68
FILE "08 - I'm a Dreamer, Aren't We All.wav" WAVE
    INDEX 01 00:00:00
  TRACK 09 AUDIO
    TITLE "I've Got It Bad and That Ain't Good"
    PERFORMER "Cleo Laine"
    INDEX 00 02:37:21
FILE "09 - I've Got It Bad and That Ain't Good.wav" WAVE
    INDEX 01 00:00:00
  TRACK 10 AUDIO
    TITLE "Please Don't Talk About Me When I'm Gone"
    PERFORMER "Cleo Laine"
    INDEX 00 04:28:48
FILE "10 - Please Don't Talk About Me When I'm Gone.wav" WAVE
    INDEX 01 00:00:00
  TRACK 11 AUDIO
    TITLE "They Say It's Wonderful"
    PERFORMER "Cleo Laine"
    INDEX 00 03:58:31
FILE "11 - They Say It's Wonderful.wav" WAVE
    INDEX 01 00:00:00
  TRACK 12 AUDIO
    TITLE "St. Louis Blues"
    PERFORMER "Cleo Laine"
    INDEX 00 02:48:38
FILE "12 - St. Louis Blues.wav" WAVE
    INDEX 01 00:00:00
  TRACK 13 AUDIO
    TITLE "The Lady Sings the Blues"
    PERFORMER "Cleo Laine"
    INDEX 00 03:35:10
FILE "13 - The Lady Sings the Blues.wav" WAVE
    INDEX 01 00:00:00
  TRACK 14 AUDIO
    TITLE "Stormy Weather"
    PERFORMER "Cleo Laine"
    INDEX 00 03:29:73
FILE "14 - Stormy Weather.wav" WAVE
    INDEX 01 00:00:00
Код:
[CUETools log; Date: 29.05.2020 21:50:33; Version: 2.1.6]
Pregap length 00:00:32.
[CTDB TOCID: jrqf61_PGIDcqtRTUnS2S_DrlDM-] found.
Track | CTDB Status
  1   | (2/3) Accurately ripped
  2   | (2/3) Accurately ripped
  3   | (2/3) Accurately ripped
  4   | (2/3) Accurately ripped
  5   | (2/3) Accurately ripped
  6   | (2/3) Accurately ripped
  7   | (2/3) Accurately ripped
  8   | (2/3) Accurately ripped
  9   | (2/3) Accurately ripped
 10   | (2/3) Accurately ripped
 11   | (2/3) Accurately ripped
 12   | (2/3) Accurately ripped
 13   | (2/3) Accurately ripped
 14   | (3/3) Accurately ripped
[AccurateRip ID: 0015e570-00ece24b-b00a760e] found.
Track   [  CRC   |   V2   ] Status
 01     [6213e41a|6ea6cb29] (0+1/1) Accurately ripped
 02     [866866c5|83fced82] (0+1/1) Accurately ripped
 03     [c7690ad2|a8cfcb14] (0+1/1) Accurately ripped
 04     [1ab7145f|3836ed56] (0+1/1) Accurately ripped
 05     [0b9d6659|0cd8919c] (0+1/1) Accurately ripped
 06     [c6404010|38b39b18] (0+1/1) Accurately ripped
 07     [a3caf346|b9ed0f22] (0+1/1) Accurately ripped
 08     [1472fdf4|ac92c9ae] (0+1/1) Accurately ripped
 09     [27341f7b|7048df1f] (0+1/1) Accurately ripped
 10     [d5dfcfb6|0b5c5b05] (0+1/1) Accurately ripped
 11     [b89ef645|5ab17865] (0+1/1) Accurately ripped
 12     [9725beae|0b1b84ba] (0+1/1) Accurately ripped
 13     [dc0d9a05|e174a482] (0+1/1) Accurately ripped
 14     [95885873|67c52c53] (0+1/1) Accurately ripped
Track Peak [ CRC32  ] [W/O NULL] [  LOG   ]
 --   97,0 [049861B9] [882C67EF]
 01   77,0 [7CAE59BF] [B7C81C98]   CRC32
 02   85,3 [FA274AF2] [CA6DC647]   CRC32
 03   78,1 [E37DFB59] [30BE8D04]   CRC32
 04   62,4 [C80A98FE] [C6159919]   CRC32
 05   59,2 [EA03FBFE] [F09FB8F0]   CRC32
 06   59,3 [A04716B9] [AB16C1E8]   CRC32
 07   70,6 [E46863E1] [207FE870]   CRC32
 08   58,3 [409D91C4] [432E26F4]   CRC32
 09   45,9 [39453198] [BEE520A8]   CRC32
 10   75,7 [5B5ACCB0] [021558BE]   CRC32
 11   47,0 [B6B45221] [D6837B8D]   CRC32
 12   92,5 [D0F20E53] [87B95CD6]   CRC32
 13   85,0 [28FBFB65] [18D27CCA]   CRC32
 14   97,0 [AFA4256C] [A8207EE7]   CRC32
Правила, инструкции, FAQ!!!
Торрент  Добавлен [22 июн 2020, 15:37] Скачать торрент Магнет ссылка
Скачать торрент
[ Размер 19.08 КБ / Просмотров 1 ]

Статус
Проверен 
 
Размер  222.94 МБ
Приватный: Нет (DHT включён)
.torrent скачан  0
 


     Отправить личное сообщение
   
Страница 1 из 1
Показать сообщения за:  Поле сортировки  
Начать новую тему Ответить на тему


Сейчас этот форум просматривают: нет зарегистрированных пользователей и гости: 0


Вы не можете начинать темы
Вы не можете отвечать на сообщения
Вы не можете редактировать свои сообщения
Вы не можете удалять свои сообщения
Вы не можете добавлять вложения

Перейти:  
cron