Начать новую тему Ответить на тему
Статистика раздачи
Размер: 245.35 МБ | Добавлен: 22 июн 2020, 15:38 | Скачали: 0
Сидеров: 0  [0 байт/сек]    Личеров: 0  [0 байт/сек]
Пред. тема | След. тема 

Автор
Сообщение

СообщениеДобавлено: 22 июн 2020, 15:38 

Ответить с цитатой 

Chiara Pancaldi - Precious
Жанр: Vocal Jazz
Носитель: CD
Страна-производитель диска (релиза): Австрия
Год издания: 2020
Издатель (лейбл): Challenge Records
Номер по каталогу: CR73497
Аудиокодек: FLAC (*.flac)
Тип рипа: tracks+.cue
Продолжительность: 00:42:32
Источник: redacted
Наличие сканов в содержимом раздачи: да
Треклист:
01. Better to Grow (Pancaldi) - 4:29
02. Nothing But Smiles (Pancaldi) - 4:32
03. Urban Folk Song (Hall) - 4:59
04. Adeus (Pancaldi) - 4:21
05. Precious (Pancaldi) - 3:31
06. The Distance Between Us (Pancaldi) - 6:04
07. Songs Don't Grow Old Alone (Pancaldi) - 5:04
08. You and I (We Can Conquer the World) (Wonder) - 5:03
09. Our Time (Pancaldi) - 4:29
Состав:
Chiara Pancaldi - vocals
Roberto Tarenzi - piano & Rhodes (#3,8)
Darryl Hall - double bass, electric bass (#4,7)
Roberto Pistolesi - drums
Giancarlo Bianchetti - guitar (#4,7)
Diego Frabetti - trumpet (#2,9)
Код:
Exact Audio Copy V1.3 from 2. September 2016
EAC extraction logfile from 19. February 2020, 11:28
Chiara Pancaldi / Precious
Used drive  : PLEXTOR PX-891SAF   Adapter: 1  ID: 0
Read mode               : Secure
Utilize accurate stream : Yes
Defeat audio cache      : Yes
Make use of C2 pointers : No
Read offset correction                      : 6
Overread into Lead-In and Lead-Out          : No
Fill up missing offset samples with silence : Yes
Delete leading and trailing silent blocks   : No
Null samples used in CRC calculations       : Yes
Used interface                              : Native Win32 interface for Win NT & 2000
Gap handling                                : Appended to previous track
Used output format              : User Defined Encoder
Selected bitrate                : 1024 kBit/s
Quality                         : High
Add ID3 tag                     : No
Command line compressor         : C:\Program Files (x86)\Exact Audio Copy\Flac\flac.exe
Additional command line options : -8 -V -T "ARTIST=%artist%" -T "TITLE=%title%" -T "ALBUM=%albumtitle%" -T "DATE=%year%" -T "TRACKNUMBER=%tracknr%" -T "GENRE=%genre%" -T "PERFORMER=%albuminterpret%" -T "COMPOSER=%composer%" %haslyrics%--tag-from-file=LYRICS="%lyricsfile%"%haslyrics% -T "ALBUMARTIST=%albumartist%" -T "DISCNUMBER=%cdnumber%" -T "TOTALDISCS=%totalcds%" -T "TOTALTRACKS=%numtracks%" -T "COMMENT=%comment%" %source% -o %dest%
TOC of the extracted CD
     Track |   Start  |  Length  | Start sector | End sector
    ---------------------------------------------------------
        1  |  0:00.00 |  4:29.00 |         0    |    20174
        2  |  4:29.00 |  4:32.19 |     20175    |    40593
        3  |  9:01.19 |  4:59.37 |     40594    |    63055
        4  | 14:00.56 |  4:20.73 |     63056    |    82628
        5  | 18:21.54 |  3:31.00 |     82629    |    98453
        6  | 21:52.54 |  6:03.38 |     98454    |   125716
        7  | 27:56.17 |  5:03.38 |    125717    |   148479
        8  | 32:59.55 |  5:03.00 |    148480    |   171204
        9  | 38:02.55 |  4:28.38 |    171205    |   191342
Track  1
     Filename D:\#cdr\#wav+flac\Chiara Pancaldi - Precious\01. Chiara Pancaldi - Better To Grow.wav
     Pre-gap length  0:00:02.00
     Peak level 94.9 %
     Extraction speed 5.1 X
     Track quality 100.0 %
     Test CRC 9175A0C5
     Copy CRC 9175A0C5
     Track not present in AccurateRip database
     Copy OK
Track  2
     Filename D:\#cdr\#wav+flac\Chiara Pancaldi - Precious\02. Chiara Pancaldi - Nothing But Smiles.wav
     Pre-gap length  0:00:02.00
     Peak level 93.2 %
     Extraction speed 4.9 X
     Track quality 99.9 %
     Test CRC 47235720
     Copy CRC 47235720
     Track not present in AccurateRip database
     Copy OK
Track  3
     Filename D:\#cdr\#wav+flac\Chiara Pancaldi - Precious\03. Chiara Pancaldi - Urban Folk Song.wav
     Pre-gap length  0:00:02.00
     Peak level 94.0 %
     Extraction speed 6.3 X
     Track quality 100.0 %
     Test CRC 09043A31
     Copy CRC 09043A31
     Track not present in AccurateRip database
     Copy OK
Track  4
     Filename D:\#cdr\#wav+flac\Chiara Pancaldi - Precious\04. Chiara Pancaldi - Adeus.wav
     Pre-gap length  0:00:02.00
     Peak level 88.6 %
     Extraction speed 6.7 X
     Track quality 100.0 %
     Test CRC DB8FA8CC
     Copy CRC DB8FA8CC
     Track not present in AccurateRip database
     Copy OK
Track  5
     Filename D:\#cdr\#wav+flac\Chiara Pancaldi - Precious\05. Chiara Pancaldi - Precious.wav
     Pre-gap length  0:00:02.00
     Peak level 78.0 %
     Extraction speed 7.0 X
     Track quality 100.0 %
     Test CRC 6A36A5E9
     Copy CRC 6A36A5E9
     Track not present in AccurateRip database
     Copy OK
Track  6
     Filename D:\#cdr\#wav+flac\Chiara Pancaldi - Precious\06. Chiara Pancaldi - The Distance Between Us.wav
     Pre-gap length  0:00:02.00
     Peak level 95.7 %
     Extraction speed 6.9 X
     Track quality 99.9 %
     Test CRC F0F35E80
     Copy CRC F0F35E80
     Track not present in AccurateRip database
     Copy OK
Track  7
     Filename D:\#cdr\#wav+flac\Chiara Pancaldi - Precious\07. Chiara Pancaldi - Songs Don't Grow Old Alone.wav
     Pre-gap length  0:00:02.00
     Peak level 93.2 %
     Extraction speed 8.2 X
     Track quality 100.0 %
     Test CRC 472E05DF
     Copy CRC 472E05DF
     Track not present in AccurateRip database
     Copy OK
Track  8
     Filename D:\#cdr\#wav+flac\Chiara Pancaldi - Precious\08. Chiara Pancaldi - You And I (We Can Conquer The World).wav
     Pre-gap length  0:00:02.00
     Peak level 90.6 %
     Extraction speed 8.5 X
     Track quality 100.0 %
     Test CRC 113FCBCF
     Copy CRC 113FCBCF
     Track not present in AccurateRip database
     Copy OK
Track  9
     Filename D:\#cdr\#wav+flac\Chiara Pancaldi - Precious\09. Chiara Pancaldi - Our Time.wav
     Pre-gap length  0:00:02.00
     Peak level 87.4 %
     Extraction speed 8.8 X
     Track quality 100.0 %
     Test CRC 6A1A2CF7
     Copy CRC 6A1A2CF7
     Track not present in AccurateRip database
     Copy OK
None of the tracks are present in the AccurateRip database
No errors occurred
End of status report
---- CUETools DB Plugin V2.1.6
[CTDB TOCID: M5OTqOqjUUTBPKNOYS_euzR5OiY-] disk not present in database
Submit result: M5OTqOqjUUTBPKNOYS_euzR5OiY- has been uploaded
==== Log checksum 6D7DFA5E5C18E818BF4D92AF074B7298B09C10CAE26239600F50BA10AB21BB0B ====
Код:
REM GENRE Jazz
REM DATE 2020
REM DISCID 6D09F709
REM COMMENT "ExactAudioCopy v1.3"
CATALOG 0608917349726
PERFORMER "Chiara Pancaldi"
TITLE "Precious"
FILE "01 - Better to Grow.wav" WAVE
  TRACK 01 AUDIO
    TITLE "Better to Grow"
    PERFORMER "Chiara Pancaldi"
    ISRC NLB152000076
    INDEX 01 00:00:00
  TRACK 02 AUDIO
    TITLE "Nothing But Smiles"
    PERFORMER "Chiara Pancaldi"
    ISRC NLB152000077
    INDEX 00 04:27:00
FILE "02 - Nothing But Smiles.wav" WAVE
    INDEX 01 00:00:00
  TRACK 03 AUDIO
    TITLE "Urban Folk Song"
    PERFORMER "Chiara Pancaldi"
    ISRC NLB152000078
    INDEX 00 04:30:19
FILE "03 - Urban Folk Song.wav" WAVE
    INDEX 01 00:00:00
  TRACK 04 AUDIO
    TITLE "Adeus"
    PERFORMER "Chiara Pancaldi"
    ISRC NLB152000079
    INDEX 00 04:57:37
FILE "04 - Adeus.wav" WAVE
    INDEX 01 00:00:00
  TRACK 05 AUDIO
    TITLE "Precious"
    PERFORMER "Chiara Pancaldi"
    ISRC NLB152000080
    INDEX 00 04:18:73
FILE "05 - Precious.wav" WAVE
    INDEX 01 00:00:00
  TRACK 06 AUDIO
    TITLE "The Distance Between Us"
    PERFORMER "Chiara Pancaldi"
    ISRC NLB152000081
    INDEX 00 03:29:00
FILE "06 - The Distance Between Us.wav" WAVE
    INDEX 01 00:00:00
  TRACK 07 AUDIO
    TITLE "Songs Don't Grow Old Alone"
    PERFORMER "Chiara Pancaldi"
    ISRC NLB152000082
    INDEX 00 06:01:38
FILE "07 - Songs Don't Grow Old Alone.wav" WAVE
    INDEX 01 00:00:00
  TRACK 08 AUDIO
    TITLE "You and I (We Can Conquer the World)"
    PERFORMER "Chiara Pancaldi"
    ISRC NLB152000083
    INDEX 00 05:01:38
FILE "08 - You and I (We Can Conquer the World).wav" WAVE
    INDEX 01 00:00:00
  TRACK 09 AUDIO
    TITLE "Our Time"
    PERFORMER "Chiara Pancaldi"
    ISRC NLB152000084
    INDEX 00 05:01:00
FILE "09 - Our Time.wav" WAVE
    INDEX 01 00:00:00
Chiara Pancaldi is an Italian jazz singer that has worked with many of the great Italian and American jazz musicians, such as Cyrus Chestnut, John Webber, Joe Farnsworth, Darryl Hall, Kirk Lightsey, Fabrizio Bosso, Piero Odorici, Nico Gori, Pietro Tonolo, Marc Abrams, Nicola Muresu, Nico Menci, Stefano Senni, Andrea Giuffredi to name a few. She has performed at Umbria Jazz, London Jazz Festival, CrossRoads Jazz Festival, Sunset Sunside Jazz Club, Jazzkeller Jazz Club, Porgy and Bess, Unterfahrt, Teatro Giordano, Ancona Jazz Festival, Bologna Jazz Festival, Muze, Torrione Jazz Club, Alexander Plaz Jazz Club, Cantina Bentivoglio Jazz Club, Orsara Jazz Festival, Paradiso Jazz Festival, and many more. The energetic chanteuse has a growing catalog of albums on the Dutch label Challenge Records, and she is opening 2020 with a new one titled, Precious. Joining Pancaldi is ROBERTO TARENZI on piano, DARRYL HALL on bass, and ROBERTO PISTOLESI on drums with special guest GIANCARLO BIANCHETTI on chitarra and DIEGO FRABETTI on trombone.
Pancaldi says, “Writing music helps me to find my inner voice and to understand who I am as a musician, as a mother, and who I am as a woman. I write songs to talk about my life, my loves, and my struggles. The joy and pain. They talk about self-acceptance, about love, all kinds of love. About being able to receive from life, to be open, and also to let things go. But hold on to what is so precious.” That is the inspiration to the nine tracks contained on Precious.
“Better to Grow” is a swing groove number with Pancaldi’s warm vocal stylings bringing to life the melody. The trio dances around the vocal line with skill as the song segues between different feels. Hall’s bass solo keeps close to the theme as he moves around the board with ease. Tarenzi’s solo is a flurry of excitement as Pancaldi’s warm honey vocals enter with the bridge melody that leads to the original form to take the song to an ending. Pancaldi’s scatting during the ending vamp is executed with accuracy and style.
“The Distance Between Us” has an angular melody that features Pancaldi’s falsetto register as she smoothly crosses her tessiture. The lyrics are inspiring and flow. Pancaldi’s scatting fits the musical mood and colors. She keeps control and never pushes outside her comfort zone, ending with a stirring cadence. Pistolosi’s drumming makes this composition exciting, and his pushing and coloring the beat is magical through the entire selection. Pancaldi’s writing is focused, with storytelling lyrics and jazz-infused melodies.
Precious impresses as well, Pancaldi’s administering just enough edge to suggest a modern jazz sound while still maintaining the phantasmal vibe of everything that came before her. It also serves as an excellent showcase of her fluid voice and songwriting skills. The music is stylish, filled with jazz common ground representing Pancaldi’s most exciting work to date, with dramatic sure pitched vocals and jubilant melodies.
Правила, инструкции, FAQ!!!
Торрент  Добавлен [22 июн 2020, 15:38] Скачать торрент Магнет ссылка
Скачать торрент
[ Размер 20.61 КБ / Просмотров 1 ]

Статус
Проверен 
 
Размер  245.35 МБ
Приватный: Нет (DHT включён)
.torrent скачан  0
 


     Отправить личное сообщение
   
Страница 1 из 1
Показать сообщения за:  Поле сортировки  
Начать новую тему Ответить на тему


Сейчас этот форум просматривают: нет зарегистрированных пользователей и гости: 0


Вы не можете начинать темы
Вы не можете отвечать на сообщения
Вы не можете редактировать свои сообщения
Вы не можете удалять свои сообщения
Вы не можете добавлять вложения

Перейти:  
cron
cron