Начать новую тему Ответить на тему
Статистика раздачи
Размер: 175.66 МБ | Добавлен: 02 мар 2020, 16:51 | Скачали: 0
Сидеров: 0  [0 байт/сек]    Личеров: 0  [0 байт/сек]
Пред. тема | След. тема 

Автор
Сообщение

СообщениеДобавлено: 02 мар 2020, 16:51 

Ответить с цитатой 

Maki Asakawa - Maboroshi no Otokotachi
Жанр: Vocal Jazz, Blues, Rock
Носитель: CD
Страна-производитель диска (релиза): Япония
Год издания: 1983 (2011)
Издатель (лейбл): Express/Toshiba-EMI
Номер по каталогу: TOCT-27076
Аудиокодек: FLAC (*.flac)
Тип рипа: tracks+.cue
Продолжительность: 00:31:25
Источник: What.CD
Наличие сканов в содержимом раздачи: нет
Треклист:
01. Yume Nara (3:51)
02. Hanabi (3:19)
03. Denbun (Katsute ni Shite yo) (1:03)
04. Tokyo Kurete Yuku (5:32)
05. Kugatsu (2:05)
06. Shijuusou (3:41)
07. Machi no Onna (2:38)
08. Honoo no Mukou ni (2:27)
09. Mata Kikoete Kuru Waltz (4:10)
10. Konya wa All Right (2:39)
Код:
X Lossless Decoder version 20140504 (147.0)
XLD extraction logfile from 2014-06-18 16:01:44 +0900
浅川マキ / 幻の男たち
Used drive : MATSHITA DVD-R   UJ-8A8 (revision HB14)
Media type : Pressed CD
Ripper mode             : XLD Secure Ripper
Disable audio cache     : OK for the drive with a cache less than 1375KiB
Make use of C2 pointers : NO
Read offset correction  : 102
Max retry count         : 20
Gap status              : Analyzed, Appended (except HTOA)
TOC of the extracted CD
     Track |   Start  |  Length  | Start sector | End sector
    ---------------------------------------------------------
        1  | 00:00:00 | 03:50:59 |         0    |    17308
        2  | 03:50:59 | 03:18:72 |     17309    |    32230
        3  | 07:09:56 | 01:02:38 |     32231    |    36918
        4  | 08:12:19 | 05:31:43 |     36919    |    61786
        5  | 13:43:62 | 02:05:05 |     61787    |    71166
        6  | 15:48:67 | 03:41:13 |     71167    |    87754
        7  | 19:30:05 | 02:38:01 |     87755    |    99605
        8  | 22:08:06 | 02:27:32 |     99606    |   110662
        9  | 24:35:38 | 04:10:12 |    110663    |   129424
       10  | 28:45:50 | 02:38:44 |    129425    |   141318
AccurateRip Summary (DiscID: 000c06d5-005faf40-75075c0a)
    Track 01 : OK (v1+v2, confidence 2/2)
    Track 02 : OK (v1+v2, confidence 2/2)
    Track 03 : OK (v1+v2, confidence 2/2)
    Track 04 : OK (v1+v2, confidence 2/2)
    Track 05 : OK (v1+v2, confidence 2/2)
    Track 06 : OK (v1+v2, confidence 2/2)
    Track 07 : OK (v1+v2, confidence 2/2)
    Track 08 : OK (v1+v2, confidence 2/2)
    Track 09 : OK (v1+v2, confidence 2/2)
    Track 10 : OK (v1+v2, confidence 2/2)
        ->All tracks accurately ripped.
All Tracks
    Album gain               : -2.28 dB
    Peak                     : 1.000000
    Statistics
        Read error                           : 0
        Jitter error (maybe fixed)           : 0
        Retry sector count                   : 0
        Damaged sector count                 : 0
Track 01
    Filename : /Volumes/G/浅川マキ - 幻の男たち (1983) [FLAC]/01 夢なら.flac
    Pre-gap length : 00:02:00
    Track gain               : -1.40 dB
    Peak                     : 1.000000
    CRC32 hash (test run)    : 840AABBE
    CRC32 hash               : 840AABBE
    CRC32 hash (skip zero)   : 731E4994
    AccurateRip v1 signature : C4986D5E
    AccurateRip v2 signature : 33CD223F
        ->Accurately ripped (v1+v2, confidence 1+1/2)
    Statistics
        Read error                           : 0
        Jitter error (maybe fixed)           : 0
        Retry sector count                   : 0
        Damaged sector count                 : 0
Track 02
    Filename : /Volumes/G/浅川マキ - 幻の男たち (1983) [FLAC]/02 花火.flac
    Pre-gap length : 00:03:54
    Track gain               : -3.65 dB
    Peak                     : 0.862183
    CRC32 hash (test run)    : D46EEA2E
    CRC32 hash               : D46EEA2E
    CRC32 hash (skip zero)   : 419757C9
    AccurateRip v1 signature : 0449D159
    AccurateRip v2 signature : BFD89822
        ->Accurately ripped (v1+v2, confidence 1+1/2)
    Statistics
        Read error                           : 0
        Jitter error (maybe fixed)           : 0
        Retry sector count                   : 0
        Damaged sector count                 : 0
Track 03
    Filename : /Volumes/G/浅川マキ - 幻の男たち (1983) [FLAC]/03 電文「カツテニ シテヨ」.flac
    Pre-gap length : 00:04:04
    Track gain               : -0.35 dB
    Peak                     : 0.697815
    CRC32 hash (test run)    : B893A2A9
    CRC32 hash               : B893A2A9
    CRC32 hash (skip zero)   : 05FBB05B
    AccurateRip v1 signature : 3EDAE4A6
    AccurateRip v2 signature : ABC45665
        ->Accurately ripped (v1+v2, confidence 1+1/2)
    Statistics
        Read error                           : 0
        Jitter error (maybe fixed)           : 0
        Retry sector count                   : 0
        Damaged sector count                 : 0
Track 04
    Filename : /Volumes/G/浅川マキ - 幻の男たち (1983) [FLAC]/04 トーキョー暮れて行く.flac
    Pre-gap length : 00:01:44
    Track gain               : -3.30 dB
    Peak                     : 0.999969
    CRC32 hash (test run)    : 7B3A8911
    CRC32 hash               : 7B3A8911
    CRC32 hash (skip zero)   : 3D961CD3
    AccurateRip v1 signature : BBE9464B
    AccurateRip v2 signature : B2434830
        ->Accurately ripped (v1+v2, confidence 1+1/2)
    Statistics
        Read error                           : 0
        Jitter error (maybe fixed)           : 0
        Retry sector count                   : 0
        Damaged sector count                 : 0
Track 05
    Filename : /Volumes/G/浅川マキ - 幻の男たち (1983) [FLAC]/05 九月.flac
    Pre-gap length : 00:02:72
    Track gain               : 0.15 dB
    Peak                     : 0.467529
    CRC32 hash (test run)    : C5CADDBA
    CRC32 hash               : C5CADDBA
    CRC32 hash (skip zero)   : BFB78BC4
    AccurateRip v1 signature : 8B0E4E6F
    AccurateRip v2 signature : 0FE17D22
        ->Accurately ripped (v1+v2, confidence 1+1/2)
    Statistics
        Read error                           : 0
        Jitter error (maybe fixed)           : 0
        Retry sector count                   : 0
        Damaged sector count                 : 0
Track 06
    Filename : /Volumes/G/浅川マキ - 幻の男たち (1983) [FLAC]/06 四重奏.flac
    Pre-gap length : 00:02:52
    Track gain               : 0.15 dB
    Peak                     : 0.821350
    CRC32 hash (test run)    : B78F3CE5
    CRC32 hash               : B78F3CE5
    CRC32 hash (skip zero)   : 49EF94C1
    AccurateRip v1 signature : B7585185
    AccurateRip v2 signature : 210594AC
        ->Accurately ripped (v1+v2, confidence 1+1/2)
    Statistics
        Read error                           : 0
        Jitter error (maybe fixed)           : 0
        Retry sector count                   : 0
        Damaged sector count                 : 0
Track 07
    Filename : /Volumes/G/浅川マキ - 幻の男たち (1983) [FLAC]/07 街の女.flac
    Pre-gap length : 00:02:73
    Track gain               : -2.21 dB
    Peak                     : 0.823822
    CRC32 hash (test run)    : 9614D620
    CRC32 hash               : 9614D620
    CRC32 hash (skip zero)   : 64096423
    AccurateRip v1 signature : A1C7FAB0
    AccurateRip v2 signature : EC55C667
        ->Accurately ripped (v1+v2, confidence 1+1/2)
    Statistics
        Read error                           : 0
        Jitter error (maybe fixed)           : 0
        Retry sector count                   : 0
        Damaged sector count                 : 0
Track 08
    Filename : /Volumes/G/浅川マキ - 幻の男たち (1983) [FLAC]/08 炎の向こうに.flac
    Pre-gap length : 00:02:05
    Track gain               : 0.57 dB
    Peak                     : 0.643768
    CRC32 hash (test run)    : 81710940
    CRC32 hash               : 81710940
    CRC32 hash (skip zero)   : 8AFA32E0
    AccurateRip v1 signature : 048C4792
    AccurateRip v2 signature : D2924E2D
        ->Accurately ripped (v1+v2, confidence 1+1/2)
    Statistics
        Read error                           : 0
        Jitter error (maybe fixed)           : 0
        Retry sector count                   : 0
        Damaged sector count                 : 0
Track 09
    Filename : /Volumes/G/浅川マキ - 幻の男たち (1983) [FLAC]/09 また聞こえて来るワルツ.flac
    Pre-gap length : 00:02:69
    Track gain               : -1.67 dB
    Peak                     : 0.787842
    CRC32 hash (test run)    : 30D2B7D9
    CRC32 hash               : 30D2B7D9
    CRC32 hash (skip zero)   : BFB7B884
    AccurateRip v1 signature : 75D7B8ED
    AccurateRip v2 signature : 299BE576
        ->Accurately ripped (v1+v2, confidence 1+1/2)
    Statistics
        Read error                           : 0
        Jitter error (maybe fixed)           : 0
        Retry sector count                   : 0
        Damaged sector count                 : 0
Track 10
    Filename : /Volumes/G/浅川マキ - 幻の男たち (1983) [FLAC]/10 今夜はオーライ.flac
    Pre-gap length : 00:02:21
    Track gain               : -0.98 dB
    Peak                     : 0.938904
    CRC32 hash (test run)    : 317A8F03
    CRC32 hash               : 317A8F03
    CRC32 hash (skip zero)   : 6A969C24
    AccurateRip v1 signature : 46EFEF61
    AccurateRip v2 signature : 665445F9
        ->Accurately ripped (v1+v2, confidence 1+1/2)
    Statistics
        Read error                           : 0
        Jitter error (maybe fixed)           : 0
        Retry sector count                   : 0
        Damaged sector count                 : 0
No errors occurred
End of status report
-----BEGIN XLD SIGNATURE-----
_gioYSqYuUxkmpNee0TzoeUSXU_cMnkA86LiiYeWuKJQo7b7VMinAAoWym6WG.e4xNCWLr1eP.s1UstbN1GgLtK6eIXzSr0PnrqxMQy
-----END XLD SIGNATURE-----
Код:
TITLE "Maboroshi no Otokotachi"
PERFORMER "Maki Asakawa"
REM GENRE "Jazz"
REM DATE "1983"
REM DISCID 75075C0A
REM REPLAYGAIN_ALBUM_GAIN -2.28 dB
REM REPLAYGAIN_ALBUM_PEAK 1.000000
FILE "01 - Yume Nara.flac" WAVE
  TRACK 01 AUDIO
    TITLE "Yume Nara"
    ISRC JPTO08314230
    REM REPLAYGAIN_TRACK_GAIN -1.40 dB
    REM REPLAYGAIN_TRACK_PEAK 1.000000
    INDEX 01 00:00:00
  TRACK 02 AUDIO
    TITLE "Hanabi"
    ISRC JPTO08314240
    REM REPLAYGAIN_TRACK_GAIN -3.65 dB
    REM REPLAYGAIN_TRACK_PEAK 0.862183
    INDEX 00 03:47:05
FILE "02 - Hanabi.flac" WAVE
    INDEX 01 00:00:00
  TRACK 03 AUDIO
    TITLE "Denbun (Katsute ni Shite yo)"
    ISRC JPTO08314250
    REM REPLAYGAIN_TRACK_GAIN -0.35 dB
    REM REPLAYGAIN_TRACK_PEAK 0.697815
    INDEX 00 03:14:68
FILE "03 - Denbun (Katsute ni Shite yo).flac" WAVE
    INDEX 01 00:00:00
  TRACK 04 AUDIO
    TITLE "Tokyo Kurete Yuku"
    ISRC JPTO08314260
    REM REPLAYGAIN_TRACK_GAIN -3.30 dB
    REM REPLAYGAIN_TRACK_PEAK 0.999969
    INDEX 00 01:00:69
FILE "04 - Tokyo Kurete Yuku.flac" WAVE
    INDEX 01 00:00:00
  TRACK 05 AUDIO
    TITLE "Kugatsu"
    ISRC JPTO08314270
    REM REPLAYGAIN_TRACK_GAIN 0.15 dB
    REM REPLAYGAIN_TRACK_PEAK 0.467529
    INDEX 00 05:28:46
FILE "05 - Kugatsu.flac" WAVE
    INDEX 01 00:00:00
  TRACK 06 AUDIO
    TITLE "Shijuusou"
    ISRC JPTO08314280
    REM REPLAYGAIN_TRACK_GAIN 0.15 dB
    REM REPLAYGAIN_TRACK_PEAK 0.821350
    INDEX 00 02:02:28
FILE "06 - Shijuusou.flac" WAVE
    INDEX 01 00:00:00
  TRACK 07 AUDIO
    TITLE "Machi no Onna"
    ISRC JPTO08314290
    REM REPLAYGAIN_TRACK_GAIN -2.21 dB
    REM REPLAYGAIN_TRACK_PEAK 0.823822
    INDEX 00 03:38:15
FILE "07 - Machi no Onna.flac" WAVE
    INDEX 01 00:00:00
  TRACK 08 AUDIO
    TITLE "Honoo no Mukou ni"
    ISRC JPTO08314300
    REM REPLAYGAIN_TRACK_GAIN 0.57 dB
    REM REPLAYGAIN_TRACK_PEAK 0.643768
    INDEX 00 02:35:71
FILE "08 - Honoo no Mukou ni.flac" WAVE
    INDEX 01 00:00:00
  TRACK 09 AUDIO
    TITLE "Mata Kikoete Kuru Waltz"
    ISRC JPTO08314310
    REM REPLAYGAIN_TRACK_GAIN -1.67 dB
    REM REPLAYGAIN_TRACK_PEAK 0.787842
    INDEX 00 02:24:38
FILE "09 - Mata Kikoete Kuru Waltz.flac" WAVE
    INDEX 01 00:00:00
  TRACK 10 AUDIO
    TITLE "Konya wa All Right"
    ISRC JPTO08314320
    REM REPLAYGAIN_TRACK_GAIN -0.98 dB
    REM REPLAYGAIN_TRACK_PEAK 0.938904
    INDEX 00 04:07:66
FILE "10 - Konya wa All Right.flac" WAVE
    INDEX 01 00:00:00
Код:
[CUETools log; Date: 10.02.2020 21:55:25; Version: 2.1.6]
[CTDB TOCID: 8VTfamBv9eZCbxjkwaF6ojrXeUA-] found.
Track | CTDB Status
  1   | (13/13) Accurately ripped
  2   | (13/13) Accurately ripped
  3   | (13/13) Accurately ripped
  4   | (13/13) Accurately ripped
  5   | (13/13) Accurately ripped
  6   | (13/13) Accurately ripped
  7   | (13/13) Accurately ripped
  8   | (13/13) Accurately ripped
  9   | (13/13) Accurately ripped
 10   | (13/13) Accurately ripped
[AccurateRip ID: 000c06d5-005faf40-75075c0a] found.
Track   [  CRC   |   V2   ] Status
 01     [c4986d5e|33cd223f] (2+2/4) Accurately ripped
 02     [0449d159|bfd89822] (2+2/4) Accurately ripped
 03     [3edae4a6|abc45665] (2+2/4) Accurately ripped
 04     [bbe9464b|b2434830] (2+2/4) Accurately ripped
 05     [8b0e4e6f|0fe17d22] (2+2/4) Accurately ripped
 06     [b7585185|210594ac] (2+2/4) Accurately ripped
 07     [a1c7fab0|ec55c667] (2+2/4) Accurately ripped
 08     [048c4792|d2924e2d] (2+2/4) Accurately ripped
 09     [75d7b8ed|299be576] (2+2/4) Accurately ripped
 10     [46efef61|665445f9] (2+2/4) Accurately ripped
Track Peak [ CRC32  ] [W/O NULL]
 --  100,0 [1C1AFA69] [5C79B619]
 01  100,0 [840AABBE] [731E4994]
 02   86,2 [D46EEA2E] [419757C9]
 03   69,7 [B893A2A9] [05FBB05B]
 04  100,0 [7B3A8911] [3D961CD3]
 05   46,7 [C5CADDBA] [BFB78BC4]
 06   82,1 [B78F3CE5] [49EF94C1]
 07   82,3 [9614D620] [64096423]
 08   64,3 [81710940] [8AFA32E0]
 09   78,7 [30D2B7D9] [BFB7B884]
 10   93,8 [317A8F03] [6A969C24]
Правила, инструкции, FAQ!!!
Торрент  Добавлен [02 мар 2020, 16:51] Скачать торрент Магнет ссылка
Скачать торрент
[ Размер 15.16 КБ / Просмотров 0 ]

Статус
Проверен 
 
Размер  175.66 МБ
Приватный: Нет (DHT включён)
.torrent скачан  0
 


     Отправить личное сообщение
   
Страница 1 из 1
Показать сообщения за:  Поле сортировки  
Начать новую тему Ответить на тему


Сейчас этот форум просматривают: нет зарегистрированных пользователей и гости: 0


Вы не можете начинать темы
Вы не можете отвечать на сообщения
Вы не можете редактировать свои сообщения
Вы не можете удалять свои сообщения
Вы не можете добавлять вложения

Перейти:  
cron