Начать новую тему Ответить на тему
Статистика раздачи
Размер: 250.53 МБ | Добавлен: 02 мар 2020, 16:50 | Скачали: 0
Сидеров: 0  [0 байт/сек]    Личеров: 0  [0 байт/сек]
Пред. тема | След. тема 

Автор
Сообщение

СообщениеДобавлено: 02 мар 2020, 16:50 

Ответить с цитатой 

Maki Asakawa - Uramado
Жанр: Vocal Jazz, Blues, Folk
Носитель: CD
Страна-производитель диска (релиза): Япония
Год издания: 1973 (2011)
Издатель (лейбл): Express/Toshiba-EMI
Номер по каталогу: TOCT-27045
Аудиокодек: FLAC (*.flac)
Тип рипа: tracks+.cue
Продолжительность: 00:44:18
Источник: What.CD
Наличие сканов в содержимом раздачи: нет
Треклист:
01. Konna Fuu ni Sugite Yuku no Nara (3:59)
02. Uramado (5:02)
03. When That Man Is Dead and Gone (2:58)
04. St. James Infirmary (7:17)
05. Lonesome Road (4:38)
06. Hikkoshi (3:55)
07. Trouble in Mind (4:56)
08. Tobanai Karasu (3:31)
09. Machi no Sakaba de (4:53)
10. Centaur no Komoriuta (3:09)
Код:
X Lossless Decoder version 20130407 (143.0)
XLD extraction logfile from 2013-07-12 13:14:44 +0900
浅川マキ / 裏窓
Used drive : MATSHITA DVD-R   UJ-8A8 (revision HB14)
Media type : Pressed CD
Ripper mode             : XLD Secure Ripper
Disable audio cache     : OK for the drive with a cache less than 1375KiB
Make use of C2 pointers : NO
Read offset correction  : 102
Max retry count         : 20
Gap status              : Analyzed, Appended (except HTOA)
TOC of the extracted CD
     Track |   Start  |  Length  | Start sector | End sector
    ---------------------------------------------------------
        1  | 00:00:00 | 03:59:02 |         0    |    17926
        2  | 03:59:02 | 05:01:70 |     17927    |    40571
        3  | 09:00:72 | 02:58:35 |     40572    |    53956
        4  | 11:59:32 | 07:17:35 |     53957    |    86766
        5  | 19:16:67 | 04:38:25 |     86767    |   107641
        6  | 23:55:17 | 03:54:53 |    107642    |   125244
        7  | 27:49:70 | 04:55:47 |    125245    |   147416
        8  | 32:45:42 | 03:30:40 |    147417    |   163206
        9  | 36:16:07 | 04:52:45 |    163207    |   185151
       10  | 41:08:52 | 03:08:55 |    185152    |   199306
AccurateRip Summary
    Disc not found in AccurateRip DB.
All Tracks
    Album gain               : -2.37 dB
    Peak                     : 1.000000
    Statistics
        Read error                           : 0
        Jitter error (maybe fixed)           : 0
        Retry sector count                   : 0
        Damaged sector count                 : 0
Track 01
    Filename : /Volumes/G/浅川マキ - 裏窓 (1973) [FLAC]/01 こんな風に過ぎて行くのなら.flac
    Pre-gap length : 00:02:00
    Track gain               : -2.73 dB
    Peak                     : 1.000000
    CRC32 hash (test run)    : FE03B3DD
    CRC32 hash               : FE03B3DD
    CRC32 hash (skip zero)   : 688A24CE
    AccurateRip v1 signature : 15F249C5
    AccurateRip v2 signature : 6A18F46B
        ->Track not present in AccurateRip database.
    Statistics
        Read error                           : 0
        Jitter error (maybe fixed)           : 0
        Retry sector count                   : 0
        Damaged sector count                 : 0
Track 02
    Filename : /Volumes/G/浅川マキ - 裏窓 (1973) [FLAC]/02 裏窓.flac
    Pre-gap length : 00:03:44
    Track gain               : -1.15 dB
    Peak                     : 0.732452
    CRC32 hash (test run)    : 4C416FDC
    CRC32 hash               : 4C416FDC
    CRC32 hash (skip zero)   : 6813CDDE
    AccurateRip v1 signature : 66F63473
    AccurateRip v2 signature : 8E46F0C3
        ->Track not present in AccurateRip database.
    Statistics
        Read error                           : 0
        Jitter error (maybe fixed)           : 0
        Retry sector count                   : 0
        Damaged sector count                 : 0
Track 03
    Filename : /Volumes/G/浅川マキ - 裏窓 (1973) [FLAC]/03 あの男が死んだら.flac
    Pre-gap length : 00:02:73
    Track gain               : -2.74 dB
    Peak                     : 0.712402
    CRC32 hash (test run)    : B92E7821
    CRC32 hash               : B92E7821
    CRC32 hash (skip zero)   : 8C341431
    AccurateRip v1 signature : 7DEB97EB
    AccurateRip v2 signature : 2D327A3C
        ->Track not present in AccurateRip database.
    Statistics
        Read error                           : 0
        Jitter error (maybe fixed)           : 0
        Retry sector count                   : 0
        Damaged sector count                 : 0
Track 04
    Filename : /Volumes/G/浅川マキ - 裏窓 (1973) [FLAC]/04 セント・ジェームス病院.flac
    Pre-gap length : 00:02:27
    Track gain               : -3.62 dB
    Peak                     : 0.969055
    CRC32 hash (test run)    : 5F6B008D
    CRC32 hash               : 5F6B008D
    CRC32 hash (skip zero)   : 5BFD2F28
    AccurateRip v1 signature : 8C8EDC08
    AccurateRip v2 signature : 155F9994
        ->Track not present in AccurateRip database.
    Statistics
        Read error                           : 0
        Jitter error (maybe fixed)           : 0
        Retry sector count                   : 0
        Damaged sector count                 : 0
Track 05
    Filename : /Volumes/G/浅川マキ - 裏窓 (1973) [FLAC]/05 ロンサム・ロード.flac
    Pre-gap length : 00:03:70
    Track gain               : -1.93 dB
    Peak                     : 0.999969
    CRC32 hash (test run)    : A7C03C95
    CRC32 hash               : A7C03C95
    CRC32 hash (skip zero)   : 68EF28E6
    AccurateRip v1 signature : 83A28AAE
    AccurateRip v2 signature : 15ED3553
        ->Track not present in AccurateRip database.
    Statistics
        Read error                           : 0
        Jitter error (maybe fixed)           : 0
        Retry sector count                   : 0
        Damaged sector count                 : 0
Track 06
    Filename : /Volumes/G/浅川マキ - 裏窓 (1973) [FLAC]/06 引越し.flac
    Pre-gap length : 00:03:00
    Track gain               : -3.30 dB
    Peak                     : 1.000000
    CRC32 hash (test run)    : D2C26B3D
    CRC32 hash               : D2C26B3D
    CRC32 hash (skip zero)   : 4E9E1D66
    AccurateRip v1 signature : 179F0878
    AccurateRip v2 signature : CFA8F855
        ->Track not present in AccurateRip database.
    Statistics
        Read error                           : 0
        Jitter error (maybe fixed)           : 0
        Retry sector count                   : 0
        Damaged sector count                 : 0
Track 07
    Filename : /Volumes/G/浅川マキ - 裏窓 (1973) [FLAC]/07 トラブル・イン・マインド.flac
    Pre-gap length : 00:04:10
    Track gain               : -1.53 dB
    Peak                     : 1.000000
    CRC32 hash (test run)    : 0A37BF8C
    CRC32 hash               : 0A37BF8C
    CRC32 hash (skip zero)   : 2CB42CFE
    AccurateRip v1 signature : 01CED780
    AccurateRip v2 signature : 6B0747CA
        ->Track not present in AccurateRip database.
    Statistics
        Read error                           : 0
        Jitter error (maybe fixed)           : 0
        Retry sector count                   : 0
        Damaged sector count                 : 0
Track 08
    Filename : /Volumes/G/浅川マキ - 裏窓 (1973) [FLAC]/08 翔ばないカラス.flac
    Pre-gap length : 00:03:72
    Track gain               : -3.39 dB
    Peak                     : 1.000000
    CRC32 hash (test run)    : 2D72AD68
    CRC32 hash               : 2D72AD68
    CRC32 hash (skip zero)   : 73059FEF
    AccurateRip v1 signature : 4B63017C
    AccurateRip v2 signature : 60F49405
        ->Track not present in AccurateRip database.
    Statistics
        Read error                           : 0
        Jitter error (maybe fixed)           : 0
        Retry sector count                   : 0
        Damaged sector count                 : 0
Track 09
    Filename : /Volumes/G/浅川マキ - 裏窓 (1973) [FLAC]/09 町の酒場で.flac
    Pre-gap length : 00:05:27
    Track gain               : -0.87 dB
    Peak                     : 1.000000
    CRC32 hash (test run)    : 87FF0FDF
    CRC32 hash               : 87FF0FDF
    CRC32 hash (skip zero)   : F258AA30
    AccurateRip v1 signature : BF4B4997
    AccurateRip v2 signature : 6210737C
        ->Track not present in AccurateRip database.
    Statistics
        Read error                           : 0
        Jitter error (maybe fixed)           : 0
        Retry sector count                   : 0
        Damaged sector count                 : 0
Track 10
    Filename : /Volumes/G/浅川マキ - 裏窓 (1973) [FLAC]/10 ケンタウロスの子守唄.flac
    Pre-gap length : 00:04:57
    Track gain               : 1.60 dB
    Peak                     : 0.421600
    CRC32 hash (test run)    : D726F82D
    CRC32 hash               : D726F82D
    CRC32 hash (skip zero)   : F544550D
    AccurateRip v1 signature : 472FEC90
    AccurateRip v2 signature : 613902D0
        ->Track not present in AccurateRip database.
    Statistics
        Read error                           : 0
        Jitter error (maybe fixed)           : 0
        Retry sector count                   : 0
        Damaged sector count                 : 0
No errors occurred
End of status report
Код:
TITLE "Uramado"
PERFORMER "Maki Asakawa"
REM GENRE "Jazz"
REM DATE "1973"
REM DISCID 810A610A
REM REPLAYGAIN_ALBUM_GAIN -2.37 dB
REM REPLAYGAIN_ALBUM_PEAK 1.000000
FILE "01 - Konna Fuu ni Sugite Yuku no Nara.flac" WAVE
  TRACK 01 AUDIO
    TITLE "Konna Fuu ni Sugite Yuku no Nara"
    ISRC JPTO09044120
    REM REPLAYGAIN_TRACK_GAIN -2.73 dB
    REM REPLAYGAIN_TRACK_PEAK 1.000000
    INDEX 01 00:00:00
  TRACK 02 AUDIO
    TITLE "Uramado"
    ISRC JPTO09044130
    REM REPLAYGAIN_TRACK_GAIN -1.15 dB
    REM REPLAYGAIN_TRACK_PEAK 0.732452
    INDEX 00 03:55:33
FILE "02 - Uramado.flac" WAVE
    INDEX 01 00:00:00
  TRACK 03 AUDIO
    TITLE "When That Man Is Dead and Gone"
    ISRC JPTO09044140
    REM REPLAYGAIN_TRACK_GAIN -2.74 dB
    REM REPLAYGAIN_TRACK_PEAK 0.712402
    INDEX 00 04:58:72
FILE "03 - When That Man Is Dead and Gone.flac" WAVE
    INDEX 01 00:00:00
  TRACK 04 AUDIO
    TITLE "St. James Infirmary"
    ISRC JPTO09044150
    REM REPLAYGAIN_TRACK_GAIN -3.62 dB
    REM REPLAYGAIN_TRACK_PEAK 0.969055
    INDEX 00 02:56:08
FILE "04 - St. James Infirmary.flac" WAVE
    INDEX 01 00:00:00
  TRACK 05 AUDIO
    TITLE "Lonesome Road"
    ISRC JPTO09044160
    REM REPLAYGAIN_TRACK_GAIN -1.93 dB
    REM REPLAYGAIN_TRACK_PEAK 0.999969
    INDEX 00 07:13:40
FILE "05 - Lonesome Road.flac" WAVE
    INDEX 01 00:00:00
  TRACK 06 AUDIO
    TITLE "Hikkoshi"
    ISRC JPTO09044170
    REM REPLAYGAIN_TRACK_GAIN -3.30 dB
    REM REPLAYGAIN_TRACK_PEAK 1.000000
    INDEX 00 04:35:25
FILE "06 - Hikkoshi.flac" WAVE
    INDEX 01 00:00:00
  TRACK 07 AUDIO
    TITLE "Trouble in Mind"
    ISRC JPTO09044180
    REM REPLAYGAIN_TRACK_GAIN -1.53 dB
    REM REPLAYGAIN_TRACK_PEAK 1.000000
    INDEX 00 03:50:43
FILE "07 - Trouble in Mind.flac" WAVE
    INDEX 01 00:00:00
  TRACK 08 AUDIO
    TITLE "Tobanai Karasu"
    ISRC JPTO09044190
    REM REPLAYGAIN_TRACK_GAIN -3.39 dB
    REM REPLAYGAIN_TRACK_PEAK 1.000000
    INDEX 00 04:51:50
FILE "08 - Tobanai Karasu.flac" WAVE
    INDEX 01 00:00:00
  TRACK 09 AUDIO
    TITLE "Machi no Sakaba de"
    ISRC JPTO09044200
    REM REPLAYGAIN_TRACK_GAIN -0.87 dB
    REM REPLAYGAIN_TRACK_PEAK 1.000000
    INDEX 00 03:25:13
FILE "09 - Machi no Sakaba de.flac" WAVE
    INDEX 01 00:00:00
  TRACK 10 AUDIO
    TITLE "Centaur no Komoriuta"
    ISRC JPTO09044210
    REM REPLAYGAIN_TRACK_GAIN 1.60 dB
    REM REPLAYGAIN_TRACK_PEAK 0.421600
    INDEX 00 04:47:63
FILE "10 - Centaur no Komoriuta.flac" WAVE
    INDEX 01 00:00:00
Код:
[CUETools log; Date: 10.02.2020 17:35:44; Version: 2.1.6]
[CTDB TOCID: 3uGjuFEaqUBiGwYsTsjsCVMV374-] found.
Track | CTDB Status
  1   | (14/20) Accurately ripped
  2   | (14/20) Accurately ripped
  3   | (14/20) Accurately ripped
  4   | (14/20) Accurately ripped
  5   | (14/20) Accurately ripped
  6   | (14/20) Accurately ripped
  7   | (14/20) Accurately ripped
  8   | (14/20) Accurately ripped
  9   | (14/20) Accurately ripped
 10   | (14/20) Accurately ripped
[AccurateRip ID: 00113319-0089a9c9-810a610a] found.
Track   [  CRC   |   V2   ] Status
 01     [15f249c5|6a18f46b] (02+03/10) Accurately ripped
 02     [66f63473|8e46f0c3] (03+03/11) Accurately ripped
 03     [7deb97eb|2d327a3c] (02+03/10) Accurately ripped
 04     [8c8edc08|155f9994] (03+03/11) Accurately ripped
 05     [83a28aae|15ed3553] (03+03/11) Accurately ripped
 06     [179f0878|cfa8f855] (03+03/11) Accurately ripped
 07     [01ced780|6b0747ca] (03+03/11) Accurately ripped
 08     [4b63017c|60f49405] (03+03/11) Accurately ripped
 09     [bf4b4997|6210737c] (03+03/11) Accurately ripped
 10     [472fec90|613902d0] (03+03/11) Accurately ripped
Track Peak [ CRC32  ] [W/O NULL]
 --  100,0 [F2464A69] [0F4AB998]
 01  100,0 [FE03B3DD] [688A24CE]
 02   73,2 [4C416FDC] [6813CDDE]
 03   71,2 [B92E7821] [8C341431]
 04   96,9 [5F6B008D] [5BFD2F28]
 05  100,0 [A7C03C95] [68EF28E6]
 06  100,0 [D2C26B3D] [4E9E1D66]
 07  100,0 [0A37BF8C] [2CB42CFE]
 08  100,0 [2D72AD68] [73059FEF]
 09  100,0 [87FF0FDF] [F258AA30]
 10   42,1 [D726F82D] [F544550D]
Правила, инструкции, FAQ!!!
Торрент  Добавлен [02 мар 2020, 16:50] Скачать торрент Магнет ссылка
Скачать торрент
[ Размер 20.97 КБ / Просмотров 5 ]

Статус
Проверен 
 
Размер  250.53 МБ
Приватный: Нет (DHT включён)
.torrent скачан  0
 


     Отправить личное сообщение
   
Страница 1 из 1
Показать сообщения за:  Поле сортировки  
Начать новую тему Ответить на тему


Сейчас этот форум просматривают: нет зарегистрированных пользователей и гости: 0


Вы не можете начинать темы
Вы не можете отвечать на сообщения
Вы не можете редактировать свои сообщения
Вы не можете удалять свои сообщения
Вы не можете добавлять вложения

Перейти:  
cron