Начать новую тему Ответить на тему
Статистика раздачи
Размер: 192.76 МБ | Добавлен: 02 мар 2020, 16:50 | Скачали: 0
Сидеров: 0  [0 байт/сек]    Личеров: 0  [0 байт/сек]
Пред. тема | След. тема 

Автор
Сообщение

СообщениеДобавлено: 02 мар 2020, 16:50 

Ответить с цитатой 

Maki Asakawa - Sabishii Hibi
Жанр: Vocal Jazz, Blues, Folk
Носитель: CD
Страна-производитель диска (релиза): Япония
Год издания: 1978 (2011)
Издатель (лейбл): Express/Toshiba-EMI
Номер по каталогу: TOCT-27050
Аудиокодек: FLAC (*.flac)
Тип рипа: tracks+.cue
Продолжительность: 00:37:02
Источник: What.CD
Наличие сканов в содержимом раздачи: нет
Треклист:
01. Too Much Mystery (3:28)
02. What Is the Matter with You (3:31)
03. Coffee Hitotsu (3:45)
04. Mr. Magic Man (3:10)
05. Omokage (2:55)
06. Nylon Coverin' Body Smotherin' (5:23)
07. Onna ga Warau (5:15)
08. Sabishii Hibi (4:06)
09. Sombre Dimanche (5:29)
Код:
X Lossless Decoder version 20130720 (144.0)
XLD extraction logfile from 2013-08-05 06:40:34 +0900
浅川マキ / 寂しい日
Used drive : MATSHITA DVD-R   UJ-8A8 (revision HB14)
Media type : Pressed CD
Ripper mode             : XLD Secure Ripper
Disable audio cache     : OK for the drive with a cache less than 1375KiB
Make use of C2 pointers : NO
Read offset correction  : 102
Max retry count         : 20
Gap status              : Analyzed, Appended (except HTOA)
TOC of the extracted CD
     Track |   Start  |  Length  | Start sector | End sector
    ---------------------------------------------------------
        1  | 00:00:00 | 03:28:14 |         0    |    15613
        2  | 03:28:14 | 03:30:47 |     15614    |    31410
        3  | 06:58:61 | 03:45:01 |     31411    |    48286
        4  | 10:43:62 | 03:09:54 |     48287    |    62515
        5  | 13:53:41 | 02:55:26 |     62516    |    75666
        6  | 16:48:67 | 05:22:68 |     75667    |    99884
        7  | 22:11:60 | 05:15:08 |     99885    |   123517
        8  | 27:26:68 | 04:06:34 |    123518    |   142001
        9  | 31:33:27 | 05:28:43 |    142002    |   166644
AccurateRip Summary (DiscID: 000bae69-00573c07-6008ad09)
    Track 01 : Not Found
    Track 02 : OK (v1, confidence 2/2)
    Track 03 : OK (v1, confidence 2/2)
    Track 04 : OK (v1, confidence 2/2)
    Track 05 : OK (v1, confidence 2/2)
    Track 06 : OK (v1, confidence 2/2)
    Track 07 : OK (v1, confidence 2/2)
    Track 08 : OK (v1, confidence 2/2)
    Track 09 : OK (v1, confidence 2/2)
        ->8 tracks accurately ripped, 1 track not found
All Tracks
    Album gain               : -2.80 dB
    Peak                     : 1.000000
    Statistics
        Read error                           : 0
        Jitter error (maybe fixed)           : 0
        Retry sector count                   : 0
        Damaged sector count                 : 0
Track 01
    Filename : /Volumes/G/浅川マキ - 寂しい日 (1978) [FLAC]/01 TOO MUCH MYSTERY.flac
    Pre-gap length : 00:02:00
    Track gain               : -3.69 dB
    Peak                     : 1.000000
    CRC32 hash (test run)    : E1C86CFD
    CRC32 hash               : E1C86CFD
    CRC32 hash (skip zero)   : 8220ABBD
    AccurateRip v1 signature : 53FEE60E
    AccurateRip v2 signature : E83E8C16
        ->Track not present in AccurateRip database.
    Statistics
        Read error                           : 0
        Jitter error (maybe fixed)           : 0
        Retry sector count                   : 0
        Damaged sector count                 : 0
Track 02
    Filename : /Volumes/G/浅川マキ - 寂しい日 (1978) [FLAC]/02 どうしたのさ.flac
    Pre-gap length : 00:04:63
    Track gain               : -2.83 dB
    Peak                     : 1.000000
    CRC32 hash (test run)    : 673B3D8C
    CRC32 hash               : 673B3D8C
    CRC32 hash (skip zero)   : 24F1E44E
    AccurateRip v1 signature : 0D83D46C
    AccurateRip v2 signature : 6AE2EEDE
        ->Accurately ripped (v1, confidence 2/2)
    Statistics
        Read error                           : 0
        Jitter error (maybe fixed)           : 0
        Retry sector count                   : 0
        Damaged sector count                 : 0
Track 03
    Filename : /Volumes/G/浅川マキ - 寂しい日 (1978) [FLAC]/03 コーヒーひとつ.flac
    Pre-gap length : 00:05:60
    Track gain               : -3.20 dB
    Peak                     : 1.000000
    CRC32 hash (test run)    : 87088DE3
    CRC32 hash               : 87088DE3
    CRC32 hash (skip zero)   : C7D7D506
    AccurateRip v1 signature : 03CA2A10
    AccurateRip v2 signature : 37689547
        ->Accurately ripped (v1, confidence 2/2)
    Statistics
        Read error                           : 0
        Jitter error (maybe fixed)           : 0
        Retry sector count                   : 0
        Damaged sector count                 : 0
Track 04
    Filename : /Volumes/G/浅川マキ - 寂しい日 (1978) [FLAC]/04 Mr. マジック・マン.flac
    Pre-gap length : 00:07:18
    Track gain               : -4.25 dB
    Peak                     : 1.000000
    CRC32 hash (test run)    : CAC1521A
    CRC32 hash               : CAC1521A
    CRC32 hash (skip zero)   : 7052AE3B
    AccurateRip v1 signature : B8D84BD6
    AccurateRip v2 signature : E64CE2E5
        ->Accurately ripped (v1, confidence 2/2)
    Statistics
        Read error                           : 0
        Jitter error (maybe fixed)           : 0
        Retry sector count                   : 0
        Damaged sector count                 : 0
Track 05
    Filename : /Volumes/G/浅川マキ - 寂しい日 (1978) [FLAC]/05 面影.flac
    Pre-gap length : 00:03:69
    Track gain               : -2.76 dB
    Peak                     : 0.808807
    CRC32 hash (test run)    : 9BB34F6A
    CRC32 hash               : 9BB34F6A
    CRC32 hash (skip zero)   : 588ACFEC
    AccurateRip v1 signature : 90D7B4A1
    AccurateRip v2 signature : 56DF6EBC
        ->Accurately ripped (v1, confidence 2/2)
    Statistics
        Read error                           : 0
        Jitter error (maybe fixed)           : 0
        Retry sector count                   : 0
        Damaged sector count                 : 0
Track 06
    Filename : /Volumes/G/浅川マキ - 寂しい日 (1978) [FLAC]/06 ナイロン・カバーリング.flac
    Pre-gap length : 00:04:26
    Track gain               : -1.55 dB
    Peak                     : 0.847473
    CRC32 hash (test run)    : F425A9EF
    CRC32 hash               : F425A9EF
    CRC32 hash (skip zero)   : 3F400E48
    AccurateRip v1 signature : 7F4D3A1A
    AccurateRip v2 signature : 1703868D
        ->Accurately ripped (v1, confidence 2/2)
    Statistics
        Read error                           : 0
        Jitter error (maybe fixed)           : 0
        Retry sector count                   : 0
        Damaged sector count                 : 0
Track 07
    Filename : /Volumes/G/浅川マキ - 寂しい日 (1978) [FLAC]/07 女が笑う.flac
    Pre-gap length : 00:04:66
    Track gain               : -1.69 dB
    Peak                     : 1.000000
    CRC32 hash (test run)    : 6DEAB5F9
    CRC32 hash               : 6DEAB5F9
    CRC32 hash (skip zero)   : EF4F6BDF
    AccurateRip v1 signature : B8CBF02C
    AccurateRip v2 signature : 586C139B
        ->Accurately ripped (v1, confidence 2/2)
    Statistics
        Read error                           : 0
        Jitter error (maybe fixed)           : 0
        Retry sector count                   : 0
        Damaged sector count                 : 0
Track 08
    Filename : /Volumes/G/浅川マキ - 寂しい日 (1978) [FLAC]/08 寂しい日々.flac
    Pre-gap length : 00:04:57
    Track gain               : -2.79 dB
    Peak                     : 0.999969
    CRC32 hash (test run)    : 661FDD71
    CRC32 hash               : 661FDD71
    CRC32 hash (skip zero)   : C116AD3C
    AccurateRip v1 signature : 10BEC0A7
    AccurateRip v2 signature : 2E93AFD1
        ->Accurately ripped (v1, confidence 2/2)
    Statistics
        Read error                           : 0
        Jitter error (maybe fixed)           : 0
        Retry sector count                   : 0
        Damaged sector count                 : 0
Track 09
    Filename : /Volumes/G/浅川マキ - 寂しい日 (1978) [FLAC]/09 暗い日曜日.flac
    Pre-gap length : 00:07:46
    Track gain               : -0.78 dB
    Peak                     : 0.559082
    CRC32 hash (test run)    : 9BDC327E
    CRC32 hash               : 9BDC327E
    CRC32 hash (skip zero)   : CEBC0075
    AccurateRip v1 signature : D0C7EF1E
    AccurateRip v2 signature : F48D37F6
        ->Accurately ripped (v1, confidence 2/2)
    Statistics
        Read error                           : 0
        Jitter error (maybe fixed)           : 0
        Retry sector count                   : 0
        Damaged sector count                 : 0
No errors occurred
End of status report
Код:
TITLE "Sabishii Hibi"
PERFORMER "Maki Asakawa"
REM GENRE "Jazz"
REM DATE "1978"
REM DISCID 6008AD09
REM REPLAYGAIN_ALBUM_GAIN -2.80 dB
REM REPLAYGAIN_ALBUM_PEAK 1.000000
FILE "01 - Too Much Mystery.flac" WAVE
  TRACK 01 AUDIO
    TITLE "Too Much Mystery"
    ISRC JPTO07816990
    REM REPLAYGAIN_TRACK_GAIN -3.69 dB
    REM REPLAYGAIN_TRACK_PEAK 1.000000
    INDEX 01 00:00:00
  TRACK 02 AUDIO
    TITLE "What Is the Matter with You"
    ISRC JPTO07817000
    REM REPLAYGAIN_TRACK_GAIN -2.83 dB
    REM REPLAYGAIN_TRACK_PEAK 1.000000
    INDEX 00 03:23:26
FILE "02 - What Is the Matter with You.flac" WAVE
    INDEX 01 00:00:00
  TRACK 03 AUDIO
    TITLE "Coffee Hitotsu"
    ISRC JPTO07817010
    REM REPLAYGAIN_TRACK_GAIN -3.20 dB
    REM REPLAYGAIN_TRACK_PEAK 1.000000
    INDEX 00 03:24:62
FILE "03 - Coffee Hitotsu.flac" WAVE
    INDEX 01 00:00:00
  TRACK 04 AUDIO
    TITLE "Mr. Magic Man"
    ISRC JPTO07817020
    REM REPLAYGAIN_TRACK_GAIN -4.25 dB
    REM REPLAYGAIN_TRACK_PEAK 1.000000
    INDEX 00 03:37:58
FILE "04 - Mr. Magic Man.flac" WAVE
    INDEX 01 00:00:00
  TRACK 05 AUDIO
    TITLE "Omokage"
    ISRC JPTO07817030
    REM REPLAYGAIN_TRACK_GAIN -2.76 dB
    REM REPLAYGAIN_TRACK_PEAK 0.808807
    INDEX 00 03:05:60
FILE "05 - Omokage.flac" WAVE
    INDEX 01 00:00:00
  TRACK 06 AUDIO
    TITLE "Nylon Coverin' Body Smotherin'"
    ISRC JPTO07817040
    REM REPLAYGAIN_TRACK_GAIN -1.55 dB
    REM REPLAYGAIN_TRACK_PEAK 0.847473
    INDEX 00 02:51:00
FILE "06 - Nylon Coverin' Body Smotherin'.flac" WAVE
    INDEX 01 00:00:00
  TRACK 07 AUDIO
    TITLE "Onna ga Warau"
    ISRC JPTO07817050
    REM REPLAYGAIN_TRACK_GAIN -1.69 dB
    REM REPLAYGAIN_TRACK_PEAK 1.000000
    INDEX 00 05:18:02
FILE "07 - Onna ga Warau.flac" WAVE
    INDEX 01 00:00:00
  TRACK 08 AUDIO
    TITLE "Sabishii Hibi"
    ISRC JPTO07817060
    REM REPLAYGAIN_TRACK_GAIN -2.79 dB
    REM REPLAYGAIN_TRACK_PEAK 0.999969
    INDEX 00 05:10:26
FILE "08 - Sabishii Hibi.flac" WAVE
    INDEX 01 00:00:00
  TRACK 09 AUDIO
    TITLE "Sombre Dimanche"
    ISRC JPTO07817070
    REM REPLAYGAIN_TRACK_GAIN -0.78 dB
    REM REPLAYGAIN_TRACK_PEAK 0.559082
    INDEX 00 03:58:63
FILE "09 - Sombre Dimanche.flac" WAVE
    INDEX 01 00:00:00
Код:
[CUETools log; Date: 10.02.2020 20:13:35; Version: 2.1.6]
[CTDB TOCID: vRaayZ6walv.1zKtwFnZo8OWu2E-] found.
Track | CTDB Status
  1   | (12/12) Accurately ripped
  2   | (12/12) Accurately ripped
  3   | (12/12) Accurately ripped
  4   | (12/12) Accurately ripped
  5   | (12/12) Accurately ripped
  6   | (12/12) Accurately ripped
  7   | (12/12) Accurately ripped
  8   | (12/12) Accurately ripped
  9   | (12/12) Accurately ripped
[AccurateRip ID: 000bae69-00573c07-6008ad09] found.
Track   [  CRC   |   V2   ] Status
 01     [53fee60e|e83e8c16] (2+2/4) Accurately ripped
 02     [0d83d46c|6ae2eede] (3+2/5) Accurately ripped
 03     [03ca2a10|37689547] (3+2/5) Accurately ripped
 04     [b8d84bd6|e64ce2e5] (3+2/5) Accurately ripped
 05     [90d7b4a1|56df6ebc] (3+2/5) Accurately ripped
 06     [7f4d3a1a|1703868d] (3+2/5) Accurately ripped
 07     [b8cbf02c|586c139b] (3+2/5) Accurately ripped
 08     [10bec0a7|2e93afd1] (3+2/5) Accurately ripped
 09     [d0c7ef1e|f48d37f6] (3+2/5) Accurately ripped
Track Peak [ CRC32  ] [W/O NULL]
 --  100,0 [C5045A58] [6867FED4]
 01  100,0 [E1C86CFD] [8220ABBD]
 02  100,0 [673B3D8C] [24F1E44E]
 03  100,0 [87088DE3] [C7D7D506]
 04  100,0 [CAC1521A] [7052AE3B]
 05   80,8 [9BB34F6A] [588ACFEC]
 06   84,7 [F425A9EF] [3F400E48]
 07  100,0 [6DEAB5F9] [EF4F6BDF]
 08  100,0 [661FDD71] [C116AD3C]
 09   55,9 [9BDC327E] [CEBC0075]
Правила, инструкции, FAQ!!!
Торрент  Добавлен [02 мар 2020, 16:50] Скачать торрент Магнет ссылка
Скачать торрент
[ Размер 16.42 КБ / Просмотров 9 ]

Статус
Проверен 
 
Размер  192.76 МБ
Приватный: Нет (DHT включён)
.torrent скачан  0
 


     Отправить личное сообщение
   
Страница 1 из 1
Показать сообщения за:  Поле сортировки  
Начать новую тему Ответить на тему


Сейчас этот форум просматривают: нет зарегистрированных пользователей и гости: 0


Вы не можете начинать темы
Вы не можете отвечать на сообщения
Вы не можете редактировать свои сообщения
Вы не можете удалять свои сообщения
Вы не можете добавлять вложения

Перейти:  
cron