Начать новую тему Ответить на тему
Статистика раздачи
Размер: 189.26 МБ | Добавлен: 02 мар 2020, 16:50 | Скачали: 0
Сидеров: 0  [0 байт/сек]    Личеров: 0  [0 байт/сек]
Пред. тема | След. тема 

Автор
Сообщение

СообщениеДобавлено: 02 мар 2020, 16:50 

Ответить с цитатой 

Maki Asakawa - One
Жанр: Vocal Jazz, Blues, Folk
Носитель: CD
Страна-производитель диска (релиза): Япония
Год издания: 1980 (2011)
Издатель (лейбл): Express/Toshiba-EMI
Номер по каталогу: TOCT-27071
Аудиокодек: FLAC (*.flac)
Тип рипа: tracks+.cue
Продолжительность: 00:37:24
Источник: What.CD
Наличие сканов в содержимом раздачи: нет
Треклист:
01. Gogo (7:38)
02. Ano Otoko ga Piano wo Hiita (5:01)
03. Tokai ni Ame ga Furu Koro (4:36)
04. For M (2:13)
05. Pignose to Tegami (17:56)
Код:
X Lossless Decoder version 20130720 (144.0)
XLD extraction logfile from 2013-08-12 12:29:25 +0900
浅川マキ / ONE
Used drive : MATSHITA DVD-R   UJ-8A8 (revision HB14)
Media type : Pressed CD
Ripper mode             : XLD Secure Ripper
Disable audio cache     : OK for the drive with a cache less than 1375KiB
Make use of C2 pointers : NO
Read offset correction  : 102
Max retry count         : 20
Gap status              : Analyzed, Appended (except HTOA)
TOC of the extracted CD
     Track |   Start  |  Length  | Start sector | End sector
    ---------------------------------------------------------
        1  | 00:00:00 | 07:37:48 |         0    |    34322
        2  | 07:37:48 | 05:01:36 |     34323    |    56933
        3  | 12:39:09 | 04:35:72 |     56934    |    77630
        4  | 17:15:06 | 02:13:13 |     77631    |    87618
        5  | 19:28:19 | 17:56:10 |     87619    |   168328
AccurateRip Summary (DiscID: 00067b84-001e7cda-3608c405)
    Track 01 : OK (v1, confidence 1/1)
    Track 02 : OK (v1, confidence 1/1)
    Track 03 : OK (v1, confidence 1/1)
    Track 04 : OK (v1, confidence 1/1)
    Track 05 : OK (v1, confidence 1/1)
        ->All tracks accurately ripped.
All Tracks
    Album gain               : -1.35 dB
    Peak                     : 1.000000
    Statistics
        Read error                           : 0
        Jitter error (maybe fixed)           : 0
        Retry sector count                   : 0
        Damaged sector count                 : 0
Track 01
    Filename : /Volumes/G/浅川マキ - ONE (1980) [FLAC]/01 午後.flac
    Pre-gap length : 00:02:00
    Track gain               : -1.44 dB
    Peak                     : 0.812592
    CRC32 hash (test run)    : 6B6D10B2
    CRC32 hash               : 6B6D10B2
    CRC32 hash (skip zero)   : 18C6A3DF
    AccurateRip v1 signature : FA4336E4
    AccurateRip v2 signature : 0D4B9381
        ->Accurately ripped (v1, confidence 1/1)
    Statistics
        Read error                           : 0
        Jitter error (maybe fixed)           : 0
        Retry sector count                   : 0
        Damaged sector count                 : 0
Track 02
    Filename : /Volumes/G/浅川マキ - ONE (1980) [FLAC]/02 あの男がピアノを弾いた.flac
    Pre-gap length : 00:04:42
    Track gain               : -2.58 dB
    Peak                     : 1.000000
    CRC32 hash (test run)    : 5845BD33
    CRC32 hash               : 5845BD33
    CRC32 hash (skip zero)   : 25A0529A
    AccurateRip v1 signature : 4A3CA4AE
    AccurateRip v2 signature : 1755AA7F
        ->Accurately ripped (v1, confidence 1/1)
    Statistics
        Read error                           : 0
        Jitter error (maybe fixed)           : 0
        Retry sector count                   : 0
        Damaged sector count                 : 0
Track 03
    Filename : /Volumes/G/浅川マキ - ONE (1980) [FLAC]/03 都会に雨が降るころ.flac
    Pre-gap length : 00:01:26
    Track gain               : 0.22 dB
    Peak                     : 0.999969
    CRC32 hash (test run)    : 395B0F61
    CRC32 hash               : 395B0F61
    CRC32 hash (skip zero)   : 3BFA37FE
    AccurateRip v1 signature : 8F4A601A
    AccurateRip v2 signature : 8F920597
        ->Accurately ripped (v1, confidence 1/1)
    Statistics
        Read error                           : 0
        Jitter error (maybe fixed)           : 0
        Retry sector count                   : 0
        Damaged sector count                 : 0
Track 04
    Filename : /Volumes/G/浅川マキ - ONE (1980) [FLAC]/04 For M.flac
    Pre-gap length : 00:08:52
    Track gain               : 1.04 dB
    Peak                     : 0.601807
    CRC32 hash (test run)    : 5891ECBA
    CRC32 hash               : 5891ECBA
    CRC32 hash (skip zero)   : FB6585DD
    AccurateRip v1 signature : B731EBEB
    AccurateRip v2 signature : EEBED277
        ->Accurately ripped (v1, confidence 1/1)
    Statistics
        Read error                           : 0
        Jitter error (maybe fixed)           : 0
        Retry sector count                   : 0
        Damaged sector count                 : 0
Track 05
    Filename : /Volumes/G/浅川マキ - ONE (1980) [FLAC]/05 PIGNOSEと手紙.flac
    Pre-gap length : 00:03:13
    Track gain               : -1.08 dB
    Peak                     : 0.815552
    CRC32 hash (test run)    : 3EB68258
    CRC32 hash               : 3EB68258
    CRC32 hash (skip zero)   : 43349648
    AccurateRip v1 signature : AE1C201E
    AccurateRip v2 signature : 86E565DE
        ->Accurately ripped (v1, confidence 1/1)
    Statistics
        Read error                           : 0
        Jitter error (maybe fixed)           : 0
        Retry sector count                   : 0
        Damaged sector count                 : 0
No errors occurred
End of status report
Код:
TITLE "One"
PERFORMER "Maki Asakawa"
REM GENRE "Jazz"
REM DATE "1980"
REM DISCID 3608C405
REM REPLAYGAIN_ALBUM_GAIN -1.35 dB
REM REPLAYGAIN_ALBUM_PEAK 1.000000
FILE "01 - Gogo.flac" WAVE
  TRACK 01 AUDIO
    TITLE "Gogo"
    ISRC JPTO09044350
    REM REPLAYGAIN_TRACK_GAIN -1.44 dB
    REM REPLAYGAIN_TRACK_PEAK 0.812592
    INDEX 01 00:00:00
  TRACK 02 AUDIO
    TITLE "Ano Otoko ga Piano wo Hiita"
    ISRC JPTO09044360
    REM REPLAYGAIN_TRACK_GAIN -2.58 dB
    REM REPLAYGAIN_TRACK_PEAK 1.000000
    INDEX 00 07:33:06
FILE "02 - Ano Otoko ga Piano wo Hiita.flac" WAVE
    INDEX 01 00:00:00
  TRACK 03 AUDIO
    TITLE "Tokai ni Ame ga Furu Koro"
    ISRC JPTO09044370
    REM REPLAYGAIN_TRACK_GAIN 0.22 dB
    REM REPLAYGAIN_TRACK_PEAK 0.999969
    INDEX 00 05:00:10
FILE "03 - Tokai ni Ame ga Furu Koro.flac" WAVE
    INDEX 01 00:00:00
  TRACK 04 AUDIO
    TITLE "For M"
    ISRC JPTO09044380
    REM REPLAYGAIN_TRACK_GAIN 1.04 dB
    REM REPLAYGAIN_TRACK_PEAK 0.601807
    INDEX 00 04:27:20
FILE "04 - For M.flac" WAVE
    INDEX 01 00:00:00
  TRACK 05 AUDIO
    TITLE "Pignose to Tegami"
    ISRC JPTO09044390
    REM REPLAYGAIN_TRACK_GAIN -1.08 dB
    REM REPLAYGAIN_TRACK_PEAK 0.815552
    INDEX 00 02:10:00
FILE "05 - Pignose to Tegami.flac" WAVE
    INDEX 01 00:00:00
Код:
[CUETools log; Date: 10.02.2020 20:30:03; Version: 2.1.6]
[CTDB TOCID: jbxRpQfRaNRcX113CHzETT7Pc.c-] found.
Track | CTDB Status
  1   | (11/11) Accurately ripped
  2   | (11/11) Accurately ripped
  3   | (11/11) Accurately ripped
  4   | (11/11) Accurately ripped
  5   | (11/11) Accurately ripped
[AccurateRip ID: 00067b84-001e7cda-3608c405] found.
Track   [  CRC   |   V2   ] Status
 01     [fa4336e4|0d4b9381] (2+0/2) Accurately ripped
 02     [4a3ca4ae|1755aa7f] (2+0/2) Accurately ripped
 03     [8f4a601a|8f920597] (2+0/2) Accurately ripped
 04     [b731ebeb|eebed277] (2+0/2) Accurately ripped
 05     [ae1c201e|86e565de] (2+0/2) Accurately ripped
Track Peak [ CRC32  ] [W/O NULL]
 --  100,0 [C7B5737E] [F9A172EF]
 01   81,2 [6B6D10B2] [18C6A3DF]
 02  100,0 [5845BD33] [25A0529A]
 03  100,0 [395B0F61] [3BFA37FE]
 04   60,1 [5891ECBA] [FB6585DD]
 05   81,5 [3EB68258] [43349648]
Правила, инструкции, FAQ!!!
Торрент  Добавлен [02 мар 2020, 16:50] Скачать торрент Магнет ссылка
Скачать торрент
[ Размер 15.86 КБ / Просмотров 3 ]

Статус
Проверен 
 
Размер  189.26 МБ
Приватный: Нет (DHT включён)
.torrent скачан  0
 


     Отправить личное сообщение
   
Страница 1 из 1
Показать сообщения за:  Поле сортировки  
Начать новую тему Ответить на тему


Сейчас этот форум просматривают: Yandex [Bot] и гости: 0


Вы не можете начинать темы
Вы не можете отвечать на сообщения
Вы не можете редактировать свои сообщения
Вы не можете удалять свои сообщения
Вы не можете добавлять вложения

Перейти:  
cron