Начать новую тему Ответить на тему
Статистика раздачи
Размер: 227.38 МБ | Добавлен: 02 мар 2020, 16:50 | Скачали: 0
Сидеров: 0  [0 байт/сек]    Личеров: 0  [0 байт/сек]
Пред. тема | След. тема 

Автор
Сообщение

СообщениеДобавлено: 02 мар 2020, 16:50 

Ответить с цитатой 

Maki Asakawa - Nagare wo Wataru
Жанр: Vocal Jazz, Blues, Folk
Носитель: CD
Страна-производитель диска (релиза): Япония
Год издания: 1977 (2011)
Издатель (лейбл): Express/Toshiba-EMI
Номер по каталогу: TOCT-27048
Аудиокодек: FLAC (*.flac)
Тип рипа: tracks+.cue
Продолжительность: 00:40:03
Источник: What.CD
Наличие сканов в содержимом раздачи: нет
Треклист:
01. Ano Hito wa Itta (4:41)
02. Chijin wo Tazunete (2:55)
03. Watashi no Boogie Woogie (4:32)
04. Nagare wo Wataru (8:43)
05. If I'm on the Late Side (2:40)
06. Futari no Onna no Uta (2:49)
07. Anata ni (5:27)
08. Hatoba (3:40)
09. Zainin Kouta (4:36)
Код:
X Lossless Decoder version 20130720 (144.0)
XLD extraction logfile from 2013-08-07 21:45:28 +0900
浅川マキ / 流れを渡る
Used drive : MATSHITA DVD-R   UJ-8A8 (revision HB14)
Media type : Pressed CD
Ripper mode             : XLD Secure Ripper
Disable audio cache     : OK for the drive with a cache less than 1375KiB
Make use of C2 pointers : NO
Read offset correction  : 102
Max retry count         : 20
Gap status              : Analyzed, Appended (except HTOA)
TOC of the extracted CD
     Track |   Start  |  Length  | Start sector | End sector
    ---------------------------------------------------------
        1  | 00:00:00 | 04:40:49 |         0    |    21048
        2  | 04:40:49 | 02:55:25 |     21049    |    34198
        3  | 07:35:74 | 04:31:64 |     34199    |    54587
        4  | 12:07:63 | 08:43:00 |     54588    |    93812
        5  | 20:50:63 | 02:39:51 |     93813    |   105788
        6  | 23:30:39 | 02:48:43 |    105789    |   118431
        7  | 26:19:07 | 05:26:65 |    118432    |   142946
        8  | 31:45:72 | 03:40:27 |    142947    |   159473
        9  | 35:26:24 | 04:35:41 |    159474    |   180139
AccurateRip Summary (DiscID: 000de45f-0065de91-6f096109)
    Track 01 : OK (v1, confidence 2/2)
    Track 02 : OK (v1, confidence 2/2)
    Track 03 : Not Found
    Track 04 : Not Found
    Track 05 : OK (v1, confidence 1/1)
    Track 06 : Not Found
    Track 07 : OK (v1, confidence 2/2)
    Track 08 : OK (v1, confidence 2/2)
    Track 09 : OK (v1, confidence 2/2)
        ->6 tracks accurately ripped, 3 tracks not found
All Tracks
    Album gain               : -3.56 dB
    Peak                     : 1.000000
    Statistics
        Read error                           : 0
        Jitter error (maybe fixed)           : 0
        Retry sector count                   : 0
        Damaged sector count                 : 0
Track 01
    Filename : /Volumes/G/浅川マキ - 流れを渡る (1977) [FLAC]/01 あのひとは行った.flac
    Pre-gap length : 00:02:00
    Track gain               : -4.30 dB
    Peak                     : 1.000000
    CRC32 hash (test run)    : 6FE7F0A0
    CRC32 hash               : 6FE7F0A0
    CRC32 hash (skip zero)   : 358F6701
    AccurateRip v1 signature : CE1ADF8F
    AccurateRip v2 signature : 58165EAF
        ->Accurately ripped (v1, confidence 2/2)
    Statistics
        Read error                           : 0
        Jitter error (maybe fixed)           : 0
        Retry sector count                   : 0
        Damaged sector count                 : 0
Track 02
    Filename : /Volumes/G/浅川マキ - 流れを渡る (1977) [FLAC]/02 知人を訪ねて.flac
    Pre-gap length : 00:03:67
    Track gain               : -3.39 dB
    Peak                     : 0.932190
    CRC32 hash (test run)    : 15A22DA6
    CRC32 hash               : 15A22DA6
    CRC32 hash (skip zero)   : CC9741B9
    AccurateRip v1 signature : A6994602
    AccurateRip v2 signature : 07047778
        ->Accurately ripped (v1, confidence 2/2)
    Statistics
        Read error                           : 0
        Jitter error (maybe fixed)           : 0
        Retry sector count                   : 0
        Damaged sector count                 : 0
Track 03
    Filename : /Volumes/G/浅川マキ - 流れを渡る (1977) [FLAC]/03 私のブキウギ.flac
    Pre-gap length : 00:04:72
    Track gain               : -4.05 dB
    Peak                     : 1.000000
    CRC32 hash (test run)    : B0777FB4
    CRC32 hash               : B0777FB4
    CRC32 hash (skip zero)   : 30AD48F2
    AccurateRip v1 signature : 0220D30B
    AccurateRip v2 signature : 40D85474
        ->Track not present in AccurateRip database.
    Statistics
        Read error                           : 0
        Jitter error (maybe fixed)           : 0
        Retry sector count                   : 0
        Damaged sector count                 : 0
Track 04
    Filename : /Volumes/G/浅川マキ - 流れを渡る (1977) [FLAC]/04 流れを渡る.flac
    Pre-gap length : 00:04:12
    Track gain               : -2.41 dB
    Peak                     : 1.000000
    CRC32 hash (test run)    : 27DE9F52
    CRC32 hash               : 27DE9F52
    CRC32 hash (skip zero)   : A8D4F854
    AccurateRip v1 signature : F049A15A
    AccurateRip v2 signature : 8301A7D1
        ->Track not present in AccurateRip database.
    Statistics
        Read error                           : 0
        Jitter error (maybe fixed)           : 0
        Retry sector count                   : 0
        Damaged sector count                 : 0
Track 05
    Filename : /Volumes/G/浅川マキ - 流れを渡る (1977) [FLAC]/05 IF I'M ON THE LATE SIDE.flac
    Pre-gap length : 00:04:07
    Track gain               : -3.85 dB
    Peak                     : 1.000000
    CRC32 hash (test run)    : B7FC9CCE
    CRC32 hash               : B7FC9CCE
    CRC32 hash (skip zero)   : CADE30AD
    AccurateRip v1 signature : 30E8F12A
    AccurateRip v2 signature : 9070B37D
        ->Accurately ripped (v1, confidence 1/1)
    Statistics
        Read error                           : 0
        Jitter error (maybe fixed)           : 0
        Retry sector count                   : 0
        Damaged sector count                 : 0
Track 06
    Filename : /Volumes/G/浅川マキ - 流れを渡る (1977) [FLAC]/06 二人の女のうた.flac
    Pre-gap length : 00:03:28
    Track gain               : -3.70 dB
    Peak                     : 0.999969
    CRC32 hash (test run)    : 9A83FD9E
    CRC32 hash               : 9A83FD9E
    CRC32 hash (skip zero)   : 267F82D9
    AccurateRip v1 signature : 9E8E8BCF
    AccurateRip v2 signature : A94AFABB
        ->Track not present in AccurateRip database.
    Statistics
        Read error                           : 0
        Jitter error (maybe fixed)           : 0
        Retry sector count                   : 0
        Damaged sector count                 : 0
Track 07
    Filename : /Volumes/G/浅川マキ - 流れを渡る (1977) [FLAC]/07 あなたに.flac
    Pre-gap length : 00:03:47
    Track gain               : -2.21 dB
    Peak                     : 0.927521
    CRC32 hash (test run)    : E928C910
    CRC32 hash               : E928C910
    CRC32 hash (skip zero)   : 992C3BE5
    AccurateRip v1 signature : FC7B144B
    AccurateRip v2 signature : 0D17868C
        ->Accurately ripped (v1, confidence 2/2)
    Statistics
        Read error                           : 0
        Jitter error (maybe fixed)           : 0
        Retry sector count                   : 0
        Damaged sector count                 : 0
Track 08
    Filename : /Volumes/G/浅川マキ - 流れを渡る (1977) [FLAC]/08 波止場.flac
    Pre-gap length : 00:03:26
    Track gain               : -2.97 dB
    Peak                     : 0.999969
    CRC32 hash (test run)    : 7A7376BD
    CRC32 hash               : 7A7376BD
    CRC32 hash (skip zero)   : CDCBAB19
    AccurateRip v1 signature : 25DBB63D
    AccurateRip v2 signature : 12260A16
        ->Accurately ripped (v1, confidence 2/2)
    Statistics
        Read error                           : 0
        Jitter error (maybe fixed)           : 0
        Retry sector count                   : 0
        Damaged sector count                 : 0
Track 09
    Filename : /Volumes/G/浅川マキ - 流れを渡る (1977) [FLAC]/09 罪人小唄.flac
    Pre-gap length : 00:04:48
    Track gain               : -3.82 dB
    Peak                     : 1.000000
    CRC32 hash (test run)    : 5FF4C1D7
    CRC32 hash               : 5FF4C1D7
    CRC32 hash (skip zero)   : 65F56E9B
    AccurateRip v1 signature : B83A6E91
    AccurateRip v2 signature : E5E83E45
        ->Accurately ripped (v1, confidence 2/2)
    Statistics
        Read error                           : 0
        Jitter error (maybe fixed)           : 0
        Retry sector count                   : 0
        Damaged sector count                 : 0
No errors occurred
End of status report
Код:
TITLE "Nagare wo Wataru"
PERFORMER "Maki Asakawa"
REM GENRE "Jazz"
REM DATE "1977"
REM DISCID 6F096109
REM REPLAYGAIN_ALBUM_GAIN -3.56 dB
REM REPLAYGAIN_ALBUM_PEAK 1.000000
FILE "01 - Ano Hito wa Itta.flac" WAVE
  TRACK 01 AUDIO
    TITLE "Ano Hito wa Itta"
    ISRC JPTO07716440
    REM REPLAYGAIN_TRACK_GAIN -4.30 dB
    REM REPLAYGAIN_TRACK_PEAK 1.000000
    INDEX 01 00:00:00
  TRACK 02 AUDIO
    TITLE "Chijin wo Tazunete"
    ISRC JPTO07716450
    REM REPLAYGAIN_TRACK_GAIN -3.39 dB
    REM REPLAYGAIN_TRACK_PEAK 0.932190
    INDEX 00 04:36:57
FILE "02 - Chijin wo Tazunete.flac" WAVE
    INDEX 01 00:00:00
  TRACK 03 AUDIO
    TITLE "Watashi no Boogie Woogie"
    ISRC JPTO07716460
    REM REPLAYGAIN_TRACK_GAIN -4.05 dB
    REM REPLAYGAIN_TRACK_PEAK 1.000000
    INDEX 00 02:50:28
FILE "03 - Watashi no Boogie Woogie.flac" WAVE
    INDEX 01 00:00:00
  TRACK 04 AUDIO
    TITLE "Nagare wo Wataru"
    ISRC JPTO07716470
    REM REPLAYGAIN_TRACK_GAIN -2.41 dB
    REM REPLAYGAIN_TRACK_PEAK 1.000000
    INDEX 00 04:27:52
FILE "04 - Nagare wo Wataru.flac" WAVE
    INDEX 01 00:00:00
  TRACK 05 AUDIO
    TITLE "If I'm on the Late Side"
    ISRC JPTO07716480
    REM REPLAYGAIN_TRACK_GAIN -3.85 dB
    REM REPLAYGAIN_TRACK_PEAK 1.000000
    INDEX 00 08:38:68
FILE "05 - If I'm on the Late Side.flac" WAVE
    INDEX 01 00:00:00
  TRACK 06 AUDIO
    TITLE "Futari no Onna no Uta"
    ISRC JPTO07716490
    REM REPLAYGAIN_TRACK_GAIN -3.70 dB
    REM REPLAYGAIN_TRACK_PEAK 0.999969
    INDEX 00 02:36:23
FILE "06 - Futari no Onna no Uta.flac" WAVE
    INDEX 01 00:00:00
  TRACK 07 AUDIO
    TITLE "Anata ni"
    ISRC JPTO07716500
    REM REPLAYGAIN_TRACK_GAIN -2.21 dB
    REM REPLAYGAIN_TRACK_PEAK 0.927521
    INDEX 00 02:44:71
FILE "07 - Anata ni.flac" WAVE
    INDEX 01 00:00:00
  TRACK 08 AUDIO
    TITLE "Hatoba"
    ISRC JPTO07716510
    REM REPLAYGAIN_TRACK_GAIN -2.97 dB
    REM REPLAYGAIN_TRACK_PEAK 0.999969
    INDEX 00 05:23:39
FILE "08 - Hatoba.flac" WAVE
    INDEX 01 00:00:00
  TRACK 09 AUDIO
    TITLE "Zainin Kouta"
    ISRC JPTO07716520
    REM REPLAYGAIN_TRACK_GAIN -3.82 dB
    REM REPLAYGAIN_TRACK_PEAK 1.000000
    INDEX 00 03:35:54
FILE "09 - Zainin Kouta.flac" WAVE
    INDEX 01 00:00:00
Код:
[CUETools log; Date: 10.02.2020 19:54:33; Version: 2.1.6]
[CTDB TOCID: IVxrYruQ22gv24HfnShdvde42zY-] found.
Track | CTDB Status
  1   | (15/15) Accurately ripped
  2   | (15/15) Accurately ripped
  3   | (15/15) Accurately ripped
  4   | (15/15) Accurately ripped
  5   | (15/15) Accurately ripped
  6   | (15/15) Accurately ripped
  7   | (15/15) Accurately ripped
  8   | (15/15) Accurately ripped
  9   | (14/15) Accurately ripped
[AccurateRip ID: 000de45f-0065de91-6f096109] found.
Track   [  CRC   |   V2   ] Status
 01     [ce1adf8f|58165eaf] (3+2/5) Accurately ripped
 02     [a6994602|07047778] (3+2/5) Accurately ripped
 03     [0220d30b|40d85474] (2+2/4) Accurately ripped
 04     [f049a15a|8301a7d1] (2+2/4) Accurately ripped
 05     [30e8f12a|9070b37d] (2+2/4) Accurately ripped
 06     [9e8e8bcf|a94afabb] (2+2/4) Accurately ripped
 07     [fc7b144b|0d17868c] (3+2/5) Accurately ripped
 08     [25dbb63d|12260a16] (3+2/5) Accurately ripped
 09     [b83a6e91|e5e83e45] (3+2/5) Accurately ripped
Track Peak [ CRC32  ] [W/O NULL]
 --  100,0 [7E1C20C1] [C6E5B971]
 01  100,0 [6FE7F0A0] [358F6701]
 02   93,2 [15A22DA6] [CC9741B9]
 03  100,0 [B0777FB4] [30AD48F2]
 04  100,0 [27DE9F52] [A8D4F854]
 05  100,0 [B7FC9CCE] [CADE30AD]
 06  100,0 [9A83FD9E] [267F82D9]
 07   92,7 [E928C910] [992C3BE5]
 08  100,0 [7A7376BD] [CDCBAB19]
 09  100,0 [5FF4C1D7] [65F56E9B]
Правила, инструкции, FAQ!!!
Торрент  Добавлен [02 мар 2020, 16:50] Скачать торрент Магнет ссылка
Скачать торрент
[ Размер 19.12 КБ / Просмотров 3 ]

Статус
Проверен 
 
Размер  227.38 МБ
Приватный: Нет (DHT включён)
.torrent скачан  0
 


     Отправить личное сообщение
   
Страница 1 из 1
Показать сообщения за:  Поле сортировки  
Начать новую тему Ответить на тему


Сейчас этот форум просматривают: нет зарегистрированных пользователей и гости: 0


Вы не можете начинать темы
Вы не можете отвечать на сообщения
Вы не можете редактировать свои сообщения
Вы не можете удалять свои сообщения
Вы не можете добавлять вложения

Перейти:  
cron
cron