Начать новую тему Ответить на тему
Статистика раздачи
Размер: 212.63 МБ | Добавлен: 02 мар 2020, 16:50 | Скачали: 0
Сидеров: 0  [0 байт/сек]    Личеров: 0  [0 байт/сек]
Пред. тема | След. тема 

Автор
Сообщение

СообщениеДобавлено: 02 мар 2020, 16:50 

Ответить с цитатой 

Maki Asakawa - Blue Spirit Blues
Жанр: Vocal Jazz, Blues, Folk
Носитель: CD
Страна-производитель диска (релиза): Япония
Год издания: 1972 (2011)
Издатель (лейбл): Express/Toshiba-EMI
Номер по каталогу: TOCT-27044
Аудиокодек: FLAC (*.flac)
Тип рипа: tracks+.cue
Продолжительность: 00:38:38
Источник: What.CD
Наличие сканов в содержимом раздачи: нет
Треклист:
01. Blue Spirit Blues (5:48)
02. Shipwreck Blues (3:26)
03. Strange Fruit (6:37)
04. Ano Ko ga Kureta Blues (4:10)
05. Hustlin' Dan (4:54)
06. Page One (3:18)
07. Hi Tomoshi Koro (2:55)
08. Machi (3:39)
09. Daisajin (3:51)
Код:
X Lossless Decoder version 20130407 (143.0)
XLD extraction logfile from 2013-06-10 11:19:52 +0900
浅川マキ / ブルー・スピリット・ブルース
Used drive : MATSHITA DVD-R   UJ-8A8 (revision HB14)
Media type : Pressed CD
Ripper mode             : XLD Secure Ripper
Disable audio cache     : OK for the drive with a cache less than 1375KiB
Make use of C2 pointers : NO
Read offset correction  : 102
Max retry count         : 20
Gap status              : Analyzed, Appended (except HTOA)
TOC of the extracted CD
     Track |   Start  |  Length  | Start sector | End sector
    ---------------------------------------------------------
        1  | 00:00:00 | 05:48:12 |         0    |    26111
        2  | 05:48:12 | 03:25:65 |     26112    |    41551
        3  | 09:14:02 | 06:37:20 |     41552    |    71346
        4  | 15:51:22 | 04:09:71 |     71347    |    90092
        5  | 20:01:18 | 04:54:09 |     90093    |   112151
        6  | 24:55:27 | 03:17:70 |    112152    |   126996
        7  | 28:13:22 | 02:54:61 |    126997    |   140107
        8  | 31:08:08 | 03:39:22 |    140108    |   156554
        9  | 34:47:30 | 03:51:32 |    156555    |   173911
AccurateRip Summary (DiscID: 000e534c-0066e634-7e090e09)
    Track 01 : OK (v1, confidence 1/1)
    Track 02 : OK (v1, confidence 2/2)
    Track 03 : OK (v1, confidence 2/2)
    Track 04 : OK (v1, confidence 2/2)
    Track 05 : OK (v1, confidence 2/2)
    Track 06 : OK (v1, confidence 2/2)
    Track 07 : OK (v1, confidence 2/2)
    Track 08 : OK (v1, confidence 2/2)
    Track 09 : OK (v1, confidence 2/2)
        ->All tracks accurately ripped.
All Tracks
    Album gain               : -5.07 dB
    Peak                     : 1.000000
    Statistics
        Read error                           : 0
        Jitter error (maybe fixed)           : 0
        Retry sector count                   : 0
        Damaged sector count                 : 0
Track 01
    Filename : /Volumes/G/浅川マキ - ブルー・スピリット・ブルース (1972) [FLAC]/01 ブルー・スピリット・ブルース.flac
    Pre-gap length : 00:02:00
    Track gain               : -3.02 dB
    Peak                     : 1.000000
    CRC32 hash (test run)    : 18CA401F
    CRC32 hash               : 18CA401F
    CRC32 hash (skip zero)   : BEB1A0E0
    AccurateRip v1 signature : 7D0AFE0C
    AccurateRip v2 signature : F22349E7
        ->Accurately ripped (v1, confidence 1/1)
    Statistics
        Read error                           : 0
        Jitter error (maybe fixed)           : 0
        Retry sector count                   : 0
        Damaged sector count                 : 0
Track 02
    Filename : /Volumes/G/浅川マキ - ブルー・スピリット・ブルース (1972) [FLAC]/02 難破ブルース.flac
    Pre-gap length : 00:02:68
    Track gain               : -6.17 dB
    Peak                     : 1.000000
    CRC32 hash (test run)    : 9D4C412B
    CRC32 hash               : 9D4C412B
    CRC32 hash (skip zero)   : A949C133
    AccurateRip v1 signature : 174C809E
    AccurateRip v2 signature : D6498FFB
        ->Accurately ripped (v1, confidence 2/2)
    Statistics
        Read error                           : 0
        Jitter error (maybe fixed)           : 0
        Retry sector count                   : 0
        Damaged sector count                 : 0
Track 03
    Filename : /Volumes/G/浅川マキ - ブルー・スピリット・ブルース (1972) [FLAC]/03 奇妙な果実.flac
    Pre-gap length : 00:05:69
    Track gain               : -4.71 dB
    Peak                     : 1.000000
    CRC32 hash (test run)    : 357A1879
    CRC32 hash               : 357A1879
    CRC32 hash (skip zero)   : FA947E8F
    AccurateRip v1 signature : FDC3BDCE
    AccurateRip v2 signature : 4451F338
        ->Accurately ripped (v1, confidence 2/2)
    Statistics
        Read error                           : 0
        Jitter error (maybe fixed)           : 0
        Retry sector count                   : 0
        Damaged sector count                 : 0
Track 04
    Filename : /Volumes/G/浅川マキ - ブルー・スピリット・ブルース (1972) [FLAC]/04 あの娘がくれたブルース.flac
    Pre-gap length : 00:04:15
    Track gain               : -3.90 dB
    Peak                     : 1.000000
    CRC32 hash (test run)    : 141BAB82
    CRC32 hash               : 141BAB82
    CRC32 hash (skip zero)   : D4C1CB77
    AccurateRip v1 signature : 4631F2D7
    AccurateRip v2 signature : DC7D5EE4
        ->Accurately ripped (v1, confidence 2/2)
    Statistics
        Read error                           : 0
        Jitter error (maybe fixed)           : 0
        Retry sector count                   : 0
        Damaged sector count                 : 0
Track 05
    Filename : /Volumes/G/浅川マキ - ブルー・スピリット・ブルース (1972) [FLAC]/05 ハスリン・ダン.flac
    Pre-gap length : 00:03:34
    Track gain               : -5.85 dB
    Peak                     : 1.000000
    CRC32 hash (test run)    : 001FB41B
    CRC32 hash               : 001FB41B
    CRC32 hash (skip zero)   : 88EEECBF
    AccurateRip v1 signature : 8D39E1F3
    AccurateRip v2 signature : CF9D4ACC
        ->Accurately ripped (v1, confidence 2/2)
    Statistics
        Read error                           : 0
        Jitter error (maybe fixed)           : 0
        Retry sector count                   : 0
        Damaged sector count                 : 0
Track 06
    Filename : /Volumes/G/浅川マキ - ブルー・スピリット・ブルース (1972) [FLAC]/06 ページ・ワン.flac
    Pre-gap length : 00:02:62
    Track gain               : -5.20 dB
    Peak                     : 1.000000
    CRC32 hash (test run)    : 8981B2D6
    CRC32 hash               : 8981B2D6
    CRC32 hash (skip zero)   : E1E7512F
    AccurateRip v1 signature : 870B7417
    AccurateRip v2 signature : 1C87BF4F
        ->Accurately ripped (v1, confidence 2/2)
    Statistics
        Read error                           : 0
        Jitter error (maybe fixed)           : 0
        Retry sector count                   : 0
        Damaged sector count                 : 0
Track 07
    Filename : /Volumes/G/浅川マキ - ブルー・スピリット・ブルース (1972) [FLAC]/07 灯ともし頃.flac
    Pre-gap length : 00:03:48
    Track gain               : -4.38 dB
    Peak                     : 0.999969
    CRC32 hash (test run)    : 9FF9A89C
    CRC32 hash               : 9FF9A89C
    CRC32 hash (skip zero)   : 3A803425
    AccurateRip v1 signature : EEC4F9A3
    AccurateRip v2 signature : B33F33F4
        ->Accurately ripped (v1, confidence 2/2)
    Statistics
        Read error                           : 0
        Jitter error (maybe fixed)           : 0
        Retry sector count                   : 0
        Damaged sector count                 : 0
Track 08
    Filename : /Volumes/G/浅川マキ - ブルー・スピリット・ブルース (1972) [FLAC]/08 町.flac
    Pre-gap length : 00:02:11
    Track gain               : -5.95 dB
    Peak                     : 1.000000
    CRC32 hash (test run)    : EEA8DA8A
    CRC32 hash               : EEA8DA8A
    CRC32 hash (skip zero)   : 6C57F9A3
    AccurateRip v1 signature : 06A57C67
    AccurateRip v2 signature : 23E7B283
        ->Accurately ripped (v1, confidence 2/2)
    Statistics
        Read error                           : 0
        Jitter error (maybe fixed)           : 0
        Retry sector count                   : 0
        Damaged sector count                 : 0
Track 09
    Filename : /Volumes/G/浅川マキ - ブルー・スピリット・ブルース (1972) [FLAC]/09 大砂塵.flac
    Pre-gap length : 00:06:58
    Track gain               : -3.65 dB
    Peak                     : 0.979431
    CRC32 hash (test run)    : 4780E44E
    CRC32 hash               : 4780E44E
    CRC32 hash (skip zero)   : 893B50A1
    AccurateRip v1 signature : 3CFF5293
    AccurateRip v2 signature : 7D0D27EC
        ->Accurately ripped (v1, confidence 2/2)
    Statistics
        Read error                           : 0
        Jitter error (maybe fixed)           : 0
        Retry sector count                   : 0
        Damaged sector count                 : 0
No errors occurred
End of status report
Код:
TITLE "Blue Spirit Blues"
PERFORMER "Maki Asakawa"
REM GENRE "Jazz"
REM DATE "1972"
REM DISCID 7E090E09
REM REPLAYGAIN_ALBUM_GAIN -5.07 dB
REM REPLAYGAIN_ALBUM_PEAK 1.000000
FILE "01 - Blue Spirit Blues.flac" WAVE
  TRACK 01 AUDIO
    TITLE "Blue Spirit Blues"
    ISRC JPTO01001720
    REM REPLAYGAIN_TRACK_GAIN -3.02 dB
    REM REPLAYGAIN_TRACK_PEAK 1.000000
    INDEX 01 00:00:00
  TRACK 02 AUDIO
    TITLE "Shipwreck Blues"
    ISRC JPTO01001721
    REM REPLAYGAIN_TRACK_GAIN -6.17 dB
    REM REPLAYGAIN_TRACK_PEAK 1.000000
    INDEX 00 05:45:19
FILE "02 - Shipwreck Blues.flac" WAVE
    INDEX 01 00:00:00
  TRACK 03 AUDIO
    TITLE "Strange Fruit"
    ISRC JPTO01001722
    REM REPLAYGAIN_TRACK_GAIN -4.71 dB
    REM REPLAYGAIN_TRACK_PEAK 1.000000
    INDEX 00 03:19:71
FILE "03 - Strange Fruit.flac" WAVE
    INDEX 01 00:00:00
  TRACK 04 AUDIO
    TITLE "Ano Ko ga Kureta Blues"
    ISRC JPTO01001723
    REM REPLAYGAIN_TRACK_GAIN -3.90 dB
    REM REPLAYGAIN_TRACK_PEAK 1.000000
    INDEX 00 06:33:05
FILE "04 - Ano Ko ga Kureta Blues.flac" WAVE
    INDEX 01 00:00:00
  TRACK 05 AUDIO
    TITLE "Hustlin' Dan"
    ISRC JPTO01001724
    REM REPLAYGAIN_TRACK_GAIN -5.85 dB
    REM REPLAYGAIN_TRACK_PEAK 1.000000
    INDEX 00 04:06:37
FILE "05 - Hustlin' Dan.flac" WAVE
    INDEX 01 00:00:00
  TRACK 06 AUDIO
    TITLE "Page One"
    ISRC JPTO01001725
    REM REPLAYGAIN_TRACK_GAIN -5.20 dB
    REM REPLAYGAIN_TRACK_PEAK 1.000000
    INDEX 00 04:51:22
FILE "06 - Page One.flac" WAVE
    INDEX 01 00:00:00
  TRACK 07 AUDIO
    TITLE "Hi Tomoshi Koro"
    ISRC JPTO01001726
    REM REPLAYGAIN_TRACK_GAIN -4.38 dB
    REM REPLAYGAIN_TRACK_PEAK 0.999969
    INDEX 00 03:14:22
FILE "07 - Hi Tomoshi Koro.flac" WAVE
    INDEX 01 00:00:00
  TRACK 08 AUDIO
    TITLE "Machi"
    ISRC JPTO01001727
    REM REPLAYGAIN_TRACK_GAIN -5.95 dB
    REM REPLAYGAIN_TRACK_PEAK 1.000000
    INDEX 00 02:52:50
FILE "08 - Machi.flac" WAVE
    INDEX 01 00:00:00
  TRACK 09 AUDIO
    TITLE "Daisajin"
    ISRC JPTO01001728
    REM REPLAYGAIN_TRACK_GAIN -3.65 dB
    REM REPLAYGAIN_TRACK_PEAK 0.979431
    INDEX 00 03:32:39
FILE "09 - Daisajin.flac" WAVE
    INDEX 01 00:00:00
Код:
[CUETools log; Date: 10.02.2020 16:06:18; Version: 2.1.6]
[CTDB TOCID: Nf_Jwyk.fYs6eVvJb.9zw9jI0wQ-] found.
Track | CTDB Status
  1   | (17/17) Accurately ripped
  2   | (17/17) Accurately ripped
  3   | (17/17) Accurately ripped
  4   | (17/17) Accurately ripped
  5   | (17/17) Accurately ripped
  6   | (17/17) Accurately ripped
  7   | (17/17) Accurately ripped
  8   | (17/17) Accurately ripped
  9   | (17/17) Accurately ripped
[AccurateRip ID: 000e534c-0066e634-7e090e09] found.
Track   [  CRC   |   V2   ] Status
 01     [7d0afe0c|f22349e7] (3+2/5) Accurately ripped
 02     [174c809e|d6498ffb] (4+2/6) Accurately ripped
 03     [fdc3bdce|4451f338] (4+2/6) Accurately ripped
 04     [4631f2d7|dc7d5ee4] (4+2/6) Accurately ripped
 05     [8d39e1f3|cf9d4acc] (4+2/6) Accurately ripped
 06     [870b7417|1c87bf4f] (4+2/6) Accurately ripped
 07     [eec4f9a3|b33f33f4] (4+2/6) Accurately ripped
 08     [06a57c67|23e7b283] (4+2/6) Accurately ripped
 09     [3cff5293|7d0d27ec] (4+2/6) Accurately ripped
Track Peak [ CRC32  ] [W/O NULL]
 --  100,0 [DBC1E727] [FC66D0BD]
 01  100,0 [18CA401F] [BEB1A0E0]
 02  100,0 [9D4C412B] [A949C133]
 03  100,0 [357A1879] [FA947E8F]
 04  100,0 [141BAB82] [D4C1CB77]
 05  100,0 [001FB41B] [88EEECBF]
 06  100,0 [8981B2D6] [E1E7512F]
 07  100,0 [9FF9A89C] [3A803425]
 08  100,0 [EEA8DA8A] [6C57F9A3]
 09   97,9 [4780E44E] [893B50A1]
Третья студийная работа Маки Асакавы, вышедшая вслед за концертным диском. Здесь сделан значительный сдвиг в сторону джаза, с привлечением, с одной стороны, классических композиций Бесси Смит и Джеймса Крофорда, с другой – медных духовых для двух из девяти треков, вошедших в альбом. Сама стилистика этой пластинки стала более джазовой, что отражено и в фортепианных партиях, и в хрипловатом вокале Маки. С другой стороны, прочно удерживает свои позиции и сонграйтеская составляющая: многие композиции по-прежнему исполняются просто под акустическую гитару, с психоделически-блюзовой окраской. Несколько выделяется на общем меланхолическом фоне динамичная Machi, где, помимо, саксофона и тромбона, приняли участие известные сессионеры басист Масайоси Таканака и барабанщик Хиро Цунода (на тот момент составлявшие ритм-секцию Flied Egg). Неплохой, кстати, диск – мне он понравился больше первых.
-- daydreamer
Правила, инструкции, FAQ!!!
Торрент  Добавлен [02 мар 2020, 16:50] Скачать торрент Магнет ссылка
Скачать торрент
[ Размер 17.86 КБ / Просмотров 5 ]

Статус
Проверен 
 
Размер  212.63 МБ
Приватный: Нет (DHT включён)
.torrent скачан  0
 


     Отправить личное сообщение
   
Страница 1 из 1
Показать сообщения за:  Поле сортировки  
Начать новую тему Ответить на тему


Сейчас этот форум просматривают: нет зарегистрированных пользователей и гости: 0


Вы не можете начинать темы
Вы не можете отвечать на сообщения
Вы не можете редактировать свои сообщения
Вы не можете удалять свои сообщения
Вы не можете добавлять вложения

Перейти:  
cron