Начать новую тему Ответить на тему
Статистика раздачи
Размер: 183.63 МБ | Добавлен: 05 янв 2020, 15:26 | Скачали: 0
Сидеров: 0  [0 байт/сек]    Личеров: 0  [0 байт/сек]
Пред. тема | След. тема 

Автор
Сообщение

СообщениеДобавлено: 05 янв 2020, 15:26 

Ответить с цитатой 

Barbara Cook - No One Is Alone
Жанр: Vocal Jazz
Носитель: CD
Страна-производитель диска (релиза): США
Год издания: 2007
Издатель (лейбл): DRG Records
Номер по каталогу: 91501
Аудиокодек: FLAC (*.flac)
Тип рипа: tracks+.cue
Продолжительность: 00:43:37
Источник: weisguy
Наличие сканов в содержимом раздачи: нет
Треклист:
01. Something's Coming (3:16)
02. Never Never Land (2:48)
03. The Surrey with the Fringe on Top (3:00)
04. Long Before I Knew You/I Fall in Love Too Easily (4:23)
05. Nobody Else But Me (2:35)
06. Some Other Time (3:09)
07. No One Is Alone (3:28)
08. You're What I Need (2:22)
09. One More Kiss/Goodbye for Now (4:52)
10. I Wish I Could Forget You (3:16)
11. Lover, Come Back to Me! (2:27)
12. No More (4:11)
13. Make Our Garden Grow (3:50)
Код:
Exact Audio Copy V1.0 beta 2 from 29. April 2011
EAC extraction logfile from 26. January 2012, 13:45
Barbara Cook / No One Is Alone
Used drive  : ASUS    DRW-2014L1T   Adapter: 0  ID: 0
Read mode               : Secure
Utilize accurate stream : Yes
Defeat audio cache      : Yes
Make use of C2 pointers : No
Read offset correction                      : 6
Overread into Lead-In and Lead-Out          : No
Fill up missing offset samples with silence : Yes
Delete leading and trailing silent blocks   : No
Null samples used in CRC calculations       : Yes
Used interface                              : Native Win32 interface for Win NT & 2000
Gap handling                                : Appended to previous track
Used output format              : User Defined Encoder
Selected bitrate                : 128 kBit/s
Quality                         : High
Add ID3 tag                     : No
Command line compressor         : C:\Program Files (x86)\Exact Audio Copy\Flac\flac.exe
Additional command line options : -8 -V -T "ARTIST=%artist%" -T "TITLE=%title%" -T "ALBUM=%albumtitle%" -T "DATE=%year%" -T "TRACKNUMBER=%tracknr%" -T "GENRE=%genre%" -T "PERFORMER=%albuminterpret%" -T "COMPOSER=%composer%" %haslyrics%--tag-from-file=LYRICS
TOC of the extracted CD
     Track |   Start  |  Length  | Start sector | End sector
    ---------------------------------------------------------
        1  |  0:00.00 |  3:16.33 |         0    |    14732
        2  |  3:16.33 |  2:47.54 |     14733    |    27311
        3  |  6:04.12 |  2:59.38 |     27312    |    40774
        4  |  9:03.50 |  4:23.26 |     40775    |    60525
        5  | 13:27.01 |  2:34.64 |     60526    |    72139
        6  | 16:01.65 |  3:08.51 |     72140    |    86290
        7  | 19:10.41 |  3:27.59 |     86291    |   101874
        8  | 22:38.25 |  2:21.67 |    101875    |   112516
        9  | 25:00.17 |  4:51.71 |    112517    |   134412
       10  | 29:52.13 |  3:15.60 |    134413    |   149097
       11  | 33:07.73 |  2:26.53 |    149098    |   160100
       12  | 35:34.51 |  4:11.05 |    160101    |   178930
       13  | 39:45.56 |  3:50.04 |    178931    |   196184
Track  1
     Filename d:\wave dumps\01 - Something's Coming.wav
     Pre-gap length  0:00:02.00
     Peak level 97.2 %
     Extraction speed 4.3 X
     Track quality 100.0 %
     Test CRC FB9B8115
     Copy CRC FB9B8115
     Track not present in AccurateRip database
     Copy OK
Track  2
     Filename d:\wave dumps\02 - Never Never Land.wav
     Pre-gap length  0:00:02.32
     Peak level 97.2 %
     Extraction speed 4.5 X
     Track quality 100.0 %
     Test CRC 8868D02A
     Copy CRC 8868D02A
     Track not present in AccurateRip database
     Copy OK
Track  3
     Filename d:\wave dumps\03 - The Surrey With the Fringe On Top.wav
     Pre-gap length  0:00:02.16
     Peak level 97.2 %
     Extraction speed 4.9 X
     Track quality 100.0 %
     Test CRC 7F16566B
     Copy CRC 7F16566B
     Track not present in AccurateRip database
     Copy OK
Track  4
     Filename d:\wave dumps\04 - Long Before I Knew You,I Fall In Love Too Easily.wav
     Pre-gap length  0:00:01.37
     Peak level 97.2 %
     Extraction speed 5.6 X
     Track quality 100.0 %
     Test CRC 3BF1F329
     Copy CRC 3BF1F329
     Track not present in AccurateRip database
     Copy OK
Track  5
     Filename d:\wave dumps\05 - Nobody Else But Me.wav
     Pre-gap length  0:00:02.14
     Peak level 94.0 %
     Extraction speed 5.4 X
     Track quality 100.0 %
     Test CRC 48DD40DD
     Copy CRC 48DD40DD
     Track not present in AccurateRip database
     Copy OK
Track  6
     Filename d:\wave dumps\06 - Some Other Time.wav
     Pre-gap length  0:00:02.20
     Peak level 97.2 %
     Extraction speed 5.8 X
     Track quality 100.0 %
     Test CRC 1CA8971B
     Copy CRC 1CA8971B
     Track not present in AccurateRip database
     Copy OK
Track  7
     Filename d:\wave dumps\07 - No One Is Alone.wav
     Pre-gap length  0:00:01.76
     Peak level 80.5 %
     Extraction speed 2.2 X
     Track quality 99.9 %
     Test CRC 5FD05C40
     Copy CRC 5FD05C40
     Track not present in AccurateRip database
     Copy OK
Track  8
     Filename d:\wave dumps\08 - You're What I Need.wav
     Pre-gap length  0:00:01.13
     Peak level 97.2 %
     Extraction speed 6.0 X
     Track quality 100.0 %
     Test CRC E522A1F2
     Copy CRC E522A1F2
     Track not present in AccurateRip database
     Copy OK
Track  9
     Filename d:\wave dumps\09 - One More Kiss,Goodbye For Now.wav
     Pre-gap length  0:00:01.08
     Peak level 75.7 %
     Extraction speed 6.8 X
     Track quality 100.0 %
     Test CRC 1D4555C5
     Copy CRC 1D4555C5
     Track not present in AccurateRip database
     Copy OK
Track 10
     Filename d:\wave dumps\10 - I Wish I Could Forget You.wav
     Pre-gap length  0:00:03.25
     Peak level 82.5 %
     Extraction speed 6.8 X
     Track quality 100.0 %
     Test CRC D4F28B2E
     Copy CRC D4F28B2E
     Track not present in AccurateRip database
     Copy OK
Track 11
     Filename d:\wave dumps\11 - Lover, Come Back to Me!.wav
     Pre-gap length  0:00:02.41
     Peak level 97.2 %
     Extraction speed 2.3 X
     Track quality 99.9 %
     Test CRC 6645ABD1
     Copy CRC 6645ABD1
     Track not present in AccurateRip database
     Copy OK
Track 12
     Filename d:\wave dumps\12 - No More.wav
     Pre-gap length  0:00:01.44
     Peak level 97.2 %
     Extraction speed 7.6 X
     Track quality 100.0 %
     Test CRC 8896DA37
     Copy CRC 8896DA37
     Track not present in AccurateRip database
     Copy OK
Track 13
     Filename d:\wave dumps\13 - Make Our Garden Grow.wav
     Pre-gap length  0:00:02.00
     Peak level 97.2 %
     Extraction speed 2.8 X
     Track quality 99.9 %
     Test CRC A705FD82
     Copy CRC A705FD82
     Track not present in AccurateRip database
     Copy OK
None of the tracks are present in the AccurateRip database
No errors occurred
End of status report
==== Log checksum 6ACCF225577A51D39FB90DEB2D0C58C02407A069406D50E527D33C1BD7BEE52F ====
Код:
REM GENRE Jazz
REM DATE 2007
REM DISCID BF0A370D
REM COMMENT "ExactAudioCopy v1.0b2"
PERFORMER "Barbara Cook"
TITLE "No One Is Alone"
FILE "01 - Something's Coming.wav" WAVE
  TRACK 01 AUDIO
    TITLE "Something's Coming"
    PERFORMER "Barbara Cook"
    ISRC H2CO10700899
    INDEX 01 00:00:00
  TRACK 02 AUDIO
    TITLE "Never Never Land"
    PERFORMER "Barbara Cook"
    ISRC H2CO10700900
    INDEX 00 03:14:09
FILE "02 - Never Never Land.wav" WAVE
    INDEX 01 00:00:00
  TRACK 03 AUDIO
    TITLE "The Surrey with the Fringe on Top"
    PERFORMER "Barbara Cook"
    ISRC H2CO10700901
    INDEX 00 02:45:42
FILE "03 - The Surrey with the Fringe on Top.wav" WAVE
    INDEX 01 00:00:00
  TRACK 04 AUDIO
    TITLE "Long Before I Knew You/I Fall in Love Too Easily"
    PERFORMER "Barbara Cook"
    ISRC H2CO10700902
    INDEX 00 02:58:10
FILE "04 - Long Before I Knew You,I Fall in Love Too Easily.wav" WAVE
    INDEX 01 00:00:00
  TRACK 05 AUDIO
    TITLE "Nobody Else But Me"
    PERFORMER "Barbara Cook"
    ISRC H2CO10700903
    INDEX 00 04:21:15
FILE "05 - Nobody Else But Me.wav" WAVE
    INDEX 01 00:00:00
  TRACK 06 AUDIO
    TITLE "Some Other Time"
    PERFORMER "Barbara Cook"
    ISRC H2CO10700904
    INDEX 00 02:32:49
FILE "06 - Some Other Time.wav" WAVE
    INDEX 01 00:00:00
  TRACK 07 AUDIO
    TITLE "No One Is Alone"
    PERFORMER "Barbara Cook"
    ISRC H2CO10700905
    INDEX 00 03:06:69
FILE "07 - No One Is Alone.wav" WAVE
    INDEX 01 00:00:00
  TRACK 08 AUDIO
    TITLE "You're What I Need"
    PERFORMER "Barbara Cook"
    ISRC H2CO10700906
    INDEX 00 03:26:49
FILE "08 - You're What I Need.wav" WAVE
    INDEX 01 00:00:00
  TRACK 09 AUDIO
    TITLE "One More Kiss/Goodbye for Now"
    PERFORMER "Barbara Cook"
    ISRC H2CO10700907
    INDEX 00 02:20:61
FILE "09 - One More Kiss,Goodbye for Now.wav" WAVE
    INDEX 01 00:00:00
  TRACK 10 AUDIO
    TITLE "I Wish I Could Forget You"
    PERFORMER "Barbara Cook"
    ISRC H2CO10700908
    INDEX 00 04:48:52
FILE "10 - I Wish I Could Forget You.wav" WAVE
    INDEX 01 00:00:00
  TRACK 11 AUDIO
    TITLE "Lover, Come Back to Me!"
    PERFORMER "Barbara Cook"
    ISRC H2CO10700909
    INDEX 00 03:13:29
FILE "11 - Lover, Come Back to Me!.wav" WAVE
    INDEX 01 00:00:00
  TRACK 12 AUDIO
    TITLE "No More"
    PERFORMER "Barbara Cook"
    ISRC H2CO10700910
    INDEX 00 02:25:20
FILE "12 - No More.wav" WAVE
    INDEX 01 00:00:00
  TRACK 13 AUDIO
    TITLE "Make Our Garden Grow"
    PERFORMER "Barbara Cook"
    ISRC H2CO10700911
    INDEX 00 04:09:05
FILE "13 - Make Our Garden Grow.wav" WAVE
    INDEX 01 00:00:00
Код:
[CUETools log; Date: 31.12.2019 16:36:21; Version: 2.1.6]
[CTDB TOCID: bsR6L_omJ3aytE3CVBAMTYXZzYI-] found.
Track | CTDB Status
  1   | (3/3) Accurately ripped
  2   | (3/3) Accurately ripped
  3   | (3/3) Accurately ripped
  4   | (3/3) Accurately ripped
  5   | (3/3) Accurately ripped
  6   | (3/3) Accurately ripped
  7   | (3/3) Accurately ripped
  8   | (3/3) Accurately ripped
  9   | (3/3) Accurately ripped
 10   | (3/3) Accurately ripped
 11   | (3/3) Accurately ripped
 12   | (3/3) Accurately ripped
 13   | (3/3) Accurately ripped
[AccurateRip ID: 00145e71-00ccc500-bf0a370d] found.
Track   [  CRC   |   V2   ] Status
 01     [77fcc372|e98b5538] (0+1/1) Accurately ripped
 02     [969bf49b|867b01ce] (0+1/1) Accurately ripped
 03     [bbbc11d1|32b0bc7f] (0+1/1) Accurately ripped
 04     [928c7274|c9754fbf] (0+1/1) Accurately ripped
 05     [f9c1177a|313ad63a] (0+1/1) Accurately ripped
 06     [9898da2d|8f36524d] (0+1/1) Accurately ripped
 07     [6e8e674a|25fd1e36] (0+1/1) Accurately ripped
 08     [91cca6e4|8236fb16] (0+1/1) Accurately ripped
 09     [54d105b3|fd2afaad] (0+1/1) Accurately ripped
 10     [eed46386|a636ddfc] (0+1/1) Accurately ripped
 11     [0a5556d7|7c0a846f] (0+1/1) Accurately ripped
 12     [79e5d5df|fe25da80] (0+1/1) Accurately ripped
 13     [d2df9c89|f364f99a] (0+1/1) Accurately ripped
Track Peak [ CRC32  ] [W/O NULL] [  LOG   ]
 --   97,2 [B6897072] [BAED485F]
 01   97,2 [FB9B8115] [A10B8466]   CRC32
 02   97,2 [8868D02A] [2B36176E]   CRC32
 03   97,2 [7F16566B] [B9F6217D]   CRC32
 04   97,2 [3BF1F329] [DA33A9A2]   CRC32
 05   94,0 [48DD40DD] [4292694A]   CRC32
 06   97,2 [1CA8971B] [53078D84]   CRC32
 07   80,5 [5FD05C40] [CB483B19]   CRC32
 08   97,2 [E522A1F2] [0E15E293]   CRC32
 09   75,7 [1D4555C5] [776C24BF]   CRC32
 10   82,5 [D4F28B2E] [80DBB608]   CRC32
 11   97,2 [6645ABD1] [0BEB626D]   CRC32
 12   97,2 [8896DA37] [9CA79A4B]   CRC32
 13   97,2 [A705FD82] [E103EAA5]   CRC32
Barbara Cook, a Broadway star in the 1950s and '60s and one of the major cabaret singers since the '70s, was nearing 80 when she recorded No One Is Alone. Her very clear and friendly voice, however, could easily pass for someone's half her age. Accompanied by a drumless rhythm section, she performs 15 songs (including a pair of two-song medleys) that debuted in Broadway shows. Her voice is strong, highly expressive and unwavering, doing justice to the lyrics and the songwriters' original conceptions without adding that much of her own personality. She presents the songs as if they were being sung on Broadway, interpreting them very straight like the best cabaret singers, swinging lightly when it is called for and sticking to the words and the melodies. A slight change of pace is offered on the final selection, "Make Our Garden Grow," which has her joined by the 16-voice "Virtuoso Singers." Barbara Cook's fans will want No One Is Alone, a fine recital by the apparently ageless singer.
Правила, инструкции, FAQ!!!
Торрент  Добавлен [05 янв 2020, 15:26] Скачать торрент Магнет ссылка
Скачать торрент
[ Размер 15.94 КБ / Просмотров 7 ]

Статус
Проверен 
 
Размер  183.63 МБ
Приватный: Нет (DHT включён)
.torrent скачан  0
 


     Отправить личное сообщение
   
Страница 1 из 1
Показать сообщения за:  Поле сортировки  
Начать новую тему Ответить на тему


Сейчас этот форум просматривают: нет зарегистрированных пользователей и гости: 0


Вы не можете начинать темы
Вы не можете отвечать на сообщения
Вы не можете редактировать свои сообщения
Вы не можете удалять свои сообщения
Вы не можете добавлять вложения

Перейти:  
cron